#TITLE:Oopsy;
#SUBTITLE:;
#ARTIST:Weki Meki;
#TITLETRANSLIT:;
#SUBTITLETRANSLIT:;
#ARTISTTRANSLIT:;
#CREDIT:;
#BANNER:Oopsy.png;
#BACKGROUND:Oopsy-bg.png;
#LYRICSPATH:;
#CDTITLE:;
#MUSIC:Oopsy.mp3;
#OFFSET:-0.420;
#SAMPLESTART:95.760;
#SAMPLELENGTH:15.000;
#SELECTABLE:YES;
#BPMS:0.000=150.020;
#STOPS:;
#BGCHANGES:;

//---------------dance-single - ----------------
#NOTES:
     dance-single:
     :
     Easy:
     5:
     0.268,0.304,0.084,0.130,0.000:
0000
0000
0000
0000
,
0000
0000
0000
0000
,
0000
0000
0000
0000
,
0000
0000
0000
0000
,
1001
0010
0000
0100
,
0010
0100
0000
0100
,
0000
1000
0000
1001
,
0000
0000
0100
0110
,
0010
0100
0000
0001
,
0000
0100
0000
0010
,
0000
1000
0000
0001
,
0000
0100
0000
0010
,
0000
1000
0000
0100
,
0000
1000
0000
0001
,
0000
0010
0000
1000
,
0000
1000
0000
1010
,
0000
1000
0010
0100
,
0000
1000
0100
0010
,
0000
0001
0010
0001
,
0000
0100
0010
1000
,
0000
0001
0100
0001
,
0000
0010
1000
0010
,
0000
1000
0100
1000
,
0000
0100
0010
1000
,
1001
1000
0001
0100
,
0010
1000
0010
0100
,
0000
0001
0100
0010
,
1000
0010
0100
0001
,
0101
0001
0010
0010
,
0100
0100
1000
1000
,
0010
1000
0001
0100
,
0220
0000
0000
0330
,
0010
0100
0000
0100
,
0010
0100
0000
0010
,
0001
0001
0000
1000
,
0100
1000
0000
0001
,
0010
0100
0010
1000
,
0100
0010
1000
1000
,
0001
1000
0010
0001
,
0010
0001
0100
0010
,
0200
0001
0000
0301
,
0000
0100
0000
1000
,
0010
0100
0010
1000
,
0100
1000
0001
0010
,
0002
1000
0000
1003
,
0000
0010
0000
0100
,
0001
0100
1000
0100
,
0001
0100
0010
1000
,
2020
0000
3030
0000
,
0020
0000
0130
0000
,
0200
0000
0310
0000
,
0002
0000
0013
0000
,
2000
0000
3100
0000
,
0020
0000
0130
0000
,
2000
0000
3010
0000
,
0002
0000
0103
0000
,
1001
1000
0000
0001
,
0000
0100
0000
0010
,
0000
1000
0000
0010
,
0110
0000
0000
0010
,
0100
0010
0000
0010
,
0100
0010
0000
0100
,
1000
1000
0000
0001
,
0010
0001
0000
1000
,
0100
0010
0100
0001
,
0010
0100
0001
0001
,
1000
0001
0100
1000
,
0100
1000
0010
0100
,
0020
1000
0000
1030
,
0000
0010
0000
0001
,
0100
0010
0100
0001
,
0010
0001
1000
0100
,
2000
0001
0000
3001
,
0000
0100
0000
0010
,
1000
0010
0001
0010
,
1000
0010
0100
0001
,
0000
0100
0000
0010
,
0000
1000
0000
0001
,
0000
0100
0000
0010
,
0000
0000
2002
3003
;

//---------------dance-single - ----------------
#NOTES:
     dance-single:
     :
     Beginner:
     2:
     0.193,0.213,0.046,0.061,0.000:
0000
0000
0000
0000
,
0000
0000
0000
0000
,
0000
0000
0000
0000
,
0000
0000
0000
0000
,
0000
0001
0000
0001
,
0000
0001
0000
0001
,
0000
1000
0000
1000
,
0000
0000
0000
1001
,
0000
0010
0000
0100
,
0000
0010
0000
1000
,
0000
0100
0000
1000
,
0000
0001
0000
0010
,
0000
0100
0000
1000
,
0000
0010
0000
0001
,
0000
0010
0000
1000
,
0000
0000
0000
1001
,
0000
1000
1000
1000
,
0000
0001
0001
0001
,
0000
0100
0100
0100
,
0000
1000
1000
1000
,
0000
0010
0010
0010
,
0000
0001
0001
0001
,
0000
0010
0010
0020
,
0000
0000
0030
0000
,
1001
0000
0010
0000
,
0110
0000
0010
0000
,
0100
0000
0001
0000
,
0100
0000
0010
0000
,
1000
0000
1000
0000
,
0001
0000
1000
0000
,
0001
0000
0100
0000
,
0020
0000
0000
0030
,
0000
0010
0100
0010
,
0000
1000
0100
1000
,
0000
0010
0001
0010
,
0000
0001
1000
0001
,
0000
0100
0000
0010
,
0000
1000
0000
1000
,
0000
0100
0000
1000
,
0000
0001
0000
1000
,
2000
0000
3000
1000
,
0000
0010
0000
0100
,
0000
0001
0000
0100
,
0000
0010
0000
0010
,
0020
0000
0030
0010
,
0000
0100
0000
0001
,
0000
0010
0000
0100
,
0000
0001
0000
0001
,
0001
0000
0001
0000
,
1000
0000
0010
0000
,
1000
0000
0100
0000
,
1000
0000
0010
0000
,
0110
0000
0100
0000
,
0010
0000
1000
0000
,
0100
0000
1000
0000
,
0002
0003
0200
0300
,
0000
0010
0000
0010
,
0000
1000
0000
1000
,
0000
0010
0000
0100
,
0000
0100
0000
0010
,
0000
0100
0010
0100
,
0000
0001
0010
0001
,
0000
0100
1000
0100
,
0000
1000
0001
1000
,
0000
0010
0000
0100
,
0000
0001
0000
0001
,
0000
0010
0000
0001
,
0000
1000
0000
0001
,
0002
0000
0003
0001
,
0000
0100
0000
0010
,
0000
1000
0000
0010
,
0000
0100
0000
0100
,
0200
0000
0300
0100
,
0000
0010
0000
1000
,
0000
0001
0000
0100
,
0000
0010
0000
1000
,
1000
1000
0000
0001
,
0000
0100
0000
0001
,
0000
1000
0000
0010
,
0000
1000
0000
1001
;

//---------------dance-single - ----------------
#NOTES:
     dance-single:
     :
     Medium:
     8:
     0.365,0.366,0.137,0.061,0.000:
0000
0000
0000
0000
,
0000
0000
0000
0000
,
0000
0000
0000
0000
,
0000
0000
0000
0000
,
0110
0100
0000
0010
,
1000
0010
0000
0100
,
0001
0100
0000
1000
,
0100
1000
0100
1000
0100
0000
1000
0000
,
0000
0010
0100
0010
0100
0000
0010
0000
,
0000
0100
0000
0010
,
0000
1000
0001
1000
0010
0000
0100
0000
,
0000
0001
0000
1000
,
0000
0001
0100
0001
0010
0000
0001
0000
,
0000
0000
0010
0000
0000
0000
0000
1000
,
0000
0000
0000
0100
0000
0000
0000
1000
,
0000
0100
0010
0100
1000
0100
0010
0000
,
0100
0000
0000
0100
0010
0001
0010
0100
,
0000
0010
0100
0010
,
1000
0000
0100
0001
1000
0000
0010
0000
,
0100
0001
0001
0101
,
0010
0000
0000
0010
0100
1000
0100
0010
,
0000
0100
0010
0100
,
0001
0000
0010
1000
0001
0000
0100
0000
,
0010
1000
1000
1010
,
0100
0100
0100
0000
,
0010
0010
0010
0000
,
1000
1000
1000
0000
,
0001
0001
0001
0000
,
0001
1000
0010
1000
,
0001
0100
0010
1000
,
0100
0001
0100
0010
,
2002
0000
0000
3003
,
0100
1100
0000
1000
,
0000
0001
0100
1000
0000
0000
0010
0000
,
0001
0000
0101
0000
0000
0010
0001
0100
,
0000
0001
0000
0000
0100
0000
0010
0000
,
1010
0000
1000
0010
1000
0010
0000
1000
,
0000
0010
0000
0001
0000
0100
0000
0001
,
0100
0010
1000
0001
,
0100
0001
0010
0001
,
0102
0000
0000
0000
0000
0000
1003
0001
,
0000
0100
0000
0010
0000
0100
0000
0010
,
1000
0000
0010
0000
1000
0000
0010
0100
,
0000
0010
0000
1000
0100
0010
0001
0000
,
1020
0000
0000
0000
0000
0000
1030
0010
,
0000
0001
0000
1000
0000
0001
0000
1000
,
0100
0000
1000
0000
0100
0000
1000
0001
,
0000
1000
0000
0100
0001
1000
0010
0000
,
1001
0000
1000
0000
0100
0010
0100
0000
,
0200
0000
0310
0000
,
0001
0000
1000
0000
0010
1000
0001
0000
,
2000
0000
3100
0000
,
0100
0000
0100
0010
0000
0010
0001
0000
,
0000
0001
1000
0001
1000
0001
1000
0000
,
0010
0000
0001
0010
0000
1000
0000
0000
,
0010
0000
0100
0000
,
1001
0000
0000
0100
0001
0000
0000
0100
,
0000
0010
0000
0100
0010
1000
0100
0000
,
1000
0000
0000
1000
0010
0000
0010
1000
,
0000
0000
1000
0001
1000
0000
0110
0000
,
0010
0101
0000
0001
,
0000
1000
0010
0001
0000
0000
0100
0000
,
1000
0000
1010
0000
0000
0100
1000
0010
,
0000
1000
0000
0000
0010
0000
0100
0000
,
0101
0000
0001
0100
0001
0100
0000
0001
,
0000
0100
0000
1000
0000
0010
0000
1000
,
0010
0100
0001
1000
,
0010
1000
0100
1000
,
2010
0000
0000
0000
0000
0000
3001
1000
,
0000
0010
0000
0100
0000
0010
0000
0100
,
0001
0000
0100
0000
0001
0000
0100
0010
,
0000
0100
0000
0001
0010
0100
1000
0000
,
0201
0000
0000
0000
0000
0000
0301
0100
,
0000
1000
0000
0001
0000
1000
0000
0001
,
0010
0000
0001
0000
0010
0000
0001
1000
,
0000
0001
0000
0010
1000
0001
0100
0000
,
1001
0000
0000
0001
0010
0000
0100
0010
,
0000
1000
0000
1000
0100
0010
0001
0000
,
1000
0000
0000
1000
0010
0000
0100
0010
,
0000
1000
0000
0001
1000
0001
1000
0001
;

//---------------dance-single - ----------------
#NOTES:
     dance-single:
     :
     Hard:
     12:
     0.459,0.549,0.122,0.130,0.069: // measure 1
0000
0000
0000
0000
,  // measure 2
0000
0000
0000
0000
,  // measure 3
0000
0000
0000
0000
,  // measure 4
0000
0000
0000
0000
,  // measure 5
0100
0010
0000
0010
,  // measure 6
1000
0000
0001
1000
0000
0000
0100
0000
,  // measure 7
0010
0000
1000
0000
0000
0000
0001
0100
,  // measure 8
0000
0000
0001
0100
0001
0000
0100
0000
0010
0000
0000
0000
1000
0000
0000
0000
,  // measure 9
0000
0100
0001
0100
0010
0000
0001
0100
,  // measure 10
0000
0000
0010
1000
0100
1000
0010
0000
,  // measure 11
1000
0100
1000
0010
0100
0000
0001
0000
,  // measure 12
0000
1000
0100
0010
0000
0010
0100
1000
,  // measure 13
0000
1000
0001
0100
0001
0010
0100
1000
,  // measure 14
0000
0010
0100
0001
1000
0010
0000
0100
,  // measure 15
0000
1000
0010
1000
0000
0100
0010
0100
,  // measure 16
0000
2000
3200
0320
0032
0103
0010
1000
,  // measure 17
0001
0100
0010
0100
0010
1000
0100
1000
,  // measure 18
0000
1000
0010
0001
0010
1000
0001
0100
,  // measure 19
0000
0001
0000
0000
0100
0000
0010
1000
,  // measure 20
0000
0100
0000
0000
0010
0000
1001
0000
,  // measure 21
1000
0010
0100
0010
0100
0001
0010
0001
,  // measure 22
0000
0001
0100
1000
0100
0001
1000
0010
,  // measure 23
0100
0000
0010
0000
0010
0000
0100
0001
,  // measure 24
0000
0010
0100
0010
0100
0000
1001
0000
,  // measure 25
0010
0000
0010
0001
0100
1000
0100
0001
,  // measure 26
0100
1000
0010
0100
0000
0010
0000
0000
,  // measure 27
0100
0000
0100
1000
0010
0001
0010
1000
,  // measure 28
0010
0001
0100
0010
0000
0100
0000
0001
,  // measure 29
0010
0000
0000
0001
0000
0000
0100
0000
0010
0000
0000
0010
0000
0000
0100
0000
,  // measure 30
1000
0000
0000
1000
0000
0000
1000
0000
0010
0000
0000
0000
0000
0000
0010
0000
,  // measure 31
0100
0000
0000
0010
0000
0000
1000
0000
0100
0000
0000
1000
0000
0000
0001
0000
,  // measure 32
0020
0000
0000
0000
0030
0001
0010
0100
,  // measure 33
1000
0000
1010
0000
0000
0000
0010
2000
,  // measure 34
0000
3010
0100
1000
0000
0010
1000
0100
,  // measure 35
0001
0000
0011
0000
0000
1000
0010
0001
,  // measure 36
0000
0001
0000
0100
0000
0010
0100
0010
,  // measure 37
0000
1000
0010
0001
0010
1000
0000
0001
,  // measure 38
0000
0000
0100
0000
0010
0000
0001
0000
0100
0000
0000
0010
0000
0000
0100
0000
,  // measure 39
0010
1000
0010
1000
,  // measure 40
1000
0010
0000
0000
0010
1000
0000
0000
1000
0010
0000
0000
1010
0000
0000
0000
,  // measure 41
2100
0000
0000
0000
0000
0000
3100
1000
,  // measure 42
0000
0000
0000
1000
0000
0001
0000
0100
,  // measure 43
0001
0000
0001
0100
0010
0100
0001
1000
,  // measure 44
0000
1000
0000
1000
0001
1000
0001
0000
,  // measure 45
0201
0000
0000
0000
0000
0000
0301
0100
,  // measure 46
0000
0000
0000
0100
0000
0010
0000
0001
,  // measure 47
0010
0000
0010
0001
1000
0001
0010
0100
,  // measure 48
0000
0100
0000
0100
0010
0100
0010
0000
,  // measure 49
0002
0000
0000
0000
0100
0000
0000
0000
0103
0001
0000
0000
0001
0100
0000
0000
,  // measure 50
0202
0000
0303
0000
,  // measure 51
2000
0000
0000
0000
0010
0000
0000
0000
3010
1000
0000
0000
1000
0010
0000
0000
,  // measure 52
0220
0000
0330
0000
,  // measure 53
0100
0000
0100
0010
0000
0010
0100
0000
,  // measure 54
0000
0100
0001
0000
0001
0010
0100
0000
,  // measure 55
0010
0000
1000
0010
0000
0100
0000
0010
,  // measure 56
1000
0000
0010
0000
,  // measure 57
1001
0000
1000
0010
0100
0000
0000
0010
,  // measure 58
0000
0100
0000
0100
0010
0100
0001
0000
,  // measure 59
0001
0000
0100
0001
0010
0000
0000
0110
,  // measure 60
0000
0000
0100
0010
0100
0000
0010
0000
,  // measure 61
0001
0000
0101
0000
0000
0000
0100
0002
,  // measure 62
0000
0103
0010
0001
0000
0100
0001
0010
,  // measure 63
1000
0000
1100
0000
0000
0001
0100
1000
,  // measure 64
0000
1000
0000
0010
0000
0100
0010
0100
,  // measure 65
0000
0001
0100
1000
0100
0001
0000
1000
,  // measure 66
0000
0000
0010
0000
0100
0000
1000
0000
0010
0000
0000
0100
0000
0000
0010
0000
,  // measure 67
0100
0001
0100
0001
,  // measure 68
0001
0100
0000
0000
0100
0001
0000
0000
0001
0100
0000
0000
0101
0000
0000
0000
,  // measure 69
0012
0000
0000
0000
0000
0000
0013
0001
,  // measure 70
0000
0000
0000
0001
0000
1000
0000
0010
,  // measure 71
1000
0000
1000
0010
0100
0010
1000
0001
,  // measure 72
0000
0001
0000
0001
1000
0001
1000
0000
,  // measure 73
1020
0000
0000
0000
0000
0000
1030
0010
,  // measure 74
0000
0000
0000
0010
0000
0100
0000
1000
,  // measure 75
0100
0000
0100
1000
0001
1000
0100
0010
,  // measure 76
0000
0010
0000
0010
0100
0010
0100
0000
,  // measure 77
0010
0000
1000
0010
1000
0000
0000
0010
,  // measure 78
0000
0100
0000
1000
0100
0010
0001
0000
,  // measure 79
0001
0000
0100
0001
1000
0000
0000
1000
,  // measure 80
0000
0010
0000
1000
0010
0001
0010
1000
;
