#TITLE:One & Only;
#SUBTITLE:;
#ARTIST:LOONA;
#TITLETRANSLIT:;
#SUBTITLETRANSLIT:;
#ARTISTTRANSLIT:;
#CREDIT:;
#BANNER:One & Only.png;
#BACKGROUND:One & Only-bg.png;
#LYRICSPATH:;
#CDTITLE:;
#MUSIC:One & Only.mp3;
#OFFSET:-0.840;
#SAMPLESTART:35.520;
#SAMPLELENGTH:15.000;
#SELECTABLE:YES;
#BPMS:0.000=110.000;
#STOPS:;
#BGCHANGES:-1.840=One & Only.avi=1.000=0=0=0,
99999=-nosongbg-=1.000=0=0=0 // don't automatically add -songbackground-
;

//---------------dance-single - ----------------
#NOTES:
     dance-single:
     :
     Easy:
     4:
     0.234,0.310,0.134,0.343,0.004:
0000
0000
0000
0000
,
0000
0000
0000
0000
,
0000
0000
0000
0000
,
0000
0000
0000
0000
,
0001
0010
0001
0100
,
0010
1000
0010
0100
,
0010
1000
0001
0100
,
0020
0030
0020
0030
,
0100
0010
1000
0001
,
0100
0001
1000
0100
,
1000
0010
0100
0001
,
2000
3000
2000
3000
,
2000
0000
0000
3000
,
0020
0000
0000
0030
,
0002
0000
0000
0003
,
0200
0000
0000
0300
,
2002
3003
0010
0100
,
0001
0010
0001
1000
,
0100
1000
0010
0100
,
0202
0303
2020
3030
,
2002
3003
0001
0100
,
0001
0010
0100
1000
,
0010
0001
0010
1000
,
2200
3300
0022
0033
,
0000
0001
0100
0010
,
0000
0100
0010
1000
,
0000
0100
0010
0001
,
0202
0303
2020
3030
,
0000
1000
0000
0010
,
0000
1000
0010
0001
,
0000
0100
0000
0010
,
0000
0010
0100
0010
,
0000
0001
0000
0100
,
0000
0001
1000
0001
,
0000
1000
0000
0010
,
0000
0100
0010
0001
,
2002
3003
0100
0010
,
1000
0100
1000
0001
,
0010
0001
0100
0010
,
2020
3030
0202
0303
,
2002
3003
1000
0010
,
1000
0100
0010
0001
,
0100
1000
0100
0001
,
0022
0033
2200
3300
,
0000
1000
0010
0100
,
0000
0010
0100
0001
,
0000
0010
0100
1000
,
2020
3030
0202
0303
,
0000
0001
1000
0100
,
0000
0001
0100
1000
,
0000
0010
0001
0100
,
0000
0000
0000
0100
0000
0000
1000
0000
0000
0100
0000
2000
,
0000
0000
0000
0000
,
3000
0000
0000
0000
;

//---------------dance-single - ----------------
#NOTES:
     dance-single:
     :
     Beginner:
     1:
     0.142,0.152,0.084,0.033,0.000:
0000
0000
0000
0000
,
0000
0000
0000
0000
,
0000
0000
0000
0000
,
0000
0000
0000
0000
,
0000
0010
0000
1000
,
0000
0001
0000
0100
,
0000
0010
0000
1000
,
0000
0001
0000
0100
,
0000
0001
0000
0010
,
0000
0010
0000
0001
,
0000
1000
0000
0100
,
0000
1000
0000
0010
,
0000
1000
1000
1000
,
0000
0100
0100
0100
,
0000
0010
0010
0010
,
0000
0001
0001
0001
,
0000
0001
0000
1000
,
0000
0010
0100
0010
,
0000
0100
0000
0001
,
0000
1000
0001
1000
,
0000
0001
0000
0100
,
0000
0001
0010
0001
,
0000
1000
0000
0010
,
0000
1000
0100
1000
,
0000
0010
0000
0110
,
0000
1000
0000
1001
,
0000
0001
0000
1001
,
0000
0002
0000
0003
,
0000
0001
0000
0100
,
0000
0010
0000
1000
,
0000
0001
0000
0100
,
0000
0001
0000
1000
,
0000
0010
0000
0100
,
0000
0010
0000
1000
,
0000
0100
0000
1000
,
0000
0001
0000
0010
,
0000
1000
0000
0001
,
0000
0100
0010
0100
,
0000
0010
0000
1000
,
0000
0001
1000
0001
,
0000
1000
0000
0010
,
0000
1000
0100
1000
,
0000
0001
0000
0100
,
0000
0001
0010
0001
,
0000
0100
0000
0110
,
0000
0001
0000
1001
,
0000
1000
0000
1001
,
0000
0020
0000
0030
,
0000
0100
0000
1001
,
0000
0010
0000
0110
,
0000
0001
0000
0110
,
2002
0000
0000
0000
,
3003
0000
0000
0000
;

//---------------dance-single - ----------------
#NOTES:
     dance-single:
     :
     Medium:
     7:
     0.304,0.332,0.067,0.150,0.042:
0000
0000
0000
0000
,
0000
0000
0000
0000
,
0000
0000
0000
0000
,
0000
0000
0000
0000
,
0100
0010
0100
0000
0010
0100
0001
0000
,
0001
0000
0100
0000
0010
1000
0001
0000
,
1000
0100
0010
0000
0001
0010
0100
0000
,
0001
0000
1000
0000
,
0010
0100
0010
0000
0100
0010
1000
0000
,
1000
0000
0010
0000
0100
0001
1000
0000
,
0001
0010
0100
0000
1000
0100
0010
0000
,
1000
0000
0001
0000
,
0100
0001
0010
0000
0001
0010
1000
0000
,
1000
0010
0001
0000
0010
0100
0010
0000
,
1000
0100
0010
0000
0100
0010
1000
0000
,
0010
1000
0001
0000
1001
0000
0110
0000
,
0220
0330
0010
0100
,
0001
0100
0100
0000
0010
1000
0010
0000
,
0100
0010
1000
0000
0010
1000
0001
0000
,
0100
0001
0010
0000
0010
1000
0001
0000
,
2002
3003
0100
0010
,
1000
0100
1000
0000
0100
1000
0100
0000
,
0001
0010
0001
0000
0100
0010
1000
0000
,
0010
0100
0001
0000
1000
0001
1000
0000
,
0001
0000
0000
0001
0000
0000
0001
0000
0000
0000
0001
0000
0000
0000
0000
0000
,
0010
0000
0000
0010
0000
0000
0010
0000
0000
0000
0010
0000
0000
0000
0000
0000
,
0100
0000
0000
0100
0000
0000
0100
0000
0000
0000
0100
0000
0000
0000
0000
0000
,
2000
3200
2300
3100
,
1010
0010
0100
0001
,
0100
0000
0001
0000
1000
0010
1000
0000
,
0010
0100
0001
0100
,
0010
0000
1000
0000
0100
0100
0100
0000
,
0010
1000
0001
0100
,
0001
0000
0010
0000
0001
0001
0100
0000
,
0010
1000
0010
0100
,
0001
0100
0001
0100
,
0220
0330
0100
0010
,
1000
0010
0010
0000
0100
0001
0100
0000
,
0010
0100
0001
0000
0100
0001
1000
0000
,
0010
1000
0100
0000
0100
0001
1000
0000
,
2002
3003
0010
0100
,
0001
0010
0001
0000
0010
0001
0010
0000
,
1000
0100
1000
0000
0010
0100
0001
0000
,
0100
0010
1000
0000
0001
1000
0001
0000
,
1000
0000
0000
1000
0000
0000
1000
0000
0000
0000
1000
0000
0000
0000
0000
0000
,
0100
0000
0000
0100
0000
0000
0100
0000
0000
0000
0100
0000
0000
0000
0000
0000
,
0010
0000
0000
0010
0000
0000
0010
0000
0000
0000
0010
0000
0000
0000
0000
0000
,
0002
0023
0032
0013
,
0101
0000
0000
0010
0000
0000
0100
0000
0000
0000
1000
0000
0000
0000
0000
0000
,
1000
0000
0000
0100
0000
0000
0010
0000
0000
0000
0001
0000
0000
0000
0000
0000
,
0100
0000
0000
0010
0000
0000
0100
0000
0000
0000
0010
0000
0000
0000
0000
0000
,
2000
0000
0000
3002
0000
0000
2003
0000
0000
3001
0000
2000
,
0000
0000
0000
0000
,
3000
0000
0000
0000
;

//---------------dance-single - ----------------
#NOTES:
     dance-single:
     :
     Hard:
     15:
     0.483,0.642,0.234,0.226,0.334: // measure 1
0000
0000
0000
0000
,  // measure 2
0000
0000
0000
0000
,  // measure 3
0000
0000
0000
0000
,  // measure 4
0000
0000
0000
0000
0000
0000
0000
0000
0000
0000
0000
0000
0000
0000
0010
1000
,  // measure 5
0100
0000
0010
0000
0100
0000
0001
0000
0100
0000
0100
0010
0000
0000
0100
0010
,  // measure 6
1000
0010
0100
0010
1000
0000
0001
0100
0010
0100
0000
0001
0000
0000
0000
0000
,  // measure 7
0002
0013
0020
0031
0002
1003
2000
3010
,  // measure 8
0000
0000
0110
0000
0000
0000
0020
0000
0000
0000
0130
0000
0100
0000
0010
0100
,  // measure 9
0001
0000
0100
0000
0010
0000
1000
0000
0010
0000
0000
1000
0000
0000
0010
1000
,  // measure 10
0001
0100
0010
1000
0001
0000
0100
0001
1000
0000
0100
0000
0010
0000
0001
0000
,  // measure 11
2000
3100
0200
1300
2000
3001
0002
0103
,  // measure 12
0000
0110
0000
0200
0000
0310
0010
0000
,  // measure 13
1000
0010
1000
0010
1000
0001
0100
0001
0100
0001
1000
0010
1000
0000
0001
0000
,  // measure 14
0100
0010
0100
0010
0100
0001
1000
0001
1000
0001
0100
0010
0100
0000
0010
0000
,  // measure 15
0001
0100
0001
0100
0001
1000
0010
1000
0010
1000
0001
0100
0001
0000
1000
0000
,  // measure 16
0010
0100
0010
0100
0010
1000
0001
1000
0002
0000
0000
0000
1003
0000
0001
0000
,  // measure 17
1000
0000
0001
0000
0000
0000
0000
0000
0100
0001
0000
0001
0000
1000
0010
0000
,  // measure 18
1000
0001
0100
0000
1000
0010
0100
0000
0010
0100
0001
0000
0001
0010
0100
1000
,  // measure 19
0001
0100
1000
0100
0001
0100
0010
0000
,  // measure 20
1000
0010
0001
0100
1000
0001
0100
0002
,  // measure 21
0010
0000
0013
0000
0000
0000
0000
0100
0000
0010
0000
1000
0000
0010
0000
0100
,  // measure 22
0000
0000
0000
0000
0010
0100
0001
0000
1000
0010
0100
0000
1000
0100
0010
0001
,  // measure 23
1000
0100
0010
0100
1000
0010
1000
0000
,  // measure 24
0001
0010
0100
0010
0001
0100
0001
0000
,  // measure 25
0101
0000
0000
1010
0000
0000
0110
0000
0000
0000
0010
0000
0000
0000
0100
0000
,  // measure 26
1001
0000
0000
1010
0000
0000
0101
0000
0000
0000
0001
0000
0000
0000
0100
0000
,  // measure 27
1100
0000
0000
0011
0000
0000
1100
0000
0000
0000
0010
0000
0000
0000
0000
0000
,  // measure 28
0002
0203
0320
2030
,  // measure 29
3010
1000
0010
0100
0001
0000
0010
0010
,  // measure 30
0000
0001
0000
0100
0000
0000
0010
1000
,  // measure 31
0000
2000
0000
3000
0000
0000
0010
1000
,  // measure 32
0010
0001
0010
1000
0010
0000
0100
0200
,  // measure 33
0000
0300
0000
0000
0000
0100
0010
0100
,  // measure 34
0001
0010
0001
0000
0100
0000
0010
1000
,  // measure 35
0000
1000
0010
0100
0000
0000
0100
1000
,  // measure 36
0100
0010
0100
0010
0001
0010
0001
1000
,  // measure 37
0001
0000
1000
0000
0000
0000
0000
0000
0010
1000
0000
1000
0000
0001
0100
0000
,  // measure 38
0001
1000
0010
0000
0001
0100
0010
0000
0100
0010
1000
0000
1000
0100
0010
0001
,  // measure 39
1000
0010
0001
0010
1000
0010
0100
0000
,  // measure 40
0001
0100
1000
0010
0001
1000
0010
2000
,  // measure 41
0100
0000
3100
0000
0000
0000
0000
0010
0000
0100
0000
0001
0000
0100
0000
0010
,  // measure 42
0000
0000
0000
0000
0100
0010
1000
0000
0001
0100
0010
0000
0001
0010
0100
1000
,  // measure 43
0001
0010
0100
0010
0001
0100
0001
0000
,  // measure 44
1000
0100
0010
0100
1000
0010
1000
0000
,  // measure 45
1010
0000
0000
0101
0000
0000
0110
0000
0000
0000
0100
0000
0000
0000
0010
0000
,  // measure 46
1001
0000
0000
0101
0000
0000
1010
0000
0000
0000
1000
0000
0000
0000
0010
0000
,  // measure 47
0011
0000
0000
1100
0000
0000
0011
0000
0000
0000
0100
0000
0000
0000
0000
0000
,  // measure 48
2000
3020
0230
0302
,  // measure 49
0103
0000
0000
1001
0000
0000
0110
0000
0000
0000
0010
0000
0000
0000
1000
0000
,  // measure 50
1100
0000
0000
0110
0000
0000
0011
0000
0000
0000
0001
0000
0000
0000
0010
0000
,  // measure 51
0101
0000
0000
0110
0000
0000
1010
0000
0000
0000
1000
0000
0000
0000
0010
0000
,  // measure 52
0020
0000
0000
0030
0000
0000
0200
0000
0000
0300
0000
0000
0020
0000
0000
0030
0000
0000
0100
0000
0000
0000
0020
0000
,  // measure 53
0000
0000
0000
0000
,  // measure 54
0030
0000
0000
0000
;
