#TITLE:On The Ground;
#SUBTITLE:;
#ARTIST:ROSÉ;
#TITLETRANSLIT:;
#SUBTITLETRANSLIT:;
#ARTISTTRANSLIT:;
#CREDIT:;
#BANNER:On The Ground.png;
#BACKGROUND:On The Ground-bg.png;
#LYRICSPATH:;
#CDTITLE:;
#MUSIC:On The Ground.mp3;
#OFFSET:-0.540;
#SAMPLESTART:42.870;
#SAMPLELENGTH:15.000;
#SELECTABLE:YES;
#BPMS:0.000=95.000;
#STOPS:;
#BGCHANGES:-1.240=On The Ground.avi=1.000=0=0=0,
99999=-nosongbg-=1.000=0=0=0 // don't automatically add -songbackground-
;

//---------------dance-single - ----------------
#NOTES:
     dance-single:
     :
     Easy:
     3:
     0.184,0.249,0.100,0.181,0.000:
0000
0000
0000
0000
,
2000
0010
3100
0010
,
0100
0001
0010
0100
,
2000
0010
3100
0001
,
0100
0010
1000
0001
,
0002
1000
0013
0001
,
0100
0010
1000
0010
,
0100
0010
1000
0010
,
0200
0000
0310
0100
,
0110
0000
1000
0001
,
0100
0000
0010
1000
,
0001
0000
0001
0010
,
0100
0000
0010
0100
,
1000
0000
1000
0010
,
0100
0000
0001
0100
,
0010
0000
1000
0100
,
1100
0011
1100
0011
,
0002
0010
0003
0100
,
0010
1000
0000
1000
,
2000
0010
3000
0010
,
0001
0100
0000
0010
,
0100
1000
0000
0010
,
0000
0010
0000
0200
,
0300
0010
0000
1000
,
0000
0001
0000
0100
,
2002
0000
3003
0000
,
2000
0000
3000
0000
,
0020
0000
0030
0000
,
2000
0000
3000
0000
,
0002
0000
0003
0000
,
0200
0000
0300
0000
,
0020
0000
0030
0000
,
2000
0000
3000
0000
,
0011
1100
0011
1100
,
2000
0100
3000
0010
,
0100
0001
0000
0001
,
0002
0100
0003
0100
,
1000
0010
0000
0100
,
0010
0001
0000
0100
,
0000
0100
0000
0010
,
0000
0100
0000
0001
,
0000
1000
0000
0010
,
2002
3003
0000
0000
;

//---------------dance-single - ----------------
#NOTES:
     dance-single:
     :
     Beginner:
     1:
     0.129,0.153,0.072,0.127,0.000:
0000
0000
0000
0000
,
0020
0000
0030
0000
,
2000
0000
3000
0000
,
0002
0000
0003
0000
,
0020
0000
0030
0000
,
2000
0000
3000
0000
,
0002
0000
0003
0000
,
0200
0000
0300
0000
,
2002
0000
3003
0000
,
0010
0010
0010
0000
,
1000
1000
1000
0000
,
0001
0001
0001
0000
,
0100
0100
0100
0000
,
0010
0010
0010
0000
,
1000
1000
1000
0000
,
0110
0000
0000
0000
,
1001
0110
1001
0000
,
0000
0010
0000
1000
,
0000
0001
0000
0100
,
0000
0001
0000
1000
,
0000
0010
0000
0100
,
0000
0010
0000
1000
,
0000
0001
0000
0001
,
0000
0100
0000
0010
,
0000
0001
0000
0100
,
0200
0000
0300
0000
,
0020
0000
0030
0000
,
2000
0000
3000
0000
,
0002
0000
0003
0000
,
1000
0000
0010
0000
,
1000
0000
0010
0000
,
0100
0000
0001
0000
,
0010
0000
0001
0000
,
1001
0110
1001
0000
,
0000
0010
0000
1000
,
0000
0010
0000
0100
,
0000
0001
0000
0010
,
0000
0001
0000
1000
,
0000
0100
0000
1000
,
0000
0010
0000
1000
,
0000
0010
0000
0100
,
0000
0001
0000
0100
,
0200
0300
0000
0000
;

//---------------dance-single - ----------------
#NOTES:
     dance-single:
     :
     Medium:
     6:
     0.267,0.287,0.054,0.217,0.000:
0000
0000
0000
0000
,
1000
0000
0010
1000
0010
0000
0100
0010
,
1000
0000
0001
0010
0001
0000
0100
0010
,
0001
0000
0001
0010
1000
0000
1000
0100
,
0010
0000
0010
0100
0001
0100
0010
1000
,
0010
0010
0010
0000
1000
1000
1000
0000
,
0001
0001
0001
0000
0100
0100
0100
0000
,
0001
0001
0001
0000
0010
0010
0010
0000
,
2002
0000
3003
0000
,
1000
0010
1000
0001
,
0010
0001
0100
0010
,
1000
0001
0100
0010
,
0200
0000
0300
0000
,
0001
0100
0001
1000
,
0100
1000
0010
0100
,
0001
1000
0010
0100
,
0101
0000
0110
0000
1010
0000
1000
0001
,
2000
0000
0010
0000
3010
0000
0100
0010
,
1000
0000
0001
0000
0100
0000
0001
0100
,
0002
0000
0100
0000
0103
0000
0010
1000
,
0001
0000
0100
0000
0010
0000
1000
0010
,
0100
0000
0010
0000
1000
0000
0001
1000
,
0010
0000
1000
0000
0010
0000
1000
0010
,
0001
0000
0100
0000
0010
0000
0001
0010
,
0100
0000
1000
0000
0010
0000
0100
0010
,
0002
0000
2003
0000
,
3020
0000
0230
0000
,
0320
0000
2030
0000
,
3002
0000
0023
0000
,
0230
0000
2300
0000
,
3200
0000
2300
0000
,
3020
0000
0230
0000
,
0302
0000
2003
0000
,
3010
0000
0110
0000
0101
0000
0001
1000
,
0002
0000
0100
0000
0103
0000
0010
0100
,
0001
0000
1000
0000
0010
0000
1000
0010
,
2000
0000
0010
0000
3010
0000
0100
0001
,
1000
0000
0010
0000
0100
0000
0001
0100
,
0010
0000
0100
0000
0001
0000
1000
0001
,
0100
0000
0001
0000
0100
0000
0001
0100
,
1000
0000
0010
0000
0100
0000
1000
0100
,
0010
0000
0001
0000
0100
0000
0010
0100
,
0020
0030
0000
0000
;

//---------------dance-single - ----------------
#NOTES:
     dance-single:
     :
     Hard:
     13:
     0.426,0.498,0.109,0.172,0.326: // measure 1
0000
0000
0000
0000
,  // measure 2
0000
0100
0010
0100
0001
1000
0010
0100
,  // measure 3
0010
0000
1000
0010
0100
0010
1000
0010
0100
0000
0001
0010
0001
0000
0100
0010
,  // measure 4
1000
0000
0010
0000
1000
0100
0010
0001
0100
0000
0001
0000
0001
0010
0100
1000
,  // measure 5
0010
0000
1000
0010
0100
0001
0010
0001
1000
0000
0010
0000
0100
0000
0110
0000
,  // measure 6
0010
0001
1000
0000
0100
0001
1000
0000
,  // measure 7
0100
0010
0001
0010
0100
0000
1000
0000
0010
0000
0100
0000
0001
0000
0000
0000
,  // measure 8
1000
0010
0001
0000
0100
0010
0001
0000
,  // measure 9
1001
0000
0000
0100
0010
0001
0100
0000
,  // measure 10
0202
0303
0001
1000
0010
0000
1000
0000
,  // measure 11
0100
1000
0010
0000
2002
0000
3003
0000
,  // measure 12
0100
0100
0010
1000
0010
0001
0010
1000
,  // measure 13
0202
0000
0303
0100
0010
0100
0010
0000
,  // measure 14
2020
3030
1000
0001
0100
0000
0001
0000
,  // measure 15
0010
0001
0100
0000
2002
0000
3003
0000
,  // measure 16
0010
0010
0100
0001
0100
1000
0100
0001
,  // measure 17
1000
0100
0001
0100
1000
0100
0010
0001
,  // measure 18
1001
0000
0010
0000
1000
0000
0000
0010
0000
0100
0000
0000
0010
0000
0001
0010
,  // measure 19
0100
0000
0000
0000
1000
0000
0000
0010
0000
1000
0000
0000
0010
0000
0100
0000
,  // measure 20
0001
0000
0000
0000
0100
0000
0000
0001
0000
0001
0000
0000
0100
0000
1000
0100
,  // measure 21
0010
1000
0001
0100
0001
1000
0010
1000
,  // measure 22
0110
0000
0001
0000
0000
0000
1000
0100
0010
0001
0010
0000
0000
0000
0000
1000
,  // measure 23
0000
0010
0000
0100
0000
0000
0000
0001
0000
0100
0000
0200
0000
0000
0010
0000
,  // measure 24
0300
0000
0010
0000
0000
0000
0001
0100
0001
1000
0010
0000
0000
0000
1000
0100
,  // measure 25
0000
1000
0000
0100
0000
0010
0000
0100
0000
1000
0000
0001
0000
1000
0002
0000
,  // measure 26
0000
0000
0000
0000
0003
0000
0000
0010
0100
0000
0010
0100
0000
0100
0001
0000
,  // measure 27
2000
0000
0000
0000
3000
0000
0000
1000
0001
0000
0001
0100
0000
0010
1000
0000
,  // measure 28
0020
0000
0000
0000
0030
0000
0001
0010
0001
0010
0001
0100
0000
0000
0000
0000
,  // measure 29
0010
0001
0100
1000
0010
0100
0010
0100
,  // measure 30
2002
0000
0000
0000
3003
0000
0000
0100
0010
0000
0100
0010
0000
0010
1000
0000
,  // measure 31
0002
0000
0000
0000
0003
0000
0000
0001
1000
0000
1000
0010
0000
0100
0001
0000
,  // measure 32
0200
0000
0000
0000
0300
0000
1000
0100
1000
0100
1000
0010
0000
0000
0000
0000
,  // measure 33
0100
1000
0010
0001
0100
0010
0100
0010
,  // measure 34
1000
0100
0010
0001
0010
0100
1000
0000
,  // measure 35
1001
0000
0100
0000
0001
0000
0000
0100
0000
0010
0000
0000
0100
0000
1000
0100
,  // measure 36
0010
0000
0000
0000
0001
0000
0000
0100
0000
0001
0000
0000
0100
0000
0010
0000
,  // measure 37
1000
0000
0000
0000
0010
0000
0000
1000
0000
1000
0000
0000
0010
0000
0001
0010
,  // measure 38
0100
0001
1000
0010
1000
0001
0100
0001
,  // measure 39
0110
0000
1000
0000
0000
0000
0001
0010
0100
1000
0100
0000
0001
0000
0000
0000
,  // measure 40
1000
0000
0000
0000
0010
0000
0000
1000
0000
0010
0000
0000
0010
0000
0100
0000
,  // measure 41
0010
0000
0100
0000
0000
0000
1000
0010
1000
0001
0100
0000
0010
0000
0000
0000
,  // measure 42
0001
0000
0100
0010
0001
0010
0100
0010
,  // measure 43
0002
0003
0000
0000
;
