#TITLE:Novocaine;
#SUBTITLE:;
#ARTIST:Valentino Khan & Kayzo;
#TITLETRANSLIT:;
#SUBTITLETRANSLIT:;
#ARTISTTRANSLIT:;
#CREDIT:;
#BANNER:Novocaine.png;
#BACKGROUND:Novocaine-bg.png;
#LYRICSPATH:;
#CDTITLE:;
#MUSIC:Novocaine.mp3;
#OFFSET:-0.080;
#SAMPLESTART:35.314;
#SAMPLELENGTH:15.000;
#SELECTABLE:YES;
#BPMS:0.000=170.000;
#STOPS:;
#BGCHANGES:;

//---------------dance-single - ----------------
#NOTES:
     dance-single:
     :
     Easy:
     5:
     0.286,0.336,0.052,0.035,0.000:
0000
0000
0000
0000
,
0000
0000
0000
0000
,
0000
0000
0000
0000
,
0000
0000
0000
0000
,
0000
0000
0000
0000
,
0000
0000
0000
0000
,
0000
0000
0000
0000
,
0000
0000
0000
0000
,
0220
0000
0000
0000
,
0330
0000
0000
0000
,
1000
0010
1000
0001
,
0100
0001
0100
0010
,
0100
0010
1000
0001
,
1000
0001
0100
0001
,
0100
0010
0100
0010
,
0100
0001
0010
0100
,
1000
0010
0001
0010
,
1000
0001
0100
1000
,
0010
1000
0010
0000
,
0010
0100
0010
0000
,
0001
0100
0010
0000
,
1000
0001
1000
0000
,
0001
0100
0010
0000
,
0100
0010
0100
0000
,
0010
0100
0010
0100
,
0110
0000
0000
0000
,
1000
0001
1000
0010
,
0100
0010
1000
0000
,
0001
0100
1000
0100
,
0001
0100
1000
0000
,
0001
1000
0001
1000
,
0010
0100
0010
0000
,
1000
0010
0001
0010
,
1000
0001
0100
0001
,
1001
0001
0001
0100
,
0010
0100
0001
0000
,
1000
0010
0001
0010
,
1000
0010
0001
0000
,
1000
0001
1000
0001
,
0100
0010
0100
0000
,
0001
0100
1000
0100
,
0001
1000
0010
1000
,
1001
0000
0010
0100
,
0010
0100
0010
1000
,
0001
0100
0001
1000
,
0010
0100
0010
1000
,
0001
0100
0010
0100
,
0001
1000
0010
1000
,
0001
0100
0001
0001
,
0001
1000
0010
0100
,
0010
1000
0100
0010
,
0001
0010
0100
1000
,
0001
1000
0001
0100
,
0010
0100
0010
1000
,
0001
1000
0010
0100
,
0010
0100
0001
0010
,
0001
1000
0100
0010
,
0100
1000
0010
0100
,
0110
0100
0000
0010
,
0000
0100
0000
0001
,
0000
1000
0000
0010
,
0000
1000
0000
0001
,
0000
0100
0000
0001
,
0000
0100
0000
0001
,
0000
0010
0000
1000
,
0000
0010
0000
1000
,
0000
0010
1000
0100
,
0000
0010
0010
0100
,
0000
0001
0100
0001
,
0000
0100
1000
0100
,
0000
0001
0010
0100
,
0000
0100
0010
0001
,
0000
1000
0001
1000
,
0000
0001
0100
0001
,
0202
0000
0000
0000
,
0000
0000
0000
0000
,
0000
0000
0000
0000
,
0303
0000
0000
0000
;

//---------------dance-single - ----------------
#NOTES:
     dance-single:
     :
     Beginner:
     4:
     0.247,0.303,0.096,0.280,0.000:
0000
0000
0000
0000
,
0000
0000
0000
0000
,
0000
0000
0000
0000
,
0000
0000
0000
0000
,
0000
0000
0000
0000
,
0000
0000
0000
0000
,
0000
0000
0000
0000
,
0000
0000
0000
0000
,
2002
0000
0000
0000
,
3003
0000
0000
0000
,
1000
1000
1000
0000
,
0010
0010
0010
0000
,
0001
0001
0001
0000
,
0100
0100
0100
0000
,
0010
0010
0010
0000
,
1000
1000
1000
0000
,
1000
1000
1000
0000
,
0001
0001
0001
0000
,
1000
0000
0001
0000
,
1000
0000
0001
0000
,
0010
0000
0100
0000
,
0010
0000
0100
0000
,
0001
0000
0100
0000
,
0001
0000
0100
0000
,
0010
0000
0100
0000
,
0010
0010
0010
0000
,
0020
0030
0020
0030
,
0020
0030
0020
0030
,
0200
0300
0200
0300
,
0200
0300
0200
0300
,
0020
0030
0020
0030
,
0020
0030
0020
0030
,
0002
0003
0002
0003
,
0002
0003
0002
0003
,
0001
0001
0001
0000
,
1000
1000
1000
0000
,
0200
0300
0200
0300
,
0200
0300
0200
0300
,
2000
3000
2000
3000
,
2000
3000
2000
3000
,
0002
0003
2000
3000
,
0002
0003
2000
3000
,
0000
0010
0100
0010
,
0100
0010
0100
0010
,
0000
1001
0000
1000
,
0000
0010
0000
0110
,
0000
0100
0000
0010
,
0000
1001
0000
1000
,
0000
0010
0000
1010
,
0000
1000
0000
0001
,
0000
0100
0100
0100
,
0100
0100
0100
0110
,
0000
0001
0000
0100
,
0000
0110
0000
0010
,
0000
0100
0000
1001
,
0000
0001
0000
0100
,
0000
0101
0000
0001
,
0000
1000
0000
1001
,
0000
0001
0001
0001
,
0000
0010
0010
0010
,
0000
0100
0100
0100
,
0000
1000
1000
1000
,
0000
0001
1000
0001
,
0000
1000
0001
1000
,
0000
0010
0100
0010
,
0000
0100
0010
0100
,
0000
1000
0000
1000
,
0000
0010
0000
0100
,
0000
0001
0000
0100
,
0000
0001
0000
1000
,
0000
0010
0000
1000
,
0000
0010
0000
0100
,
0000
0001
0000
0100
,
0000
0001
0000
1000
,
2002
0000
0000
0000
,
0000
0000
0000
0000
,
0000
0000
0000
0000
,
3003
0000
0000
0000
;

//---------------dance-single - ----------------
#NOTES:
     dance-single:
     :
     Medium:
     10:
     0.417,0.572,0.070,0.070,0.000:
0000
0000
0000
0000
,
0000
0000
0000
0000
,
0000
0000
0000
0000
,
0000
0000
0000
0000
,
0000
0000
0000
0000
,
0000
0000
0000
0000
,
0000
0000
0000
0000
,
0000
0000
0000
0000
,
0200
0000
0000
0000
,
0300
0000
0000
0000
,
0010
0010
0010
0010
,
0100
0100
0100
0100
,
0001
0001
0001
0001
,
0100
0100
0100
0100
,
0010
0010
0010
0010
,
1000
1000
1000
1000
,
0100
0100
0100
0100
,
0001
0001
0001
0001
,
0010
1000
0010
0000
0010
1000
0010
0000
,
0100
0001
0100
0000
0100
0001
0100
0000
,
0001
1000
0001
0000
0001
1000
0001
0000
,
1000
0010
1000
0000
1000
0010
1000
0000
,
0100
0010
0100
0010
0100
0010
0100
0010
,
1000
0001
1000
0001
1000
0001
1000
0001
,
1000
0001
1000
0001
1000
0001
1000
0001
,
0110
0000
0000
0000
,
1000
0010
1000
0010
,
1000
0000
1000
0100
0010
0001
1000
0000
,
0010
0100
0010
0100
,
0001
0000
0001
1000
0001
1000
0001
0000
,
0001
0010
0001
1000
,
0100
0000
0010
1000
0010
1000
0010
0000
,
0100
0001
0100
0001
,
0100
0101
0101
0101
,
0001
0100
0001
0100
,
0001
0000
0001
0010
0100
1000
0001
0000
,
0100
0010
0100
0010
,
1000
0000
1000
0001
1000
0001
1000
0000
,
1000
0100
1000
0001
,
0010
0000
0100
0001
0100
0001
0100
0000
,
0010
1000
0010
1000
,
0010
1010
1010
1010
,
0000
0100
0010
0100
,
0001
1000
0001
1000
,
0001
0000
0001
0100
0010
1000
0010
0000
,
0100
0000
0100
0001
0100
0010
1000
0000
,
0001
0000
1000
0100
0010
0001
1000
0000
,
0001
0000
0001
0010
0100
0010
0001
0000
,
1000
0000
0010
1000
0010
0100
0001
0000
,
1000
0000
1000
0100
0010
0100
1000
0000
,
2000
3001
0001
0001
,
0100
0010
0100
0010
,
1000
0000
1000
0010
0100
0001
0100
0000
,
0010
0000
0010
1000
0010
0100
0001
0000
,
1000
0000
0001
0010
0100
1000
0001
0000
,
1000
0000
1000
0100
0010
0100
1000
0000
,
0001
0000
0100
0001
0100
0010
1000
0000
,
0001
0000
0001
0010
0100
0010
0001
0000
,
0002
1003
1000
1000
,
0010
0100
0010
0100
,
0020
0130
0010
0100
,
0010
1000
0010
1000
,
2000
3010
0100
0001
,
0100
0001
1000
0010
,
0200
0310
0001
0010
,
0100
1000
0100
0010
,
0010
0000
0010
0000
0100
0010
0100
0000
,
1000
0000
1000
0000
0001
1000
0010
0000
,
0001
0000
0100
0000
0001
1000
0010
0000
,
1000
0000
0100
0000
0001
1000
0010
0000
,
0100
0000
0010
0000
1000
0010
0100
0000
,
0001
0000
1000
0000
1000
0010
0001
0000
,
1000
0000
0010
0000
1000
0001
1000
0000
,
0001
0000
0100
0000
0001
0100
0001
0000
,
2002
0000
0000
0000
,
0000
0000
0000
0000
,
0000
0000
0000
0000
,
3003
0000
0000
0000
;

//---------------dance-single - ----------------
#NOTES:
     dance-single:
     :
     Hard:
     15:
     0.572,0.740,0.297,0.096,0.096: // measure 1
0000
0000
0000
0000
,  // measure 2
0000
0000
0000
0000
,  // measure 3
0000
0000
0000
0000
,  // measure 4
0000
0000
0000
0000
,  // measure 5
0000
0000
0000
0000
,  // measure 6
0000
0000
0000
0000
,  // measure 7
0000
0000
0000
0000
,  // measure 8
0000
0000
0000
0000
,  // measure 9
0000
0000
0000
0000
,  // measure 10
2002
0000
0000
0000
,  // measure 11
3003
1000
1010
0100
,  // measure 12
1010
1000
0101
0100
,  // measure 13
0101
0010
0110
1000
,  // measure 14
1010
1000
1010
0100
,  // measure 15
1010
0000
1000
0010
0001
0000
0100
0000
,  // measure 16
1001
0100
0110
0100
,  // measure 17
1010
1000
0011
0100
,  // measure 18
0101
0000
1000
0000
0010
1000
0100
0000
,  // measure 19
0010
0000
0000
0000
1000
0010
1000
0000
0010
0000
0000
0000
0010
0000
0000
0000
,  // measure 20
0100
0000
0000
0000
0010
0100
0010
0000
0100
0000
0000
0000
0001
0000
0000
0000
,  // measure 21
0100
0000
0000
0000
0001
0100
0001
0000
0100
0000
0000
0000
0001
0000
0000
0000
,  // measure 22
1000
0000
0000
0000
0010
1000
0100
0000
1000
0000
0010
0000
1000
0000
0010
0000
,  // measure 23
1000
0001
0100
0001
0100
0001
1000
0001
,  // measure 24
1000
0001
0100
0010
0100
0010
0100
0010
,  // measure 25
0100
0000
0001
0000
1000
0000
0001
0000
1000
0001
1000
0001
1000
0001
1000
0001
,  // measure 26
1000
0000
0010
0000
0100
0000
0010
0000
0100
0010
0100
0000
0010
0000
1000
0000
,  // measure 27
0020
1030
1010
0010
,  // measure 28
1001
0000
0001
0100
0010
0100
0001
1000
,  // measure 29
0002
0013
0101
0010
,  // measure 30
0110
0000
1000
0010
0001
0010
1000
0001
,  // measure 31
0200
0310
0110
0100
,  // measure 32
1010
0000
0001
0100
1000
0100
0001
0100
,  // measure 33
2000
3100
1100
0010
,  // measure 34
0011
0101
0110
1001
,  // measure 35
0010
0100
0010
0000
0110
0000
0100
0000
,  // measure 36
0101
0000
1000
0001
0010
0001
0100
0010
,  // measure 37
0020
0130
1010
0100
,  // measure 38
1001
0000
0001
1000
0010
0000
0010
1000
,  // measure 39
0001
0001
0001
0000
0101
0000
0010
0000
,  // measure 40
1010
0000
0010
1000
0010
0100
0001
1000
,  // measure 41
0020
0130
1100
0010
,  // measure 42
0101
0000
0000
0000
0001
0000
1000
0000
0010
1000
0010
0000
0100
0000
0010
0000
,  // measure 43
0200
0310
0010
0010
,  // measure 44
1000
0000
1000
0000
1000
0000
0001
1000
,  // measure 45
0001
0000
0100
0000
0100
0001
0100
0000
0001
0000
0100
0000
0010
0000
1000
0000
,  // measure 46
0010
0000
1000
0000
0010
1000
0100
0000
1000
0000
0010
0000
0100
0000
0010
0000
,  // measure 47
0100
0000
0010
0000
0010
1000
0001
0000
0100
0000
0001
0000
1000
0000
0010
0000
,  // measure 48
0100
0000
0001
0000
0001
0100
0010
0000
0001
0000
0100
0000
0001
0000
1000
0000
,  // measure 49
1000
0000
0010
0000
0010
1000
0010
0000
1000
0000
0010
0000
0100
0000
0001
0000
,  // measure 50
0100
0000
0001
0000
0100
0001
0010
0000
0001
0000
0100
0000
0010
0000
0100
0000
,  // measure 51
0010
0100
0010
1000
,  // measure 52
0001
0000
0100
0000
0001
0000
1000
0010
,  // measure 53
1000
0000
0010
0000
0010
1000
0010
0000
1000
0000
0010
0000
0100
0000
0001
0000
,  // measure 54
0100
0000
0001
0000
0100
0001
0010
0000
0001
0000
0100
0000
0010
0000
0100
0000
,  // measure 55
0010
0000
0100
0000
0100
0001
1000
0000
0010
0000
1000
0000
0001
0000
0100
0000
,  // measure 56
0010
0000
1000
0000
1000
0010
0100
0000
1000
0000
0010
0000
1000
0000
0001
0000
,  // measure 57
0001
0000
0100
0000
0100
0001
0100
0000
0001
0000
0100
0000
0010
0000
1000
0000
,  // measure 58
0010
0000
1000
0000
0010
1000
0100
0000
1000
0000
0010
0000
0100
0000
0010
0000
,  // measure 59
0100
0000
0010
1000
0010
1000
0010
0000
,  // measure 60
0100
0000
0001
0100
0010
0100
0001
0000
,  // measure 61
0001
0000
0001
0100
1000
0100
0001
0000
,  // measure 62
1000
0000
1000
0010
0001
0010
1000
0010
,  // measure 63
1000
0000
0100
0001
0100
0001
0100
0000
,  // measure 64
0010
0000
1000
0010
0100
0010
1000
0000
,  // measure 65
1000
0000
1000
0010
0001
0010
1000
0000
,  // measure 66
0001
0000
0001
0100
1000
0100
0001
0100
,  // measure 67
0001
0000
1000
0010
0001
0010
1000
0000
,  // measure 68
0001
1000
0001
0100
1000
0100
0001
0000
,  // measure 69
0100
0000
0010
0100
0010
0100
0010
0000
,  // measure 70
1000
0010
0001
1000
0001
1000
0001
0000
,  // measure 71
1000
0000
0001
0100
1000
0100
0001
0000
,  // measure 72
1000
0001
1000
0010
0001
0010
1000
0000
,  // measure 73
0010
0000
0100
0010
0100
0010
0100
0000
,  // measure 74
0001
0100
1000
0001
1000
0001
1000
0000
,  // measure 75
0220
0000
0000
0000
,  // measure 76
0000
0000
0000
0000
,  // measure 77
0000
0000
0000
0000
,  // measure 78
0330
0000
0000
0000
;
