#TITLE:Next Level;
#SUBTITLE:;
#ARTIST:aespa;
#TITLETRANSLIT:;
#SUBTITLETRANSLIT:;
#ARTISTTRANSLIT:;
#CREDIT:;
#BANNER:Next Level.png;
#BACKGROUND:Next Level-bg.png;
#LYRICSPATH:;
#CDTITLE:;
#MUSIC:Next Level.mp3;
#OFFSET:-0.700;
#SAMPLESTART:82.120;
#SAMPLELENGTH:15.000;
#SELECTABLE:YES;
#BPMS:0.000=109.000;
#STOPS:;
#BGCHANGES:;

//---------------dance-single - ----------------
#NOTES:
     dance-single:
     :
     Easy:
     4:
     0.257,0.307,0.200,0.100,0.000:
0000
0000
0000
0000
,
0000
0000
0000
0000
,
0000
0000
0000
0000
,
0000
0000
0000
0000
,
0010
0100
0000
0010
,
0000
1000
0001
1000
,
0000
0001
1000
0100
,
0000
0001
0010
0100
,
0000
0010
1000
1000
,
0000
0100
0010
0100
,
0000
0001
0100
0010
,
1001
0110
2002
3003
,
0001
0010
0100
1000
,
1000
0100
0010
0001
,
1000
0001
1000
0001
,
0001
0001
1000
0000
,
1010
0010
1000
0010
,
0100
0001
0100
0010
,
1010
1000
0001
0100
,
0001
1000
0010
0100
,
1001
0001
0100
0001
,
0100
0010
0100
0010
,
0110
0010
1000
0010
,
1000
0001
0100
0001
,
2002
3003
0010
0010
,
0100
0100
0010
0100
,
0220
0330
0010
0100
,
0010
0010
1000
1000
0001
0001
0000
0000
,
1001
0010
0100
1000
,
1000
0100
0010
0001
,
0001
0001
1000
0010
,
2000
0010
3010
0100
,
0110
1000
1000
0100
,
0010
0001
0100
1000
,
1001
0001
0100
0001
,
0020
0100
0130
0000
,
0100
0010
0100
0010
,
2002
0003
0000
3000
,
1010
0010
1000
0010
,
1000
0001
0100
0001
,
0100
0010
0100
0010
,
2002
3000
0000
0003
,
0101
0100
0001
0100
,
0001
1000
0010
1000
,
0010
0000
0000
0110
0000
0000
0000
0000
,
1001
0100
0001
1000
,
0010
0100
0010
1000
,
1001
0010
0100
0010
,
1000
0001
0100
0001
,
0100
0110
1000
0010
,
1000
0001
0100
0001
,
0101
0010
0001
0100
,
1000
1001
0001
0000
,
1001
0010
1000
0001
,
0100
0010
0100
0001
,
1001
0100
0010
0100
,
0001
1000
0010
1000
,
0010
0110
0001
0100
,
0001
1000
0010
1000
,
1010
0100
1000
0010
,
0001
1001
1000
0000
,
2002
3003
0000
0000
;

//---------------dance-single - ----------------
#NOTES:
     dance-single:
     :
     Beginner:
     1:
     0.146,0.198,0.079,0.014,0.000:
0000
0000
0000
0000
,
0000
0000
0000
0000
,
0000
0000
0000
0000
,
0000
0000
0000
0000
,
0000
0010
0000
0100
,
0000
0001
0000
1000
,
0000
0010
0000
1000
,
0000
0010
0000
1000
,
0000
0010
0010
0010
,
0000
0100
0100
0100
,
0000
1000
1000
1000
,
1000
1000
1001
0000
,
1000
1000
1000
1000
,
0100
0100
0100
0100
,
0010
0010
0010
0010
,
0001
0001
0001
0001
,
0000
0001
0000
0100
,
0000
0010
0000
1000
,
0000
0010
0000
0100
,
0000
0010
0000
1000
,
1000
1000
0000
0010
,
0010
0010
0000
0001
,
0001
0001
0000
0100
,
0100
0100
0000
0000
,
0010
0100
0010
0000
,
1000
0001
1000
0000
,
0010
1000
0010
0000
,
0100
0001
0100
0001
,
0000
0001
0000
0010
,
0000
0100
0000
1000
,
0000
0001
0000
0100
,
0000
0001
0000
1001
,
0000
0010
0000
0100
,
0000
0010
0000
0100
,
0000
0001
0000
1000
,
0000
0010
0000
0000
,
0100
0100
0100
0100
,
0000
0010
0000
1000
,
0000
0001
0000
0100
,
0000
0001
0000
1000
,
0000
0010
0000
1000
,
0000
0010
0000
0100
,
0000
0001
0000
1000
,
0000
0001
0000
1000
,
0000
0000
0000
0000
,
1001
0000
0000
0010
,
0000
0100
0000
0000
,
1001
0000
0000
1000
,
0000
0001
0000
0000
,
0110
0000
0000
0010
,
0000
0100
0000
0000
,
1001
0000
0000
0010
,
0100
0010
0100
0000
,
1001
0000
0000
0100
,
0000
0010
0000
0000
,
1001
0000
0000
0001
,
0000
1000
0000
0000
,
0110
0000
0000
0100
,
0000
0010
0000
0000
,
1001
0000
0000
0100
,
0010
0100
0010
0000
,
2002
0000
3003
0000
;

//---------------dance-single - ----------------
#NOTES:
     dance-single:
     :
     Medium:
     8:
     0.318,0.327,0.215,0.029,0.021:
0000
0000
0000
0000
,
0000
0000
0000
0000
,
0000
0000
0000
0000
,
0000
0000
0000
0000
0000
0010
0100
0010
,
0100
0000
0110
0000
0010
0100
0010
0000
,
0001
0000
1000
0000
0001
0100
1000
0000
,
1001
0000
0001
0000
0100
0010
0010
0000
,
0100
0000
0010
0000
1000
0001
1000
0000
,
1001
0000
0001
0000
0100
0001
0010
0000
,
0110
0000
0001
0000
1000
0010
0100
0000
,
1010
0000
1000
0000
0100
1000
0010
0000
,
1000
0010
1000
0000
,
0001
0100
0001
0100
0001
0000
0101
0000
,
1000
0010
1000
0010
1000
0000
1010
0000
,
0100
0010
0100
0010
0100
0000
0110
0000
,
0001
1000
0001
1000
0001
0000
1001
0000
,
0000
0010
0000
0100
,
0000
0000
0010
0000
1000
0010
0001
0010
,
1000
0001
0100
0101
,
0010
0000
0100
0000
0001
1000
0010
1000
,
0001
1000
0010
1010
,
1000
0000
1000
0000
0001
0100
0001
1000
,
0001
0001
1000
1001
,
1000
0000
0001
0000
0100
0010
0100
0010
,
0100
0010
1000
0001
,
1000
0010
0100
0010
,
1000
0001
0100
0001
,
1000
1010
0100
1010
,
1000
0000
0001
0000
0100
0000
0001
0100
,
0000
0001
0100
0010
0000
0100
0000
0010
,
0100
0010
1000
0100
,
0010
0001
1000
0001
,
1000
0000
0010
0000
0010
1000
0010
1000
,
0000
0010
1000
0010
0000
0000
1000
0001
,
1000
0010
0100
0001
,
0001
0010
0100
1000
0010
0000
0000
0000
,
1010
0110
0101
1001
,
2001
3002
0000
1003
,
1000
0000
0010
1000
0010
1000
0010
1000
,
0001
0000
0001
0100
0001
0100
0010
1000
,
0001
0000
0000
0100
0100
0010
0010
0000
,
1002
2003
0000
3001
,
0001
0000
0100
0010
0100
0100
0001
1000
,
0010
0000
0000
1000
0001
1000
0010
1000
,
0001
0000
0000
1001
0000
0100
0010
0100
,
0010
0110
0000
0010
,
0000
0000
0010
0000
0000
1000
0001
1000
,
0001
1001
0000
0001
,
0000
0000
0100
0000
0000
0001
0010
0100
,
1000
1010
0100
0010
,
1000
0000
0001
0000
0000
1000
0010
1000
,
0010
0000
0000
0000
1010
0000
0000
0000
0000
0000
0000
0000
0100
0000
0010
0100
,
0010
0000
0100
0010
0100
0000
0010
0100
0010
0000
0010
0000
0100
0000
0010
0000
,
0100
0110
0000
0100
,
0000
0000
0100
0000
0000
0001
1000
0001
,
1000
1001
0000
1000
,
0000
0000
0010
0000
0000
1000
0100
0010
,
0001
0101
0010
0100
,
0001
0000
1000
0000
0000
0001
0100
0001
,
0100
0000
0000
0000
0101
0000
0000
0000
0000
0000
0000
0000
0010
0000
0100
0010
,
0100
0000
0010
0100
0010
0000
0100
0010
0100
0000
0000
0000
0000
0000
0000
0000
,
1001
0000
0000
0000
;

//---------------dance-single - ----------------
#NOTES:
     dance-single:
     :
     Hard:
     10:
     0.389,0.393,0.150,0.093,0.089: // measure 1
0000
0000
0000
0000
,  // measure 2
0000
0000
0000
0000
,  // measure 3
0000
0000
0000
0000
,  // measure 4
0000
0000
0000
0000
0000
1000
0001
1000
,  // measure 5
0001
0000
0101
0000
0001
0100
0000
0010
,  // measure 6
0000
1000
0100
0010
0001
1000
0001
1000
,  // measure 7
0000
0001
0100
0001
1000
0010
0100
0100
,  // measure 8
0000
0001
0010
1000
0010
0001
0010
1000
,  // measure 9
0010
1000
0001
0100
0001
0010
0100
0000
,  // measure 10
0000
0010
0100
1000
0001
1000
0001
0000
,  // measure 11
1000
0000
0010
0000
0001
0000
0010
0000
1000
0000
0010
0000
0001
0000
1000
0001
,  // measure 12
1000
0000
0001
1000
0010
0000
1000
0001
0200
0000
0000
0000
0300
0000
0000
0000
,  // measure 13
0010
0000
1000
0000
0010
0000
1000
0000
0001
0000
0000
0100
0000
0000
0000
0000
,  // measure 14
0100
0000
0001
0000
0100
0000
0001
0000
1000
0000
0000
0010
0000
0000
0000
0000
,  // measure 15
1000
0000
0100
0000
0010
0000
0001
0000
1000
0000
0000
0001
0000
0000
0000
0000
,  // measure 16
0001
0001
0010
0010
0101
0001
0100
0001
,  // measure 17
1000
0000
1000
0010
1000
0000
0010
0100
,  // measure 18
0000
0010
0100
0010
0100
0001
0010
0100
,  // measure 19
1000
0000
1000
0010
1000
0000
0010
1000
,  // measure 20
0010
0100
0010
0100
0001
1000
0010
1000
,  // measure 21
0100
0010
0001
1000
0010
1000
0000
0010
,  // measure 22
0000
1010
0000
0100
0100
0100
0000
0000
,  // measure 23
1000
0010
0001
0010
1000
0010
0001
0000
,  // measure 24
0001
1000
0010
1000
0001
1000
0010
0000
,  // measure 25
1001
0000
0000
0000
0001
0000
0000
0000
0100
0001
0000
0000
0001
0000
0000
0000
,  // measure 26
1010
0000
0000
0000
1000
0000
0000
0000
0010
1000
0000
0000
0010
0000
0000
0000
,  // measure 27
0110
0000
0000
0000
0100
0000
0000
0000
0010
0100
0000
0000
0010
0000
0000
0000
,  // measure 28
1000
0100
0000
0000
0100
0010
0000
0000
0010
0001
0000
0000
0001
0000
0000
0000
,  // measure 29
1001
0000
0001
0000
0100
0000
0010
0100
,  // measure 30
0000
0000
0100
0000
0010
0000
0100
0000
0000
0000
1000
0000
0000
0000
0001
1000
,  // measure 31
0001
0000
0010
0000
0100
0010
0100
1000
,  // measure 32
0001
1000
0010
1000
0001
0100
0001
0000
,  // measure 33
1001
0000
0010
0000
1000
0100
0010
0001
,  // measure 34
0000
0000
0001
0000
0100
0000
0001
0000
0000
0000
0000
0000
0100
0000
0010
0100
,  // measure 35
0010
0000
0001
0000
0001
0010
0100
2000
,  // measure 36
0000
3001
1000
0000
0000
1001
0000
0000
,  // measure 37
0100
0100
0100
0100
,  // measure 38
0010
0000
0000
0100
0020
0000
0000
0000
0000
0000
0000
0000
0030
0000
0010
0000
,  // measure 39
0000
0000
0000
0010
0001
0100
1000
0001
,  // measure 40
1000
0000
0000
0010
0000
0000
0100
0000
0001
0000
1000
0000
0010
0000
0100
0000
,  // measure 41
0010
0000
0000
0100
0000
0000
0001
0000
1001
0000
0001
0000
1001
0000
0000
0000
,  // measure 42
0100
0000
0000
0010
0200
0000
0000
0000
0000
0000
0000
0000
0300
0000
0100
0000
,  // measure 43
0000
0000
0000
0100
1000
0010
0001
1000
,  // measure 44
0001
0000
0000
0100
0000
0000
0010
0000
1000
0000
0001
0000
0100
0000
0010
0000
,  // measure 45
0100
0001
0000
1001
0000
0001
0010
0100
,  // measure 46
1000
0000
1010
0000
1000
0010
0000
0100
,  // measure 47
0000
0001
0010
0100
1000
0001
1000
0001
,  // measure 48
2002
3000
0003
0000
0100
0001
0000
0010
,  // measure 49
0000
1000
0010
0100
0010
1000
0001
0100
,  // measure 50
0000
0000
0110
0000
0010
0100
0000
0010
,  // measure 51
0000
1000
0010
0100
0010
1000
0001
0100
,  // measure 52
2002
0000
0003
0000
3000
0000
0000
0000
1000
0000
0010
0000
0000
0000
1000
0010
,  // measure 53
1000
0000
0010
1000
0001
0000
0001
0100
0010
0000
1000
0000
0100
0000
0010
0000
,  // measure 54
0001
0000
0101
0000
0001
0100
0000
0010
,  // measure 55
0000
1000
0100
0010
0001
1000
0001
1000
,  // measure 56
2002
0003
3000
0000
0010
1000
0000
0100
,  // measure 57
0000
0001
0100
0010
0100
0001
1000
0010
,  // measure 58
0000
0000
0110
0000
0100
0010
0000
0100
,  // measure 59
0000
0001
0100
0010
0100
0001
1000
0010
,  // measure 60
2002
0000
3000
0000
0003
0000
0000
0000
0001
0000
0100
0000
0000
0000
0001
0100
,  // measure 61
0001
0000
0100
0001
1000
0000
1000
0010
0200
0000
0000
0000
0300
0000
0000
0000
,  // measure 62
1001
0000
0000
0000
;
