#TITLE:Neon;
#SUBTITLE:;
#ARTIST:YUKIKA;
#TITLETRANSLIT:;
#SUBTITLETRANSLIT:;
#ARTISTTRANSLIT:;
#CREDIT:;
#BANNER:Neon.png;
#BACKGROUND:Neon-bg.png;
#LYRICSPATH:;
#CDTITLE:;
#MUSIC:Neon.mp3;
#OFFSET:0.000;
#SAMPLESTART:49.980;
#SAMPLELENGTH:15.000;
#SELECTABLE:YES;
#BPMS:0.000=115.000;
#STOPS:;
#BGCHANGES:-0.200=Neon.avi=1.000=0=0=0,
99999=-nosongbg-=1.000=0=0=0 // don't automatically add -songbackground-
;

//---------------dance-single - ----------------
#NOTES:
     dance-single:
     :
     Easy:
     4:
     0.177,0.249,0.050,0.083,0.008: // measure 1
0000
0000
0000
0000
,  // measure 2
0000
0000
0000
0000
,  // measure 3
0000
0000
0000
0000
,  // measure 4
0000
0000
0000
0000
,  // measure 5
1000
0000
0010
0000
,  // measure 6
1000
0000
0001
0000
,  // measure 7
0100
0000
0001
0000
,  // measure 8
2002
0000
0000
3003
,  // measure 9
0001
0100
0010
0000
,  // measure 10
1000
0010
1000
0000
,  // measure 11
0001
1000
0001
0000
,  // measure 12
0100
0001
1000
0000
,  // measure 13
0100
0010
0100
0000
,  // measure 14
0010
0100
1000
0000
,  // measure 15
1000
0000
0001
0000
,  // measure 16
0110
0000
0010
0000
,  // measure 17
0010
0100
0001
0000
,  // measure 18
0100
0010
1000
0000
,  // measure 19
1000
0000
0010
0000
,  // measure 20
1000
0010
0110
0000
,  // measure 21
0001
0100
0020
0030
,  // measure 22
0100
0010
0200
0300
,  // measure 23
0110
0000
1001
0000
,  // measure 24
1000
0001
0000
0000
0000
0000
1000
0001
0000
0000
0000
0000
1000
0000
0000
0000
,  // measure 25
1000
0001
0100
0010
,  // measure 26
0100
0001
1000
0010
,  // measure 27
2000
3010
0010
0100
,  // measure 28
0002
1003
0001
1000
,  // measure 29
0010
0100
0010
1000
,  // measure 30
0001
0000
0100
0000
,  // measure 31
0001
0000
1000
0000
,  // measure 32
0010
1000
0010
0100
,  // measure 33
0001
0100
0010
0100
,  // measure 34
0010
1000
0001
1000
,  // measure 35
2000
0000
0000
3000
,  // measure 36
0000
1000
0000
0001
,  // measure 37
0100
0010
0100
0001
,  // measure 38
1000
0100
0010
0010
,  // measure 39
0020
0000
0000
0030
,  // measure 40
0100
0000
0010
0000
,  // measure 41
0100
0000
0010
0000
,  // measure 42
1000
0000
0001
0000
,  // measure 43
0100
0000
0001
0000
,  // measure 44
1000
0000
0010
0000
,  // measure 45
1000
0000
0010
0000
,  // measure 46
1000
0000
0001
0000
,  // measure 47
0010
0000
0100
0000
,  // measure 48
1000
0000
2000
0002
,  // measure 49
3003
1001
0000
0010
,  // measure 50
0000
0100
0000
0001
,  // measure 51
0000
1000
0000
0010
,  // measure 52
0000
1000
0000
0100
,  // measure 53
0000
1000
0000
0001
,  // measure 54
0000
1000
0000
0010
,  // measure 55
0000
0100
0000
0000
;

//---------------dance-single - ----------------
#NOTES:
     dance-single:
     :
     Beginner:
     2:
     0.134,0.158,0.042,0.017,0.000:
0000
0000
0000
0000
,
0000
0000
0000
0000
,
0000
0000
0000
0000
,
0000
0000
0000
0000
,
1000
0000
0000
0000
,
0001
0000
0000
0000
,
0100
0000
0000
0000
,
0010
0000
0000
0000
,
0110
0000
0000
0000
,
1000
0000
0010
0000
,
1000
0000
0001
0000
,
0100
0000
0001
0000
,
0100
0000
0010
0000
,
0100
0000
0010
0000
,
1000
0000
0001
0000
,
0100
0000
0001
0000
,
1000
1000
1000
0000
,
0100
0000
0010
0000
,
0010
0010
0010
0000
,
0001
0000
0100
0000
,
0100
0100
0100
0000
,
0001
0000
0010
0000
,
0001
0001
0001
0000
,
1001
0000
0110
0000
,
0000
1000
0010
1000
,
0000
1000
0000
0001
,
0000
0100
0010
0100
,
0000
0010
0000
1000
,
0000
0001
0010
0001
,
0000
1000
0000
0001
,
0000
1000
0001
1000
,
0000
0001
0000
0100
,
0000
0010
0000
0100
,
0000
0010
0000
1000
,
0000
0001
0001
0001
,
0000
1000
1000
1000
,
0000
0010
0000
0100
,
0000
0001
0000
0100
,
0000
0010
0010
0010
,
0000
0100
0100
0100
,
0000
0000
0010
0000
,
1000
0000
1000
0000
,
0001
0000
0100
0000
,
0001
0000
0100
0000
,
0001
0000
1000
0000
,
0010
0000
0100
0000
,
0010
0000
1000
0000
,
2002
0000
0000
0000
,
3003
1001
0000
0010
,
0000
0100
0000
0001
,
0000
1000
0000
0010
,
0000
0100
0000
0010
,
0000
1000
0000
0001
,
0000
1000
0000
0010
,
0000
0100
0000
0000
;

//---------------dance-single - ----------------
#NOTES:
     dance-single:
     :
     Medium:
     7:
     0.221,0.272,0.058,0.100,0.008:
0000
0000
0000
0000
,
0000
0000
0000
0000
,
0000
0000
0000
0000
,
0000
0000
0000
0000
,
0002
0000
0000
0000
,
0023
0000
0000
0000
,
0230
0000
0000
0000
,
2300
0000
0000
0000
,
3001
0100
0001
0100
,
0010
0000
0100
0000
0010
0100
0010
0000
,
1000
0010
0100
0010
,
0100
0000
0010
0000
0100
0010
1000
0000
,
0001
0100
0010
0100
,
0001
0000
0100
0000
0010
1000
0001
0000
,
0100
0010
1000
0010
,
0100
0000
0010
0000
0001
0010
1000
0000
,
0000
0010
0000
0110
,
0010
0100
0010
0000
1000
0001
1000
0000
,
0000
0100
0000
1001
,
0001
0100
0010
0000
0100
0010
1000
0000
,
0000
1000
0000
0001
,
0000
1000
0000
0001
,
0000
0100
0000
0010
,
0100
0010
0000
0000
0000
0000
0100
0010
0000
0000
0000
0000
0100
0000
0000
0000
,
0010
1000
0001
0000
0100
0010
0001
0000
,
0000
0100
0000
0010
,
1000
0010
1000
0000
0001
0100
0010
0000
,
0000
0100
0000
0010
,
0100
0010
0100
0000
0010
0100
1000
0000
,
0000
1000
0000
0001
,
1000
0001
1000
0000
0001
1000
0001
0000
,
0000
0100
0000
0001
,
0101
0001
0000
0100
,
0000
0010
0000
1000
,
0000
1000
0010
1000
,
0000
0001
0001
0010
,
0000
1000
0000
0100
,
0000
0010
0000
0001
,
0000
1000
0001
1000
,
0000
0010
0000
0100
,
0101
0000
0001
0100
0010
0000
0100
0000
,
0010
0000
1000
0010
1000
0000
0100
0000
,
1000
0000
0001
1000
0001
0000
1000
0000
,
0010
0000
0100
0010
0100
0000
0010
0000
,
0100
0000
0010
1000
0001
0000
1000
0000
,
0010
0000
0100
0010
0001
0000
1000
0000
,
0001
0001
1000
1000
,
0000
0100
0000
1000
,
2001
0000
0000
0000
,
3020
0000
0000
0000
0130
0010
0100
0002
,
0000
0000
0000
0000
,
2000
0000
3003
0010
,
0220
0000
0000
0000
,
0000
0000
0000
0000
0330
0010
0100
0000
,
2002
0000
3003
0000
;

//---------------dance-single - ----------------
#NOTES:
     dance-single:
     :
     Hard:
     10:
     0.406,0.772,0.258,0.458,0.083:
0000
0000
0000
0000
,
0000
0000
0000
0000
,
0000
0000
0000
0000
,
0000
0000
0000
0000
,
2000
0000
0100
0000
,
3200
0000
0010
0000
,
0320
0000
0001
0000
,
0032
0000
0000
0000
,
1003
0000
0001
1000
0010
1000
0001
1000
,
0010
0000
0100
0001
0000
0000
0000
0000
0100
0000
0001
0000
0100
0000
0000
0000
,
1001
0000
1000
0001
0100
0001
1000
0001
,
0100
0000
0010
1000
0000
0000
0000
0000
0010
0000
1000
0000
0010
0000
0000
0000
,
1001
0000
0010
0100
0010
1000
0010
0100
,
0001
0000
0100
0001
0000
0000
0000
0000
0001
0000
0100
0000
0010
0000
0100
0000
,
0000
0101
0000
0000
0010
0100
0010
1000
,
0000
1010
0000
0000
0001
0010
0100
1000
,
1010
0000
0000
0000
1000
0000
0000
0010
0000
0000
0000
0000
1000
0000
0000
0000
,
1000
0100
0010
0100
1000
0010
0001
0010
,
1000
0000
0000
0000
0001
0000
0000
0001
0000
0000
0000
0000
0001
0000
0000
0000
,
0001
0100
1000
0100
0001
0000
0000
1000
,
0001
1000
0010
0100
0100
0000
0110
0000
,
1000
0010
0100
0001
0100
0000
0100
0001
,
0000
0000
0010
0000
0000
1000
0001
1000
,
0010
0100
0000
0000
0000
0000
0100
0010
0000
0000
0000
0000
0110
0000
0000
0000
,
0001
0000
0010
0000
0100
0000
1000
0000
0010
0000
1000
0000
0010
0000
1000
0010
,
0000
0000
0100
0000
0000
0001
0000
0000
0100
0000
0000
0000
0101
0000
0000
0000
,
0010
0000
0001
0000
0100
0000
1000
0000
0010
0000
0000
1000
0000
0000
0001
0000
,
1000
0000
0000
2002
0000
0000
0000
0000
3003
0000
0000
0000
0010
0000
0000
0000
,
1000
0000
0100
0000
0010
0000
0001
0000
0100
0000
0001
0000
0100
0000
0001
0100
,
0000
0000
0010
0000
0000
1000
0000
0000
0010
0000
0000
0000
1010
0000
0000
0000
,
1000
0000
0010
0000
0001
0000
0010
0000
1000
0000
0000
0010
0000
0000
0000
0000
,
0100
0000
0010
0100
0001
0100
0010
1000
0010
0000
0000
0000
1000
0000
0000
0000
,
1000
0000
1000
0000
0001
0000
0100
0000
0010
0000
0000
0110
0000
0000
0010
0000
,
0100
0010
1000
0100
0000
1000
0001
2000
,
0000
3001
0100
0001
,
1001
0010
0100
0010
,
0001
0000
0001
0000
1000
0000
0010
0000
0100
0000
0000
0110
0000
0000
0100
0000
,
0010
0100
0001
0010
0000
0001
1000
0002
,
0000
1003
0010
1000
,
1001
0100
0010
0100
,
0020
0100
0100
0130
,
2000
0001
0001
3001
,
0200
0010
0010
0310
,
0002
0100
0100
0103
,
2002
3003
2002
3003
2002
3003
2002
3003
,
2020
3030
2020
3030
2020
3030
2020
3030
,
0202
0303
0202
0303
0202
0303
0202
0303
,
0220
0330
0220
0330
0220
0330
0220
0330
,
0020
0100
0100
0100
,
0230
0000
0001
0000
0301
1000
0001
2000
,
0010
0001
0010
0001
,
3020
0000
0000
0000
0100
0000
0000
0000
0230
0000
0000
0320
0000
0000
2030
0000
,
3002
0100
0100
0100
,
2003
0000
0001
0000
3001
1000
0001
0000
,
2002
0000
3003
0000
;
