#TITLE:NIGHT RUNNING (feat. AAAMYYY);
#SUBTITLE:;
#ARTIST:Shin Sakiura feat. AAAMYYY;
#TITLETRANSLIT:;
#SUBTITLETRANSLIT:;
#ARTISTTRANSLIT:;
#CREDIT:;
#BANNER:NIGHT RUNNING (feat. AAAMYYY).png;
#BACKGROUND:NIGHT RUNNING (feat. AAAMYYY)-bg.png;
#LYRICSPATH:;
#CDTITLE:;
#MUSIC:NIGHT RUNNING (feat. AAAMYYY).mp3;
#OFFSET:-0.620;
#SAMPLESTART:59.040;
#SAMPLELENGTH:15.000;
#SELECTABLE:YES;
#BPMS:0.000=115.000;
#STOPS:;
#BGCHANGES:;

//---------------dance-single - ----------------
#NOTES:
     dance-single:
     :
     Easy:
     4:
     0.198,0.378,0.077,0.145,0.000:
0000
0000
0000
0000
,
0000
0000
0000
0000
,
0000
0000
0000
0000
,
0000
0000
0000
0000
,
1010
0000
0010
0000
,
1000
0000
0001
0000
,
0100
0000
0001
0000
,
0010
0000
0001
0000
,
0101
0001
0100
0001
,
0000
0100
0010
1000
,
0000
0010
0100
0010
,
0000
0100
0001
0001
,
0000
0010
0001
0100
,
0000
0010
1000
0100
,
0000
1000
0010
0100
,
0000
0010
0100
0010
,
0110
0100
0010
1000
,
0000
0010
1000
0100
,
0000
0010
1000
0001
,
0000
0100
0010
0100
,
0000
0010
0100
0010
,
0000
0100
1000
0010
,
0000
0010
0100
1000
,
2000
3200
0320
0031
,
1001
1000
0001
0000
,
0100
0010
0010
0000
,
1000
1000
0001
0000
,
0001
0100
0001
0000
,
0010
0100
0010
0000
,
1000
0100
0010
0000
,
0020
0230
0302
2003
,
3002
0203
0320
0130
,
1001
0001
1000
0000
,
0010
0100
0100
0000
,
0001
0001
1000
0000
,
1000
0010
1000
0000
,
0100
0010
0100
0000
,
0001
0010
0100
0000
,
0200
0320
2030
3002
,
2003
3020
0230
0310
,
0110
0000
0100
0000
,
0010
0000
1000
0000
,
0001
0000
0100
0000
,
0010
0000
0100
0000
,
1001
0000
1000
0000
,
0010
0000
1000
0000
,
0010
0000
0100
0000
,
0001
0000
0100
0000
,
0110
0000
0001
0000
,
0010
0000
0100
0000
,
1000
0000
0100
0000
,
0010
0000
0001
0000
,
1001
0000
0000
0000
;

//---------------dance-single - ----------------
#NOTES:
     dance-single:
     :
     Beginner:
     2:
     0.153,0.178,0.051,0.000,0.000:
0000
0000
0000
0000
,
0000
0000
0000
0000
,
0000
0000
0000
0000
,
0000
0000
0000
0000
,
0010
0010
0010
0000
,
0010
0010
0010
0000
,
0100
0100
0100
0000
,
0100
0100
0100
0000
,
0001
0000
0100
0000
,
0001
0000
1000
0000
,
0010
0000
1000
0000
,
0010
0000
1000
0000
,
0001
0000
0100
0000
,
0001
0000
1000
0000
,
0001
0000
1000
0000
,
0001
0000
0010
0000
,
0110
0000
0010
0000
,
1000
0000
0010
0000
,
0100
0000
0001
0000
,
0100
0000
0001
0000
,
1000
0000
0001
0000
,
1000
0000
0100
0000
,
0100
0000
0010
0000
,
1000
0001
1000
0001
,
1001
0001
0001
0000
,
0100
0010
0100
0000
,
0010
0010
0010
0000
,
1000
0010
1000
0000
,
0100
0100
0100
0000
,
0001
1000
0001
0000
,
0001
0001
0001
0000
,
1000
0010
1000
0000
,
1000
1000
1000
0000
,
0100
0010
0100
0000
,
0100
0100
0100
0000
,
1000
0001
1000
0000
,
0001
0001
0001
0000
,
0010
0001
0010
0000
,
0010
0010
0010
0000
,
0100
0010
0100
0000
,
0110
0000
0100
0000
,
0001
0000
1000
0000
,
0010
0000
1000
0000
,
0010
0000
0100
0000
,
0101
0000
0010
0000
,
1000
0000
0100
0000
,
1000
0000
0010
0000
,
0100
0000
0001
0000
,
0110
0000
0010
0000
,
0010
0000
1000
0000
,
0001
0000
1000
0000
,
0100
0000
0100
0000
,
1001
0000
0000
0000
;

//---------------dance-single - ----------------
#NOTES:
     dance-single:
     :
     Medium:
     8:
     0.326,0.311,0.086,0.103,0.000:
0000
0000
0000
0000
,
0000
0000
0000
0000
,
0000
0000
0000
0000
,
0000
0000
0000
0000
,
1000
0000
0010
0000
1000
0010
1000
0000
,
0001
0000
0100
0000
0001
0100
0001
0000
,
0010
0000
0100
0000
1000
0100
0010
0000
,
0001
1000
0001
1000
,
1001
0000
0001
0100
0010
0000
0100
0000
,
0010
0000
1000
0010
0100
0000
0001
0000
,
1000
0000
0010
1000
0010
0000
0100
0000
,
0010
0000
0010
0100
0010
0000
0100
0000
,
0001
0000
0100
0000
0001
0100
0001
0000
,
1000
0000
0010
0000
1000
0010
1000
0000
,
0100
0000
0010
0000
0001
0010
0100
0000
,
1000
0001
1000
0001
,
1001
0000
1000
0010
0100
0000
0010
0000
,
0100
0000
0001
0100
0010
0000
1000
0000
,
0001
0000
0100
0001
0100
0000
0010
0000
,
0100
0000
0100
0010
0100
0000
0010
0000
,
1000
0000
0010
0100
0010
0000
0100
0000
,
0010
0000
0001
0100
0001
0000
1000
0000
,
0010
1000
0001
0100
,
0102
0203
0320
2030
,
3010
1000
1000
0000
0010
0100
0001
0000
,
0100
0010
1000
0001
,
0100
0001
0100
0000
0010
1000
0010
0000
,
1000
0001
0100
0001
,
0011
0001
0100
0000
1000
0010
1000
0000
,
0100
0010
1000
0010
,
2000
3100
0002
0013
,
0200
0310
2000
3001
,
0101
0100
0001
0000
0100
0010
1000
0000
,
0010
0100
0001
1000
,
0010
1000
0010
0000
0100
0001
0100
0000
,
0001
1000
0010
1000
,
1100
1000
0010
0000
0001
0100
0001
0000
,
0010
0100
0001
0100
,
0002
0013
2000
3100
,
0020
0130
0002
1003
,
1010
1000
0010
0000
0100
0001
0100
0000
,
0010
0100
0010
0000
1000
0010
0100
0000
,
0001
0010
0100
0000
0010
0100
1000
0000
,
1000
0100
0010
0000
0100
0010
0001
0000
,
0101
0001
0100
0000
0010
1000
0010
0000
,
0100
0010
0100
0000
0001
0100
0010
0000
,
1000
0100
0010
0000
0100
0010
0001
0000
,
0001
0010
0100
0000
0010
0100
1000
0000
,
1001
1000
0001
0000
0001
0100
0010
0000
,
1000
0010
0100
0000
0001
0010
0001
0000
,
1000
0100
1000
0000
1000
0010
0100
0000
,
0010
0001
0100
0000
0001
1000
0001
0000
,
1001
0000
0000
0000
;

//---------------dance-single - ----------------
#NOTES:
     dance-single:
     :
     Hard:
     10:
     0.396,0.356,0.051,0.205,0.526: // measure 1
0000
0000
0000
0000
,  // measure 2
0000
0000
0000
0000
,  // measure 3
0000
0000
0000
0000
,  // measure 4
0000
0000
0000
0000
,  // measure 5
0001
0000
0100
0000
0000
0001
0000
0000
0100
0000
0000
0001
0000
0000
0001
0100
,  // measure 6
0000
0000
0100
0000
0000
0010
0000
0000
0100
0000
0000
0010
0000
0000
0100
0010
,  // measure 7
0000
0000
0010
0000
0000
1000
0000
0000
0010
0000
0000
1000
0000
0000
0010
1000
,  // measure 8
0000
0000
1000
0000
0000
0001
0000
0000
1000
0000
0000
0001
1000
0000
0001
0000
,  // measure 9
0100
0010
1000
0001
0100
0000
0010
1000
,  // measure 10
0000
0000
0100
0000
0000
0000
1000
0000
0010
0000
0000
0010
0000
0000
2000
0000
,  // measure 11
0001
0000
3001
1000
0000
0000
0001
0100
,  // measure 12
0000
0000
0010
0100
0000
0000
0001
1000
,  // measure 13
0010
0100
0001
1000
0010
0000
0100
0001
,  // measure 14
0000
0000
0010
0000
0000
0000
0001
0000
0100
0000
0000
0100
0000
0000
0002
0000
,  // measure 15
1000
0000
1003
0001
0000
0000
1000
0010
,  // measure 16
0000
0000
0100
0010
0000
0000
0110
0000
,  // measure 17
0010
0100
0000
0010
0000
1000
0000
0001
0000
0100
0000
0001
0000
0000
0000
0000
,  // measure 18
1000
0001
0000
1000
0000
0010
0000
0100
0000
0001
0000
0100
0000
0000
0000
0000
,  // measure 19
0100
0010
0000
1000
0000
0001
0000
0100
0000
0001
0000
1000
0000
0000
0000
0000
,  // measure 20
1000
0001
0000
0010
0000
0100
0000
1000
0000
0010
0000
1000
0000
0000
0000
0000
,  // measure 21
0100
0010
0000
0100
0000
0001
0000
1000
0000
0010
0000
1000
0000
0000
0000
0000
,  // measure 22
0001
1000
0000
0001
0000
0100
0000
0010
0000
1000
0000
0010
0000
0000
0000
0000
,  // measure 23
0100
0000
0010
0000
0000
1000
0000
0000
0001
0000
0000
1000
0000
0000
0000
0000
,  // measure 24
2010
3010
0102
0103
,  // measure 25
0010
0001
0100
1000
0010
0000
0100
1000
,  // measure 26
0001
0100
0010
0200
0000
0310
0000
0100
,  // measure 27
0100
0010
1000
0001
0101
0000
0010
1000
,  // measure 28
0001
0100
0010
0020
0000
1030
0000
0000
,  // measure 29
1000
0001
0100
0001
1000
0000
0001
0100
,  // measure 30
1000
0100
0001
0200
0000
0301
0000
0010
,  // measure 31
0020
0230
0302
2003
,  // measure 32
3002
0203
0320
1030
,  // measure 33
0100
1000
0010
0001
0100
0000
0010
0001
,  // measure 34
1000
0010
0100
0020
0000
0130
0000
0010
,  // measure 35
0010
0100
0001
1000
1010
0000
0100
0001
,  // measure 36
1000
0010
0100
0200
0000
0301
0000
0000
,  // measure 37
0001
1000
0010
1000
0001
0000
1000
0010
,  // measure 38
0001
0010
1000
0020
0000
1030
0000
0100
,  // measure 39
0200
0320
2030
3002
,  // measure 40
2003
3020
0230
0301
,  // measure 41
0010
0100
0000
0010
0000
1000
0000
0001
0000
0100
0000
0001
0000
0000
0000
0000
,  // measure 42
1000
0001
0000
1000
0000
0010
0000
0100
0000
0001
0000
0100
0000
0000
0000
0000
,  // measure 43
0100
0010
0000
1000
0000
0001
0000
0100
0000
0001
0000
1000
0000
0000
0000
0000
,  // measure 44
1000
0001
0000
0010
0000
0100
0000
1000
0000
0010
0000
1000
0000
0000
0000
0000
,  // measure 45
0100
0010
0000
0100
0000
0001
0000
1000
0000
0010
0000
1000
0000
0000
0000
0000
,  // measure 46
0001
1000
0000
0001
0000
0100
0000
0010
0000
1000
0000
0010
0000
0000
0000
0000
,  // measure 47
1000
0010
0000
0100
0000
0010
0000
0100
0000
0001
0000
1000
0000
0000
0000
0000
,  // measure 48
0001
0100
0000
0010
0000
1000
0000
0010
0000
1000
0000
0001
0000
0000
0000
0000
,  // measure 49
0010
0100
0000
0010
0000
1000
0000
0010
0000
0100
0000
0001
0000
0000
0000
0000
,  // measure 50
0001
0100
0000
0010
0000
1000
0000
0001
0000
1000
0000
0001
0000
0000
0000
0000
,  // measure 51
1000
0010
0000
0100
0000
0001
0000
0100
0000
0001
0000
1000
0000
0000
0000
0000
,  // measure 52
0100
0010
0000
0100
0000
0001
0000
0100
0000
0010
0000
1000
0000
0000
0000
0000
,  // measure 53
1001
0000
0000
0000
;
