#TITLE:My Head & My Heart;
#SUBTITLE:;
#ARTIST:Ava Max;
#TITLETRANSLIT:;
#SUBTITLETRANSLIT:;
#ARTISTTRANSLIT:;
#CREDIT:;
#BANNER:My Head & My Heart.png;
#BACKGROUND:My Head & My Heart-bg.png;
#LYRICSPATH:;
#CDTITLE:;
#MUSIC:My Head & My Heart.mp3;
#OFFSET:-0.280;
#SAMPLESTART:29.500;
#SAMPLELENGTH:15.000;
#SELECTABLE:YES;
#BPMS:0.000=116.000;
#STOPS:;
#BGCHANGES:-0.680=My Head & My Heart.avi=1.000=0=0=0,
99999=-nosongbg-=1.000=0=0=0 // don't automatically add -songbackground-
;

//---------------dance-single - ----------------
#NOTES:
     dance-single:
     :
     Beginner:
     2:
     0.173,0.235,0.060,0.077,0.004:
0000
0000
0000
0000
,
0000
0000
0000
0000
,
1000
0000
0000
0000
,
0001
0000
0000
0000
,
0010
0000
0000
0000
,
0100
0000
0000
0000
,
0001
0000
0000
0000
,
1000
0000
0000
0000
,
0010
0000
0000
0000
,
0100
0000
0000
0000
,
0001
0000
0010
0000
,
0100
0000
1000
0000
,
1000
0000
0100
0000
,
1000
0000
0001
0000
,
0110
0100
0010
0000
,
1000
0010
0100
0000
,
0001
1000
0001
0000
,
1000
0100
0010
0000
,
1000
0010
1000
0000
,
0001
0100
0001
0000
,
1000
1001
0001
1001
,
0001
1000
0010
0000
,
0100
0100
0100
0000
,
0001
0001
0001
0000
,
1000
1000
1000
0000
,
0010
0010
0010
0000
,
1000
1000
1000
0000
,
0001
0001
0001
0000
,
0010
0010
0010
0000
,
0100
0100
0100
0000
,
2000
0000
0000
3000
,
0020
0000
0000
0030
,
0200
0000
0000
0300
,
0002
0000
0000
0003
,
0002
0000
0000
0003
,
2000
0000
0000
3000
,
0200
0000
0000
0300
,
0100
0100
0100
0100
,
0110
0010
0100
0000
,
0001
0100
0010
0000
,
1000
0001
1000
0000
,
0001
0010
0100
0000
,
0001
0100
0001
0000
,
1000
0010
1000
0000
,
0001
1001
1000
1001
,
1000
0001
0100
0000
,
0010
0010
0010
0000
,
1000
1000
1000
0000
,
0001
0001
0001
0000
,
0100
0100
0100
0000
,
0001
0001
0001
0000
,
1000
1000
1000
0000
,
0100
0100
0100
0000
,
0010
0010
0010
0000
,
0000
2002
0000
0000
0000
0000
0000
0000
0000
0000
0000
0000
0000
0000
0000
0000
0000
0000
0000
0000
0000
0000
0000
0000
0000
0000
0000
0000
0000
0000
0000
0000
0000
0000
0000
0000
0000
0000
0000
0000
0000
0000
0000
0000
0000
0000
0000
0000
0000
0000
0000
0000
0000
0000
0000
0000
0000
0000
0000
0000
0000
0000
0000
0000
0000
0000
0000
0000
0000
0000
0000
0000
0000
0000
0000
0000
0000
0000
0000
0000
0000
0000
0000
0000
0000
0000
0000
0000
0000
0000
0000
0000
0000
0000
0000
0000
0000
0000
0000
0000
0000
0000
0000
0000
0000
0000
0000
0000
0000
0000
0000
0000
0000
0000
0000
0000
0000
0000
0000
0000
0000
0000
0000
0000
0000
0000
0000
0000
0000
0000
0000
0000
0000
0000
0000
0000
0000
0000
0000
0000
0000
0000
0000
0000
0000
0000
0000
0000
0000
0000
0000
0000
0000
0000
0000
0000
0000
0000
0000
0000
0000
0000
0000
0000
0000
0000
0000
0000
0000
0000
0000
0000
0000
0000
0000
0000
0000
0000
0000
0000
0000
0000
0000
0000
0000
0000
0000
0000
0000
0000
0000
0000
,
3003
0000
0000
0000
;

//---------------dance-single - ----------------
#NOTES:
     dance-single:
     :
     Easy:
     4:
     0.227,0.259,0.051,0.111,0.004:
0000
0000
0000
0000
,
0000
0000
0000
0000
,
1000
0010
1000
0000
,
0001
0100
1000
0100
,
0001
0100
1000
0000
,
1000
0010
0001
0010
,
1000
0010
0001
0000
,
0010
0000
1000
0000
,
0001
0000
0100
0000
,
0020
0000
0100
0000
,
0130
0000
1000
0001
,
1000
0000
0100
0010
,
0100
0000
0001
1000
,
0001
0000
1000
0001
,
1001
0001
0100
0001
,
1000
0010
1000
0001
,
0100
0110
0010
1001
,
0001
0010
0100
1000
,
1000
0100
0010
0001
,
1000
0001
0100
0001
,
2000
3001
0002
0103
,
0001
1000
0010
1000
,
1000
1000
1000
0000
,
0001
0100
0001
0000
,
0010
0100
0010
0000
,
0100
0010
0100
0000
,
1000
0010
1000
0000
,
0100
0001
0100
0000
,
0010
1000
0010
0000
,
0100
0001
0100
0010
,
2000
0000
0100
0000
,
3200
0000
0010
0000
,
0320
0000
0001
0000
,
0032
0000
0100
0000
,
0203
0000
0010
0000
,
0320
0000
1000
0000
,
2030
0000
0000
0000
,
3010
0010
0010
0010
,
1001
1000
0010
1000
,
0001
0100
0001
1000
,
0010
0110
0100
1001
,
1000
0100
0010
0001
,
0001
0010
0100
1000
,
0001
1000
0010
1000
,
0002
1003
2000
3010
,
1000
0001
0100
0001
,
0001
0001
0001
0000
,
1000
0010
1000
0000
,
0100
0010
0100
0000
,
0010
0100
0010
0000
,
0001
0100
0001
0000
,
0010
1000
0010
0000
,
0100
0001
0100
0000
,
0010
1000
0010
0100
,
0000
0002
0000
0000
0000
0000
0000
0000
0000
0000
0000
0000
0000
0000
0000
0000
0000
0000
0000
0000
0000
0000
0000
0000
0000
0000
0000
0000
0000
0000
0000
0000
0000
0000
0000
0000
0000
0000
0000
0000
0000
0000
0000
0000
0000
0000
0000
0000
0000
0000
0000
0000
0000
0000
0000
0000
0000
0000
0000
0000
0000
0000
0000
0000
0000
0000
0000
0000
0000
0000
0000
0000
0000
0000
0000
0000
0000
0000
0000
0000
0000
0000
0000
0000
0000
0000
0000
0000
0000
0000
0000
0000
0000
0000
0000
0000
0000
0000
0000
0000
0000
0000
0000
0000
0000
0000
0000
0000
0000
0000
0000
0000
0000
0000
0000
0000
0000
0000
0000
0000
0000
0000
0000
0000
0000
0000
0000
0000
0000
0000
0000
0000
0000
0000
0000
0000
0000
0000
0000
0000
0000
0000
0000
0000
0000
0000
0000
0000
0000
0000
0000
0000
0000
0000
0000
0000
0000
0000
0000
0000
0000
0000
0000
0000
0000
0000
0000
0000
0000
0000
0000
0000
0000
0000
0000
0000
0000
0000
0000
0000
0000
0000
0000
0000
0000
0000
0000
0000
0000
0000
0000
0000
,
0003
0000
0000
0000
;

//---------------dance-single - ----------------
#NOTES:
     dance-single:
     :
     Medium:
     6:
     0.344,0.329,0.034,0.120,0.000:
0000
0000
0000
0000
,
0000
0000
0000
0000
,
0001
0010
0100
0000
0000
0000
0010
0000
,
0000
1000
0001
0100
0001
1000
0010
0000
,
0000
0100
0000
0010
,
0000
0001
1000
0010
1000
0001
1000
0000
,
0000
0100
0000
0010
,
0000
0001
0100
1000
0100
0001
0100
0000
,
0000
1000
0000
0001
,
0000
1000
0000
0001
,
1000
0010
1000
0000
0001
0100
0010
0000
,
0100
0010
0100
0000
0010
0100
0010
0000
,
0001
0010
0100
0000
0010
0100
1000
0000
,
2002
0000
0000
3003
,
1001
0001
1000
0000
0010
1000
0010
0000
,
0100
0001
0010
0000
1000
0001
0100
0000
,
0001
1000
0010
0000
0001
1000
0010
0000
,
0100
0001
1000
0000
0100
0001
1000
0000
,
1000
0100
0010
0001
0100
0000
0000
0000
,
0001
0010
0100
1000
0010
1000
0001
0000
,
1000
0010
1000
0000
0001
0100
0001
0000
,
1000
0010
0100
0001
,
0001
0100
0001
0100
0001
0000
0010
0000
,
1000
0010
0100
0010
1000
0000
0100
0000
,
0001
0100
1000
0100
0001
0000
0001
0000
,
1000
0010
0001
0010
1000
0000
1000
0000
,
1000
0100
0100
1000
0100
0000
1000
0000
,
0001
0100
0100
0001
0100
0000
0001
0000
,
0001
0010
0100
1000
1000
0000
1000
0000
,
1000
0100
0010
0001
0001
0000
0010
0000
,
2000
0000
0010
3010
0000
0000
0000
0000
,
0002
0000
0100
0103
0000
0000
0000
0000
,
0200
0000
0010
0310
0000
0000
0000
0000
,
0020
0000
1000
1030
0000
0000
0000
0000
,
2000
0000
0010
3010
0000
0000
0000
0000
,
0020
0000
0100
0130
0000
0000
0000
0000
,
0002
0023
0230
2300
,
3001
0001
0001
0001
,
1001
1000
0001
0000
0100
0001
0100
0000
,
0010
1000
0100
0000
0001
1000
0010
0000
,
1000
0001
0100
0000
1000
0001
0100
0000
,
0010
1000
0001
0000
0010
1000
0001
0000
,
0001
0010
0100
1000
0010
0000
0000
0000
,
1000
0100
0010
0001
0100
0001
1000
0000
,
0001
0100
0001
0000
1000
0010
1000
0000
,
0001
0100
0010
1000
,
1000
0010
1000
0010
1000
0000
0100
0000
,
0001
0100
0010
0100
0001
0000
0010
0000
,
1000
0010
0001
0010
1000
0000
1000
0000
,
0001
0100
1000
0100
0001
0000
0001
0000
,
0001
0010
0010
0001
0010
0000
0001
0000
,
1000
0010
0010
1000
0010
0000
1000
0000
,
1000
0100
0010
0001
0001
0000
0001
0000
,
0001
0010
0100
1000
1000
0000
0100
0000
,
0220
0000
0000
0000
,
0330
0000
0000
0000
;

//---------------dance-single - ----------------
#NOTES:
     dance-single:
     :
     Hard:
     11:
     0.457,0.536,0.111,0.111,0.162: // measure 1
0000
0000
0000
0000
,  // measure 2
0000
0000
0000
0000
,  // measure 3
0001
0000
0100
0000
0001
0000
0100
0010
0000
0000
0000
0000
1000
0000
0000
0000
,  // measure 4
1000
0010
0001
0010
1000
0010
0001
0010
,  // measure 5
1000
0000
0010
0000
0001
0000
0010
0100
0000
0000
0000
0000
0001
0000
0000
0000
,  // measure 6
0001
0010
0100
1000
0010
1000
0100
0010
,  // measure 7
0001
0000
1000
0000
0001
0000
0100
0010
0000
0000
0000
0000
0010
0000
0000
0000
,  // measure 8
1000
0010
0100
0001
0100
0010
1000
0010
,  // measure 9
1000
0000
0001
0000
1000
0000
0010
0100
0000
0000
0000
0000
0100
0000
0200
0000
,  // measure 10
0000
0310
0000
0010
,  // measure 11
0001
0000
0100
0000
1000
0000
0100
1000
0100
0000
1000
0000
0001
0000
0010
0001
,  // measure 12
1000
0000
0100
0000
0010
0000
0001
0100
0001
0000
0010
0000
0100
0000
1000
0000
,  // measure 13
1000
0000
0010
0000
0001
0000
0010
0001
0010
0000
0001
0000
1000
0000
0100
1000
,  // measure 14
0001
0000
0010
0000
0100
0000
1000
0000
1000
0001
1000
0001
0100
0010
0100
0001
,  // measure 15
1000
0000
0000
0000
0010
0000
0000
1000
0000
0000
0001
0000
0000
0100
0000
0000
,  // measure 16
0001
0000
0000
0000
0001
0000
0000
0100
0000
0000
1000
0000
0000
0100
0000
0000
,  // measure 17
0001
0000
0001
0000
0101
0000
0000
0001
0000
0000
0100
0000
0000
1000
0000
0000
,  // measure 18
0100
0000
0000
0000
0001
0000
0000
0010
0000
0000
1000
0000
0000
0010
0000
0000
,  // measure 19
0001
0010
0100
1000
0200
0000
1300
0000
,  // measure 20
1000
0010
1000
0010
0100
0001
0200
0000
,  // measure 21
0301
0010
1001
0000
0100
0010
1010
0000
,  // measure 22
1000
0000
0000
0000
1000
0000
0000
0010
0000
0000
0001
0000
0000
0010
0000
0000
,  // measure 23
1010
0100
0001
0100
1000
0100
0001
0100
,  // measure 24
1000
0000
0001
1000
0010
1000
0001
0000
,  // measure 25
0001
0010
1000
0010
0001
0010
1000
0010
,  // measure 26
0001
0000
1000
0010
0100
0001
1000
0000
,  // measure 27
0010
0001
0100
1000
0010
1000
0001
1000
,  // measure 28
0001
0000
1000
0001
0010
0001
1000
0000
,  // measure 29
1000
0100
0010
0001
0010
0100
1000
0100
,  // measure 30
0010
0000
0001
0010
0100
1000
0010
0100
,  // measure 31
2000
0000
3010
1000
0000
0001
0100
0001
,  // measure 32
0002
0000
0103
0010
0000
1000
0001
1000
,  // measure 33
2000
0000
3001
0010
0000
0001
1000
0010
,  // measure 34
0020
0000
0130
0010
0000
0010
1000
0001
,  // measure 35
0002
0000
0103
0020
0000
0000
0130
0000
,  // measure 36
1000
0000
0010
1000
0000
1001
0000
0000
,  // measure 37
0001
0010
0001
0000
0100
0010
0100
0000
1000
0100
1000
0000
0010
1000
0010
0000
,  // measure 38
1000
0001
1000
0000
0001
0000
0000
0000
1001
0000
0110
0000
1001
0000
0000
0000
,  // measure 39
0001
0000
0000
0000
0100
0000
0000
0001
0000
0000
1000
0000
0000
0010
0000
0000
,  // measure 40
1000
0000
0000
0000
1000
0000
0000
0010
0000
0000
0001
0000
0000
0010
0000
0000
,  // measure 41
1000
0000
1000
0000
1010
0000
0000
1000
0000
0000
0010
0000
0000
0001
0000
0000
,  // measure 42
0010
0000
0000
0000
1000
0000
0000
0100
0000
0000
0001
0000
0000
0100
0000
0000
,  // measure 43
1000
0100
0010
0001
0020
0000
0031
0000
,  // measure 44
0001
0100
0001
0100
0010
1000
0020
0000
,  // measure 45
1030
0100
1001
0000
0010
0100
0101
0000
,  // measure 46
0001
0000
0000
0000
0001
0000
0000
0100
0000
0000
1000
0000
0000
0100
0000
0000
,  // measure 47
0101
0010
1000
0010
0001
0010
1000
0010
,  // measure 48
0001
0000
1000
0001
0100
0001
1000
0000
,  // measure 49
1000
0100
0001
0100
1000
0100
0001
0100
,  // measure 50
1000
0000
0001
0100
0010
1000
0001
0000
,  // measure 51
0100
1000
0010
0001
0100
0001
1000
0001
,  // measure 52
1000
0000
0001
1000
0100
1000
0001
0000
,  // measure 53
0001
0010
0100
1000
0100
0010
0001
0010
,  // measure 54
0100
0000
1000
0100
0010
0001
0100
0010
,  // measure 55
2002
0000
3003
0000
;
