#TITLE:Melt;
#SUBTITLE:;
#ARTIST:Kisskazz & XOXOCITY;
#TITLETRANSLIT:;
#SUBTITLETRANSLIT:;
#ARTISTTRANSLIT:;
#CREDIT:;
#BANNER:Melt.png;
#BACKGROUND:Melt-bg.png;
#LYRICSPATH:;
#CDTITLE:;
#MUSIC:Melt.mp3;
#OFFSET:-0.800;
#SAMPLESTART:36.320;
#SAMPLELENGTH:15.000;
#SELECTABLE:YES;
#BPMS:0.000=130.000;
#STOPS:;
#BGCHANGES:;

//---------------dance-single - ----------------
#NOTES:
     dance-single:
     :
     Easy:
     5:
     0.280,0.339,0.190,0.231,0.000:
0000
0000
0000
0000
,
0000
0000
0000
0000
,
0000
1000
0000
0001
,
0000
1000
0000
0001
,
0010
0100
0010
1000
,
0010
1000
0010
0100
,
0001
0100
0010
0100
,
0001
1001
0000
0000
,
0100
0100
0010
1000
,
0010
0100
0001
0100
,
0010
1000
0010
0100
,
1000
1010
0000
0000
,
1000
0200
1300
0000
,
0001
0020
0031
0000
,
1000
0002
1003
0000
,
0001
2000
3001
0000
,
0010
0002
0013
0000
,
0100
2000
3100
0000
,
0010
0200
0310
0000
,
1000
0110
0001
0110
,
0000
1000
0010
0010
,
0000
1000
1001
0001
,
0000
0100
0010
1000
,
0000
0001
0010
0100
,
1000
1000
0100
0010
,
0001
0100
0000
0001
,
0002
0023
0032
0023
,
0030
0110
0100
0110
,
0000
0010
1000
0010
,
0000
0101
1100
0101
,
0000
0010
0100
0001
,
0000
0100
0010
0100
,
0000
2000
3002
2003
,
3000
0010
0000
1000
,
0000
0001
0000
0202
,
0000
0000
0303
0000
,
0001
0010
0001
0000
,
0100
0010
0100
0000
,
0010
1000
0100
0000
,
0100
1000
1000
0000
,
1000
0010
0001
0010
,
1000
0001
0100
0001
,
1000
0010
0100
0001
,
0010
0100
2000
0000
,
3000
0110
1000
0110
,
0000
0001
0100
0100
,
0000
0001
1001
1000
,
0000
0010
0100
0001
,
0000
1000
0100
0010
,
0001
0001
0010
0100
,
1000
0010
0000
1000
,
2000
3200
2300
3200
,
0300
0110
0010
0110
,
0000
0100
0001
0100
,
0000
1010
0011
1010
,
0000
0100
0010
1000
,
0000
0010
0100
0010
,
0000
0002
2003
3002
,
0003
0100
0000
0001
,
0000
1000
0000
0010
,
0000
1001
0010
1001
,
0000
0100
0001
0001
,
0000
0100
0110
0010
,
0000
1000
0001
0100
,
0000
0010
0001
1000
,
0100
0100
1000
0001
,
0010
1000
0000
0010
,
0020
0032
0023
0032
,
0003
1001
1000
1001
,
0000
0001
0100
0001
,
0000
1010
1100
1010
,
0000
0001
1000
0010
,
0000
1000
0001
1000
,
0000
0200
0320
0230
,
0300
0001
0000
0100
,
0000
0010
0000
2002
,
0000
3003
0020
0030
;

//---------------dance-single - ----------------
#NOTES:
     dance-single:
     :
     Beginner:
     3:
     0.207,0.261,0.251,0.075,0.000:
0000
0000
0000
0000
,
0000
0000
0000
0000
,
0000
0000
0000
0000
,
0000
0000
0000
0000
,
0000
0001
0000
0001
,
0000
1000
0000
1000
,
0000
0010
0000
0100
,
0000
0010
0000
1000
,
0000
0001
0000
0100
,
0000
0001
0000
0010
,
0000
0001
0000
1000
,
0000
0100
0000
1000
,
0000
1000
1000
1000
,
0000
0001
0001
0001
,
0000
0100
0100
0100
,
0000
0001
0001
0001
,
0000
0010
0010
0010
,
0000
1000
1000
1000
,
0000
0010
0000
1000
,
0000
1001
0110
1001
,
0000
0010
0000
0100
,
0000
0101
1010
0101
,
0000
0001
0000
0100
,
0000
0010
0000
1000
,
1000
0000
0010
0000
,
0100
0000
0001
0000
,
0002
0003
0002
0003
,
0000
1001
0110
1001
,
0000
0010
0000
1000
,
0000
0110
1001
0110
,
0000
0100
0000
0100
,
0000
0010
0000
1000
,
0000
0001
0000
0100
,
0000
0010
0000
1000
,
0000
0010
0000
2000
,
0000
0000
3000
0000
,
1000
0001
1000
0000
,
0001
1000
0001
0000
,
0100
0010
0100
0000
,
0010
0100
0010
0000
,
1000
0000
0001
0000
,
0100
0000
0001
0000
,
0100
0000
0010
0000
,
1000
0000
0220
0000
,
0330
1001
0110
1001
,
0000
0100
0000
0010
,
0000
1010
0101
1010
,
0000
1000
0000
0010
,
0000
0100
0000
0001
,
0001
0000
0100
0000
,
0010
0000
1000
0000
,
2000
3000
2000
3000
,
0000
1001
0110
1001
,
0000
0100
0000
0001
,
0000
0110
1001
0110
,
0000
0010
0000
0010
,
0000
0100
0000
0001
,
0000
1000
0000
0010
,
0000
0100
0000
0001
,
0000
0100
0000
0010
,
0000
0110
1001
0110
,
0000
0001
0000
1000
,
0000
1010
0101
1010
,
0000
0010
0000
1000
,
0000
0001
0000
0100
,
0100
0000
0001
0000
,
1000
0000
0010
0000
,
0020
0030
0020
0030
,
0000
0110
1001
0110
,
0000
0001
0000
0100
,
0000
1001
0110
1001
,
0000
1000
0000
1000
,
0000
0001
0000
0100
,
0000
0010
0000
1000
,
0000
0001
0000
0100
,
0000
0001
0000
0200
,
0000
0300
0200
0300
;

//---------------dance-single - ----------------
#NOTES:
     dance-single:
     :
     Medium:
     9:
     0.363,0.391,0.014,0.020,0.000:
0000
0000
0000
0000
,
0000
0000
0000
0000
,
0000
0010
0000
0010
,
0100
0010
1000
0001
,
1000
0000
0010
1000
0010
0000
0100
0000
,
0001
0000
0001
0010
0001
0000
0100
0000
,
0010
0000
0010
0100
0001
0000
0100
0000
,
0010
0000
0100
0010
1000
0000
0010
0000
,
1000
0000
1000
0100
0010
0000
0001
0000
,
0001
0000
0001
0010
0100
0000
0010
0000
,
0100
0000
0010
1000
0001
0000
0100
0000
,
0001
0000
1000
0010
0001
0000
0100
0000
,
0010
0000
0100
0010
1000
0010
0000
0100
,
0000
0001
0000
1000
0010
0000
1100
0000
,
1000
0000
0010
0100
0001
0100
0000
0010
,
0000
1000
0000
0001
0000
0100
0000
0001
,
0001
0000
0000
0100
0100
0000
0000
0010
,
0010
0000
0000
1000
1000
0000
0000
0010
,
0010
0000
0000
0100
0100
0000
0000
0010
,
0100
0010
0000
0100
0010
0000
0100
0010
,
0010
0000
0100
0010
0001
0000
0100
0000
,
0001
0000
0010
0001
1000
0000
1000
0000
,
0010
0000
0010
1000
0100
0000
1000
0000
,
0001
0000
0100
0001
0100
1000
0100
0001
,
0100
0000
0001
0010
0100
1000
0010
0100
,
0001
0000
0010
0001
0010
0000
0100
0000
,
0010
0000
0100
1000
0100
0000
0010
0000
,
1000
0000
0001
0000
1000
0000
1000
0001
,
0001
0000
1000
0001
0010
0000
1000
0000
,
0010
0000
0001
0010
0100
0000
0100
0000
,
0001
0000
0001
0100
1000
0000
0100
0000
,
0010
1000
0010
1000
,
0010
1000
0000
1000
0000
0000
0001
0000
,
1000
0010
0001
0000
0001
0000
1000
0010
,
0001
0000
1000
0000
1000
0000
0001
0200
,
0000
0000
0300
0000
,
0100
0010
0100
0010
0100
0000
0000
0000
,
1000
0001
1000
0001
1000
0000
0000
0000
,
0001
0100
0001
0100
0001
0000
0000
0000
,
0001
0010
0100
1000
1000
0000
0000
1000
,
1000
0000
0000
0010
0010
0000
0000
1000
,
0001
0000
0000
0001
1000
0000
0000
0010
,
0100
0000
0000
0100
0001
0000
0000
1001
,
0000
0001
0010
0001
0010
0100
1000
0100
,
0000
1000
0100
1000
0000
1000
1000
0010
,
0100
0000
0010
0100
1000
0000
0010
0000
,
1000
0000
0100
1000
0001
0000
0001
0000
,
0100
0000
0100
0001
0010
0000
0001
0000
,
1000
0000
0010
1000
0010
0001
0010
1000
,
0010
0000
1000
0100
0010
0001
0100
0010
,
1000
0000
0100
1000
0100
0000
0010
0000
,
0100
0000
0010
0001
0010
0000
0100
0000
,
0001
0000
1000
0000
0001
0000
0001
1000
,
1000
0000
0001
1000
0100
0000
0001
0000
,
0100
0000
1000
0100
0010
0000
0010
0000
,
1000
0000
1000
0010
0001
0000
0010
0000
,
0100
0001
0100
0001
,
0100
0001
0000
0001
0000
0000
1000
0000
,
0001
0100
1000
0000
1000
0000
0001
0100
,
1000
0000
0001
1000
0001
0000
1000
0000
,
0000
0010
0100
0000
0000
0010
0100
0000
,
0010
0000
0100
0010
0001
0000
0100
0000
,
0001
0000
0010
0001
1000
0000
1000
0000
,
0010
0000
0010
1000
0100
0000
1000
0000
,
0001
0000
0100
0001
0100
1000
0100
0001
,
0100
0000
0001
0010
0100
1000
0010
0100
,
0001
0000
0010
0001
0010
0000
0100
0000
,
0010
0000
0100
1000
0100
0000
0010
0000
,
1000
0000
0001
0000
1000
0000
1000
0001
,
0001
0000
1000
0001
0010
0000
1000
0000
,
0010
0000
0001
0010
0100
0000
0100
0000
,
0001
0000
0001
0100
1000
0000
0100
0000
,
0010
1000
0010
1000
,
0010
1000
0000
1000
0000
0000
0001
0000
,
1000
0010
0001
0000
0001
0000
1000
0010
,
0001
0000
1000
0000
1000
0000
0001
0200
,
0000
0300
0200
0300
;

//---------------dance-single - ----------------
#NOTES:
     dance-single:
     :
     Hard:
     11:
     0.417,0.443,0.156,0.231,0.020: // measure 1
0000
0000
0000
0000
,  // measure 2
0000
0000
0000
0000
,  // measure 3
0100
0000
0010
1000
0010
0000
0001
0000
,  // measure 4
0100
0000
0001
0100
0010
0000
0100
0000
,  // measure 5
0001
0000
0100
0000
0010
0100
0001
0010
,  // measure 6
0000
0001
0000
0100
0010
0001
0010
0100
,  // measure 7
0000
0010
1000
0001
0010
0000
1000
1000
,  // measure 8
0000
1001
0000
0000
0000
1000
0010
0000
,  // measure 9
1000
0000
0010
0000
0100
0010
1000
0100
,  // measure 10
0000
1000
0000
0010
0100
1000
0100
0010
,  // measure 11
0000
0100
0001
1000
0100
0000
0001
0001
,  // measure 12
0000
1001
0000
0000
0000
0001
0100
0000
,  // measure 13
0010
0000
0010
0100
0010
1000
0000
0010
,  // measure 14
0000
1000
0000
0001
0100
0000
0011
0000
,  // measure 15
0001
0000
0100
0001
1000
0010
0000
1000
,  // measure 16
0000
0010
0000
0100
0000
0001
0000
0000
,  // measure 17
0001
0100
0000
0010
0000
0200
0000
0000
,  // measure 18
0000
0300
0000
0000
0100
0010
0000
0100
,  // measure 19
0000
0000
0000
0010
1000
0000
0000
1000
,  // measure 20
0010
0000
1000
0000
0000
0000
1000
0000
0010
0000
0000
0000
1000
0000
0001
1000
,  // measure 21
0001
0000
0202
0000
0303
0001
0010
0100
,  // measure 22
0000
1000
0010
0100
,  // measure 23
0010
0000
2020
0000
3030
1000
0010
1000
,  // measure 24
0000
0000
0000
1000
0010
0001
0010
1000
,  // measure 25
0010
0000
0000
1000
0100
0010
0001
0100
,  // measure 26
0010
0000
1000
0000
0010
1000
0000
0010
,  // measure 27
0000
0000
1000
0000
0001
0100
0000
0102
,  // measure 28
0000
0000
0003
0000
0010
0000
0000
0000
1000
0000
0000
0000
0010
0000
0100
0010
,  // measure 29
0100
0000
0202
0000
0303
0100
1000
0001
,  // measure 30
0000
0010
1000
0001
,  // measure 31
1000
0000
2020
0000
3030
0010
1000
0010
,  // measure 32
0000
1000
0000
0010
0000
1001
0000
0000
,  // measure 33
1000
0010
0000
0010
0000
0000
0100
0000
,  // measure 34
1000
0010
0000
0100
0000
0000
1000
0010
,  // measure 35
0000
0101
0000
0000
0001
0100
1000
0200
,  // measure 36
0000
0000
0000
0000
0310
0000
0100
0010
,  // measure 37
1000
0100
0010
0001
0100
0010
1000
0001
,  // measure 38
0010
0001
0010
0001
0010
0100
1000
0001
,  // measure 39
0100
0001
0010
0100
1000
0010
0100
0001
,  // measure 40
0100
0010
1000
0010
1000
0010
0100
0001
,  // measure 41
0010
0001
0100
0010
1000
0100
1000
0100
,  // measure 42
0010
0001
0100
0010
1000
0001
0100
1000
,  // measure 43
0100
0001
0010
0001
0010
1000
0010
0100
,  // measure 44
0010
0100
0010
1000
2002
0000
0000
0000
,  // measure 45
3003
0000
0010
0000
1000
0000
0001
0000
0100
0000
0010
1000
0010
0000
0100
0000
,  // measure 46
0010
0000
2020
0000
3030
1000
0100
0010
,  // measure 47
0000
0001
0100
0010
,  // measure 48
0100
0000
0202
0000
0303
0001
0100
0001
,  // measure 49
0000
0000
0000
0001
0100
1000
0100
0001
,  // measure 50
0100
0000
0000
0001
0010
0100
1000
0010
,  // measure 51
0100
0000
0001
0000
0100
0001
0000
0100
,  // measure 52
0000
0000
0001
0000
1000
0010
0000
2010
,  // measure 53
0000
0000
3000
0000
0100
0000
0000
0000
0001
0000
0000
0000
0100
0000
0010
0100
,  // measure 54
0010
0000
2020
0000
3030
0010
0001
1000
,  // measure 55
0000
0100
0001
1000
,  // measure 56
0001
0000
0202
0000
0303
0100
0001
0100
,  // measure 57
0000
0001
0000
0100
0000
1001
0000
0000
,  // measure 58
0001
0100
0000
0100
0000
0000
0010
0000
,  // measure 59
0001
0100
0000
0010
0000
0000
0001
0000
,  // measure 60
0100
0000
1000
0010
2000
0000
0010
0000
,  // measure 61
3001
0000
0100
0000
0001
0000
0000
0000
0010
0100
0010
0000
0100
0000
0000
0000
,  // measure 62
0100
0000
0202
0000
0303
0001
0010
0100
,  // measure 63
0000
1000
0010
0100
,  // measure 64
0010
0000
2020
0000
3030
1000
0010
1000
,  // measure 65
0000
0000
0000
1000
0010
0001
0010
1000
,  // measure 66
0010
0000
0000
1000
0100
0010
0001
0100
,  // measure 67
0010
0000
1000
0000
0010
1000
0000
0010
,  // measure 68
0000
0000
1000
0000
0001
0100
0000
0102
,  // measure 69
0000
0000
0003
0000
0010
0000
0000
0000
1000
0000
0000
0000
0010
0000
0100
0010
,  // measure 70
0100
0000
0202
0000
0303
0100
1000
0001
,  // measure 71
0000
0010
1000
0001
,  // measure 72
1000
0000
2020
0000
3030
0010
1000
0010
,  // measure 73
0000
1000
0000
0010
0000
1001
0000
0000
,  // measure 74
1000
0010
0000
0010
0000
0000
0100
0000
,  // measure 75
1000
0010
0000
0100
0000
0000
1000
0010
,  // measure 76
0000
0001
0000
0100
0010
1000
0100
2000
,  // measure 77
0000
0000
3002
0003
;
