#TITLE:MY TREASURE;
#SUBTITLE:;
#ARTIST:TREASURE;
#TITLETRANSLIT:;
#SUBTITLETRANSLIT:;
#ARTISTTRANSLIT:;
#CREDIT:;
#BANNER:MY TREASURE.png;
#BACKGROUND:MY TREASURE-bg.png;
#LYRICSPATH:;
#CDTITLE:;
#MUSIC:MY TREASURE.mp3;
#OFFSET:-0.360;
#SAMPLESTART:54.320;
#SAMPLELENGTH:15.000;
#SELECTABLE:YES;
#DISPLAYBPM:107.000;
#BPMS:0.000=107.970;
#STOPS:;
#BGCHANGES:-0.860=MY TREASURE.avi=1.000=0=0=0,
99999=-nosongbg-=1.000=0=0=0 // don't automatically add -songbackground-
;

//---------------dance-single - ----------------
#NOTES:
     dance-single:
     :
     Easy:
     3:
     0.193,0.281,0.099,0.144,0.000:
0000
0000
0000
0000
,
0000
0000
0000
0000
,
0000
0000
0000
0000
,
0000
0000
0000
0000
,
0000
0100
0000
0010
,
0000
0100
0000
0001
,
0000
1000
0000
0010
,
1000
0010
0100
0010
,
1001
0000
0100
0000
,
0001
0100
0010
0000
,
0100
0000
0010
0000
,
1000
0010
0100
0000
,
0010
0000
1000
0000
,
0001
0100
0001
0000
,
0100
0000
0010
0000
,
1000
0001
1000
0001
,
2002
3003
1000
0000
,
1000
0010
1000
0000
,
0200
0300
0020
0030
,
2000
3000
0020
0030
,
1000
0000
0010
0000
,
1000
0010
1000
0000
,
0010
0000
0100
0000
,
0001
0010
0001
0011
,
1001
0001
0100
0001
,
0100
0010
1000
0010
,
2000
0000
3000
0000
,
1000
0010
0001
0010
,
1001
1000
0010
1000
,
0010
0100
0010
1000
,
0010
1010
0001
0101
,
0000
0001
0100
0020
,
0030
0000
0000
0000
,
0100
1000
0100
1000
,
1010
0000
0000
0000
,
0001
0000
0100
0000
,
0001
0100
0000
0010
,
0100
0001
0000
0100
,
0000
0010
0000
2002
,
0000
3003
0000
0000
,
2000
3200
0320
0032
,
1003
1000
0010
1000
,
0010
0100
0001
0100
,
0002
0000
0003
0000
,
0001
0100
1000
0100
,
1001
0001
0100
0001
,
0100
0010
0100
0001
,
0100
0101
1000
1010
,
0000
1000
0010
0200
,
0300
0100
0010
0100
,
0000
0001
1000
0010
,
0000
0100
0010
1000
,
0000
0001
0001
0020
,
0030
0100
0000
0001
,
0000
0001
0000
1000
,
0000
0001
0000
0001
,
0000
0100
0000
0220
,
0330
0000
0000
0000
;

//---------------dance-single - ----------------
#NOTES:
     dance-single:
     :
     Beginner:
     1:
     0.145,0.195,0.053,0.076,0.000:
0000
0000
0000
0000
,
0000
0000
0000
0000
,
0000
0000
0000
0000
,
0000
0000
0000
0000
,
0000
0010
0000
0010
,
0000
0100
0000
0100
,
0000
0010
0000
0010
,
0000
1000
0000
1001
,
0000
0001
0000
0001
,
0000
0100
0000
0010
,
0000
0100
0000
0010
,
0000
1000
0000
0001
,
0000
0100
0000
0001
,
0000
0010
0000
0001
,
0000
1000
0000
0100
,
0000
1000
0000
1001
,
0000
0100
0000
0010
,
0000
0100
0000
0001
,
0002
0003
0200
0300
,
0020
0030
2000
3000
,
0000
1000
0000
0001
,
0000
0100
0000
0010
,
0000
0100
0000
0001
,
0000
1000
0000
0110
,
0000
0010
0010
0010
,
0000
1000
1000
1000
,
0000
0010
0010
0010
,
0000
0001
0001
0001
,
0000
0100
0001
0100
,
0000
1000
0001
1000
,
0000
0010
0100
0010
,
0000
0100
1000
0100
,
0000
0000
0000
0000
,
1001
0000
0100
0000
,
0001
0000
0000
0000
,
0100
0000
0020
0030
,
0000
0100
0000
0001
,
0000
0100
0000
0010
,
0000
1000
0000
0002
,
0000
0000
0003
0000
,
1001
0000
0220
0330
,
0000
0100
0100
0100
,
0000
0001
0001
0001
,
0000
0100
0100
0100
,
0000
1000
1000
1000
,
0000
0010
1000
0010
,
0000
0001
1000
0001
,
0000
0100
0010
0100
,
0000
0010
0001
0010
,
0000
0100
0000
0001
,
0000
1000
0000
0010
,
0000
0100
0000
0010
,
0000
1000
0000
0010
,
0000
1000
0000
0010
,
0000
0100
0000
0001
,
0000
0100
0000
0001
,
0000
1000
0000
2002
,
3003
0000
0000
0000
;

//---------------dance-single - ----------------
#NOTES:
     dance-single:
     :
     Medium:
     6:
     0.258,0.281,0.091,0.144,0.008:
0000
0000
0000
0000
,
0000
0000
0000
0000
,
0000
0000
0000
0000
,
0000
0000
0000
0000
,
0010
0100
0000
0100
,
0010
0100
0000
0001
,
0010
0100
0000
1000
,
0100
1000
0010
0100
,
0001
0010
0000
0000
0100
0000
0010
0000
,
1000
0100
0000
0000
1000
0000
0010
0000
,
1000
0010
0100
0001
,
0100
0010
0001
0000
1000
0100
0010
0000
,
1001
0000
0100
0000
,
0110
0000
0010
0100
,
1000
0010
0100
0001
,
0001
0100
0001
1000
0010
1000
0010
0000
,
0220
0330
0010
0000
0100
0000
0010
0000
,
0000
1000
0001
1000
,
2000
3100
0002
0013
,
0020
0000
0130
0000
0200
0000
1000
1300
,
0000
0000
0010
0000
0100
0001
0010
0000
,
0100
0000
0010
0000
1000
0001
1000
0000
,
0010
1000
0001
0100
,
0001
1000
0100
0001
1000
0000
0010
0100
,
0110
0100
0001
0100
,
0001
0010
0001
0000
0100
0010
0100
0000
,
2020
3030
0000
0010
,
0000
1000
0100
0010
,
0101
0001
1000
0010
,
1000
0010
0100
0000
0001
0100
0010
0000
,
0100
0010
1000
1010
,
0000
1000
0010
2000
,
3010
0000
0000
0000
,
0200
0010
0010
0010
,
0320
0000
0000
0000
,
2030
0000
0000
0000
,
3000
0100
0000
1000
,
0000
0001
0000
0100
,
0000
0010
0000
0100
,
0000
0000
0000
1000
0010
1000
0010
0000
0000
0000
0000
0000
,
2002
0000
3003
0100
,
0110
0010
1000
0010
,
1000
0100
1000
0000
0010
0100
0010
0000
,
0202
0303
0000
0100
,
0000
0001
0010
0100
,
1010
1000
0001
0100
,
0001
0100
0010
0000
1000
0010
0100
0000
,
0010
0100
0001
0101
,
0000
0001
0100
0002
,
0103
0000
0001
0100
0001
0000
1000
0010
,
0010
0100
0010
1000
,
0010
0000
0100
0010
1000
0000
0001
0100
,
0010
0100
0001
0020
,
0031
0000
1000
0010
1000
0000
0001
0100
,
0100
0010
0100
0001
,
0100
0000
0010
0100
0001
0000
1000
0010
,
0100
0010
1000
0200
,
1300
0000
0000
0000
;

//---------------dance-single - ----------------
#NOTES:
     dance-single:
     :
     Hard:
     12:
     0.426,0.433,0.144,0.182,0.391: // measure 1
0000
0000
0000
0000
,  // measure 2
0000
0000
0000
0000
,  // measure 3
0000
0000
0000
0000
,  // measure 4
0000
0000
0000
0000
,  // measure 5
0000
0000
0000
0000
0100
0010
1000
0001
,  // measure 6
0200
0000
0300
0000
0010
1000
0001
0100
,  // measure 7
0002
0003
1001
0000
,  // measure 8
0101
0000
0000
0000
0110
0000
0000
0000
1010
0000
0000
0010
1000
0010
0100
0000
,  // measure 9
0010
0000
0100
0000
0000
0010
0000
0000
1000
0000
0000
0000
0001
0000
0000
0100
,  // measure 10
0001
0000
0100
0000
0000
0001
0000
0000
1000
0000
0000
0000
1000
0000
0010
0100
,  // measure 11
0001
0000
0010
0000
0000
0100
0000
0000
0010
0000
0000
0000
1000
0000
0000
0100
,  // measure 12
0001
0100
0010
0000
0100
0000
0010
1000
0010
0000
1000
0000
0001
0000
0000
0000
,  // measure 13
0101
0000
0000
0000
0010
0000
0000
0001
0100
0000
0001
0100
0000
0000
0010
1000
,  // measure 14
0100
0000
1000
0000
0000
0000
0010
1000
0100
0000
1000
0001
0000
0001
0100
0000
,  // measure 15
0010
0000
1000
0100
0010
0000
0100
0000
,  // measure 16
0001
0001
0010
0010
0100
0100
1000
0000
,  // measure 17
2020
3030
1000
0010
0001
0010
1000
0000
,  // measure 18
0000
0000
0001
0100
0010
0100
0001
0000
1000
0000
0010
0000
1000
0010
0100
0000
,  // measure 19
0020
0130
0200
0301
,  // measure 20
0002
0000
0013
0000
2000
0000
3100
1000
,  // measure 21
0010
0000
1000
0010
1000
0000
0010
0000
0100
0000
0001
0000
0010
0000
0000
0000
,  // measure 22
0100
0010
1000
0010
0100
0001
0100
0010
0000
0000
0100
0000
0001
0000
2000
0000
,  // measure 23
0000
3010
0000
0000
0001
0000
1000
0000
,  // measure 24
0000
0100
0010
1000
0100
0000
1000
0000
0001
0000
0000
0000
1000
0000
0001
0000
,  // measure 25
1001
0001
0100
0101
,  // measure 26
0001
0000
0100
0000
1000
0000
0100
0000
0001
0000
0000
0100
0001
0000
0000
0001
,  // measure 27
0100
0000
0010
0100
0010
0000
1000
0000
0100
0000
0000
1000
0000
0000
2020
0000
,  // measure 28
0000
0000
3030
0000
1000
0000
0100
0000
0001
0000
1000
0010
0000
0100
0000
0010
,  // measure 29
0000
0100
0010
0110
,  // measure 30
1000
0000
0100
0000
0001
0000
0100
0000
1000
0000
0010
0000
1000
0010
0000
0000
,  // measure 31
0100
0000
0000
0000
0010
0100
0000
0000
0100
0010
0000
0000
1001
0000
0000
0000
,  // measure 32
1000
0000
0010
1000
0010
0001
0010
0000
,  // measure 33
0101
0000
0000
0000
0001
0100
0001
0100
0010
1000
0000
0000
,  // measure 34
1000
0000
0000
0000
1000
0100
0010
0001
0010
0100
0000
0000
,  // measure 35
2000
0020
3030
0000
,  // measure 36
0001
0100
0010
1000
0000
1000
0001
0000
0000
0100
0010
0100
,  // measure 37
0010
0000
0000
0000
0000
0000
0000
0000
0100
0000
0000
0000
0010
0000
0000
0000
0000
0000
0000
0000
0100
0000
0000
0000
0000
0000
0000
0000
0000
0000
0000
0000
0000
0000
0000
0000
0010
0000
0000
0000
0000
0000
1000
0000
0000
0010
0000
0000
,  // measure 38
1000
0000
0000
1000
0010
0000
1000
0010
0000
0000
0000
0000
0100
0000
0000
0000
,  // measure 39
1000
0010
1000
0001
0100
0001
0200
0000
,  // measure 40
0301
0000
0000
0001
0010
0100
1000
0000
0000
0000
0000
0000
,  // measure 41
2002
0000
3003
0110
,  // measure 42
1001
1000
0010
1010
,  // measure 43
1000
0000
0010
0000
0001
0000
0010
0000
1000
0000
0000
0010
1000
0000
0000
1000
,  // measure 44
0010
0000
0100
0010
0100
0000
0001
0000
0010
0000
0000
0001
0000
0000
0202
0000
,  // measure 45
0000
0000
0303
0000
0001
0000
0010
0000
1000
0000
0001
0100
0000
0010
0000
0100
,  // measure 46
0000
0000
0000
0000
0010
0000
0000
0000
0100
0000
0010
0100
0000
0010
0000
0100
,  // measure 47
0001
0000
0010
0000
1000
0000
0010
0000
0001
0000
0000
0100
0000
0000
0020
0000
,  // measure 48
0000
0030
0000
0200
0000
0300
1001
0000
,  // measure 49
0001
0000
0100
0001
0100
0000
0000
0010
0000
0000
1000
0000
0010
0000
0000
0000
,  // measure 50
1010
0000
0000
0000
1000
0010
0100
0010
0000
0100
0000
0000
0001
0100
0010
0100
,  // measure 51
0000
0001
0000
0000
0100
0000
0010
0100
0010
0000
1000
0000
0020
0000
0000
0000
,  // measure 52
1030
0000
0000
0000
1000
0010
1000
0001
0000
0100
0000
0000
0001
1000
0001
0100
,  // measure 53
0000
0010
0000
0100
0000
0010
0000
1000
0000
0001
1000
0000
0002
0000
0000
0000
,  // measure 54
0103
0000
0000
0000
0001
0100
0010
0100
0000
0010
0000
0000
1000
0010
0100
0010
,  // measure 55
0000
1000
0000
0000
0010
0000
0100
0010
0100
0000
0001
0000
0200
0000
0000
0000
,  // measure 56
0301
0000
0000
0000
0001
0100
0001
1000
0000
0010
0000
0000
1000
0001
1000
0010
,  // measure 57
0000
0100
0000
0010
0000
0100
0000
0001
0000
1000
0001
0000
2000
0000
0000
0000
,  // measure 58
3001
0000
0000
0000
;
