#TITLE:MORE (feat. Lexie Liu, Jaira Burns, Seraphine & League of Legends);
#SUBTITLE:;
#ARTIST:K/DA, Madison Beer & (G)I-DLE;
#TITLETRANSLIT:;
#SUBTITLETRANSLIT:;
#ARTISTTRANSLIT:;
#CREDIT:;
#BANNER:MORE (feat. Lexie Liu, Jaira Burns, Seraphine & League of Legends).png;
#BACKGROUND:MORE (feat. Lexie Liu, Jaira Burns, Seraphine & League of Legends)-bg.png;
#LYRICSPATH:;
#CDTITLE:;
#MUSIC:MORE (feat. Lexie Liu, Jaira Burns, Seraphine & League of Legends).mp3;
#OFFSET:0.020;
#SAMPLESTART:57.400;
#SAMPLELENGTH:15.000;
#SELECTABLE:YES;
#BPMS:0.000=142.000;
#STOPS:;
#BGCHANGES:;

//---------------dance-single - ----------------
#NOTES:
     dance-single:
     :
     Beginner:
     3:
     0.204,0.226,0.123,0.075,0.000:
0000
0000
0000
0000
,
0000
0000
0000
0000
,
1001
0000
0000
0000
,
1000
1000
1000
0000
,
0010
0010
0010
0000
,
0100
0100
0100
0000
,
0001
0001
0001
0000
,
1000
0000
0001
0000
,
0110
0000
0010
0000
,
0100
0000
1000
0000
,
0100
0000
1001
0000
,
0001
0000
0101
0000
,
1000
0000
1100
0000
,
1000
0001
1000
0000
,
0001
0000
0010
0000
,
0100
0000
0001
0000
,
1000
0000
0010
0000
,
1000
0000
0100
0000
,
1000
0000
1010
0000
,
1000
0001
1000
0000
,
0001
0000
0100
0000
,
0010
0100
0010
0000
,
0100
0000
0001
0000
,
0001
0100
0001
0000
,
1000
0000
0001
0000
,
1000
0100
0010
0000
,
0220
0000
0000
0330
,
0010
0000
0100
0000
,
0110
0000
0000
0000
,
1000
0000
0001
0000
,
1001
0000
0000
0000
,
0001
0000
1000
0000
,
0001
0000
1000
0000
,
0010
1000
0010
0000
,
2020
0000
3030
0000
,
1000
0010
1000
0000
,
0001
0100
0001
0000
,
0100
0010
0100
0000
,
0220
0000
0330
0000
,
1000
0001
1000
0000
,
0001
0100
0010
0000
,
1000
0001
0010
0000
,
1000
0000
0010
0000
,
1000
0000
0001
0000
,
0101
0000
0001
0000
,
0001
0001
0000
0000
,
0100
0000
0010
0000
,
1000
0000
0100
0000
,
1000
0000
0010
0000
,
0100
0100
0100
0100
,
0200
0000
0000
0000
,
0300
0000
0010
0000
,
1000
0000
0001
0000
,
0100
0000
0010
0000
,
1000
0000
0001
0000
,
0100
0000
0001
0000
,
0100
0000
0010
0000
,
1000
0000
0010
0000
,
1001
0000
0000
0000
,
1001
0000
0001
0000
,
0100
0000
0001
0000
,
1000
0000
0010
0000
,
1000
0000
0010
0000
,
1000
1000
1000
0000
,
0100
0100
0100
0000
,
0010
0010
0010
0000
,
0001
0001
0001
0000
,
2002
0000
0000
0000
,
3003
0100
0001
0000
,
1000
0010
1000
0000
,
0010
0100
0010
0000
,
0220
0000
0330
0000
,
0001
1000
0001
0000
,
1000
0010
0100
0000
,
0001
1000
0100
0000
,
0001
0000
0100
0000
,
0001
0000
1000
0000
,
1010
0000
1000
0000
,
1000
1000
0000
0000
,
0010
0000
0100
0000
,
0001
0000
0010
0000
,
0001
0000
0100
0000
,
0010
0010
0100
0100
,
0110
0000
0000
0000
;

//---------------dance-single - ----------------
#NOTES:
     dance-single:
     :
     Easy:
     6:
     0.291,0.311,0.177,0.177,0.000:
0000
0000
0000
0000
,
0000
0000
0000
0000
,
1001
0000
0000
0000
,
0001
0100
0001
0100
,
0101
0000
0000
0000
,
1000
0010
1000
0010
,
1010
0000
0000
0000
,
1000
0100
0010
0001
,
1001
0000
0000
0000
,
1000
0010
0001
0010
,
1000
0010
1001
0000
,
0001
0100
0010
0000
,
1000
0010
0100
0000
,
0001
0100
0010
0000
,
1000
0001
0011
0000
,
0001
0100
1001
0000
,
1000
0010
1010
0000
,
0001
0100
0101
0000
,
0010
0100
0010
0000
,
1000
0010
1000
0010
,
1000
0000
0001
0000
,
0001
1000
0010
1000
,
0002
0000
0003
0000
,
2000
0000
3010
0000
,
1000
0010
1000
0000
,
0001
1000
0001
1000
,
2002
0000
3003
0000
,
2000
0000
3001
1000
,
0020
0000
0130
0000
,
0200
0000
0310
0100
,
0001
0000
1000
0000
,
0001
0000
0100
0000
,
0001
1000
0010
1000
,
0001
0100
0001
0000
,
2002
0000
3003
0000
,
1000
0010
1000
0001
,
0200
0010
0310
0000
,
1000
0010
0001
0010
,
2020
0000
3030
0000
,
1000
0010
0100
0001
,
0020
1000
1030
0000
,
1000
0100
0010
0001
,
0100
0010
1000
0001
,
0100
0001
0100
0001
,
0001
1000
0001
1000
,
1001
0110
0100
0010
,
0100
0001
1000
0010
,
1000
0001
0010
0100
,
1000
0001
0100
0001
,
0101
1010
1000
0001
,
2000
0000
0000
0000
,
3010
0000
0010
0000
,
1000
0000
0010
0000
,
0110
0000
0100
0000
,
0010
0000
1000
0000
,
0001
0000
0100
0000
,
0001
0000
1000
0000
,
0001
0000
1100
0000
,
0011
0000
0000
0000
,
2000
0001
0001
0001
,
3002
0100
0100
0100
,
0203
0010
0010
0010
,
0320
1000
1000
1000
,
1030
0010
1000
0001
,
0100
0001
1000
0001
,
1000
0100
0010
0001
,
1000
0001
2002
3003
,
2002
0000
3003
0000
,
0001
0100
0001
1000
,
0020
0100
0130
0000
,
0001
0100
1000
0100
,
0202
0000
0303
0000
,
0001
0100
0010
1000
,
0200
0001
0301
0000
,
0001
0010
0100
1000
,
0010
0100
0001
1000
,
0010
1000
0010
1000
,
1000
0001
1000
0001
,
1001
0110
0010
0100
,
0010
1000
0001
0100
,
0001
1000
0100
0010
,
0001
1000
0010
1000
,
1010
0101
0001
1000
,
0001
0000
0000
0000
;

//---------------dance-single - ----------------
#NOTES:
     dance-single:
     :
     Medium:
     9:
     0.410,0.509,0.150,0.198,0.000:
0000
0000
0000
0000
,
0000
0000
0000
0000
,
1000
0010
1000
0010
,
1000
0001
0100
0001
,
1000
0001
0100
0001
,
0101
1010
1000
0001
,
1001
0000
0001
1000
0001
0000
1000
0100
,
0010
0001
0100
0010
0100
0000
0010
0000
,
1000
0001
1000
0010
,
0001
0100
1000
0100
0001
0100
1000
0100
,
0001
0000
1000
0010
1000
0000
0001
0100
,
0010
0000
1000
0001
0100
0000
0001
0100
,
1000
0000
0010
0100
0010
0000
1000
0010
,
0001
0010
1000
0010
0001
0000
0000
0000
,
2000
0000
3100
0000
,
0002
0000
0013
0000
,
1000
0010
1000
0001
1000
0010
1000
0000
,
0001
0100
0010
0100
0001
1000
0001
0000
,
1000
0000
0001
0000
0100
0001
0100
0000
,
0010
0000
0100
0000
0010
1000
0010
0000
,
1000
0000
0100
0000
1000
0001
0010
0000
,
0001
0000
0100
0000
0001
0100
1000
0000
,
1000
0001
0100
0010
,
0100
0000
0001
0000
1000
0000
0010
1000
,
0010
1000
0001
0100
0001
0100
0001
1000
,
0001
1000
0010
0100
0010
1000
0001
1000
,
2002
0000
3003
0000
,
2000
0000
0000
3010
0020
0000
0230
0000
,
0302
0000
0003
0000
,
0002
0000
0000
0010
0023
0000
0000
0100
,
0230
0000
0300
0000
,
1000
0000
0010
0000
,
1000
0000
0001
0000
1000
0000
0001
1000
,
0001
1000
0010
0100
0010
0100
0010
0000
,
0220
0000
0330
0010
,
1000
0001
1000
0000
0001
0000
0100
0000
,
0001
0100
0202
0303
,
0000
0001
0100
1000
0100
0001
1000
0001
,
2000
0000
0000
0000
3001
0000
1000
0010
,
0001
0010
1000
0000
0010
0000
0100
0000
,
0202
0303
0001
1000
,
0001
0100
0001
1000
,
2000
0000
3010
0100
0010
0000
0100
0010
,
0100
0001
0100
0000
0001
0000
1000
0000
,
0010
0000
0100
0000
0001
1000
0001
0000
,
0101
0000
1010
0000
1000
0010
0100
0000
,
1000
0000
0001
1000
0001
0000
1000
0010
,
0001
0010
1000
0000
0001
0000
0100
0000
,
0001
0000
0100
0000
1000
0001
0100
0000
,
0101
0000
1010
0000
0100
0010
0100
0000
,
0020
0000
2030
0000
,
3001
0000
0100
0000
,
0001
0010
0001
1000
,
0001
0000
1001
0000
,
1000
0100
1000
0001
,
0100
0000
0110
0000
,
0001
1000
0001
0100
,
0010
0000
1010
0000
,
0101
0000
0000
0000
,
1000
0000
0010
1000
0010
0000
0100
0000
,
0100
0001
0010
0000
0010
0000
1000
0010
,
0100
0000
0001
0000
1000
0001
0100
0000
,
0010
0000
0100
0001
1000
0000
0001
0000
,
1000
0001
1000
0000
0001
1000
0001
0000
,
1000
0010
0100
0000
0001
0010
0100
0000
,
1000
0001
1000
0001
,
1000
0001
1000
0001
1000
0010
0100
0010
,
0220
0000
0330
0100
,
0001
1000
0001
0000
1000
0000
0010
0000
,
1000
0010
2020
3030
,
0000
1000
0010
0001
0010
1000
0001
1000
,
0002
0000
0000
0000
1003
0000
0001
0100
,
1000
0100
0001
0000
0100
0000
0010
0000
,
2020
3030
1000
0001
,
1000
0010
1000
0001
,
0002
0000
0103
0010
0100
0000
0010
0100
,
0010
1000
0010
0000
1000
0000
0001
0000
,
0100
0000
0010
0000
1000
0001
1000
0000
,
1010
0000
0101
0000
0001
0100
0010
0000
,
0001
0000
1000
0001
1000
0000
0001
0100
,
1000
0100
0001
0000
1000
0000
0010
0000
,
1000
0000
0010
0000
0001
1000
0010
0000
,
1010
0000
0101
0000
0010
0100
0010
0000
,
0100
0000
0000
0000
;

//---------------dance-single - ----------------
#NOTES:
     dance-single:
     :
     Hard:
     13:
     0.526,0.735,0.245,0.177,0.327: // measure 1
0000
0000
0000
0000
,  // measure 2
0000
0000
0000
0000
,  // measure 3
1001
0000
1000
0000
0001
0000
1000
0001
,  // measure 4
1000
0000
1010
0000
0001
0000
0101
0100
,  // measure 5
0001
0100
1000
0100
0001
0100
1000
0100
,  // measure 6
0010
1010
1000
1001
,  // measure 7
1000
0000
0010
1000
0010
0000
1000
0100
,  // measure 8
0010
0001
1000
0001
1000
0000
0100
0000
,  // measure 9
0110
0010
0001
0001
,  // measure 10
0010
0000
0001
0000
1000
0000
0010
0000
0001
0000
0010
0000
1000
0010
0100
0000
,  // measure 11
0010
0000
0000
0000
0001
0100
0010
0000
0100
0000
0000
0000
1000
0001
1000
0000
,  // measure 12
0001
0000
0000
0000
0001
1000
0010
0000
0100
0000
0000
0000
0010
0100
0010
0100
,  // measure 13
0010
0000
0000
0000
1000
0001
0100
0010
0100
0000
0000
0000
0001
1000
0010
0000
,  // measure 14
1000
0000
0000
0001
0000
0000
0100
0000
0000
0001
0000
0000
0101
0000
0000
0000
0000
0000
0000
0000
0000
0000
0010
0000
,  // measure 15
1000
0000
0000
0000
0010
0000
0000
0000
0100
0000
0000
0000
0010
0000
0000
0000
1000
0000
0000
0000
0001
0000
0000
0000
0100
0000
0000
0000
0000
0000
0000
0000
0000
0001
0000
0000
0000
0000
0000
0000
0000
0000
0000
0000
1000
0000
0000
0000
,  // measure 16
0001
0000
0000
0000
0100
0000
0000
0000
0001
0000
0000
0000
1000
0000
0000
0000
0001
0000
0000
0000
1000
0000
0000
0000
0010
0000
0000
0000
0000
0000
0000
0000
0000
0100
0000
0000
0000
0000
0000
0000
0000
0000
0000
0000
0100
0000
0000
0000
,  // measure 17
0001
0000
0000
0000
0100
0000
0000
0000
0010
0000
0000
0000
0100
0000
0000
0000
0001
0000
0000
0000
1000
0000
0000
0000
0010
0000
0000
0000
0000
0000
0000
0000
0000
1000
0000
0000
0000
0000
0000
0000
0000
0000
0000
0000
0001
0000
0000
0000
,  // measure 18
1000
0000
0000
0000
0010
0000
0000
0000
1000
0000
0000
0000
0001
0000
0000
0000
1000
0000
0000
0000
0001
0000
0000
0000
0100
0000
0000
0000
0000
0000
0000
0000
0000
0010
0000
0000
0000
0000
0000
0000
0000
0000
0000
0000
1000
0000
0000
0000
,  // measure 19
0010
0001
0010
1000
0010
0001
0010
1000
0001
0000
0000
0001
,  // measure 20
0100
1000
0100
0001
0100
1000
0100
0001
1000
0000
0000
1000
,  // measure 21
0100
0010
0001
0010
0100
1000
0001
1000
0001
0000
0000
0001
,  // measure 22
0010
0100
1000
0100
0010
0001
1000
0001
1000
0000
0000
0001
,  // measure 23
0100
0001
0100
0010
1000
0010
1000
0001
0100
0001
1000
0010
,  // measure 24
1000
0010
0100
0001
0100
0010
1000
0100
1000
0001
0100
0001
,  // measure 25
0010
0001
1000
0010
1000
0001
0100
0001
0100
0010
1000
0001
,  // measure 26
0100
0001
0010
0100
1000
0001
1000
0100
0010
0001
1000
0010
,  // measure 27
2002
0000
0000
0000
0000
0000
0000
3003
,  // measure 28
2000
0000
0000
3010
0200
0000
0310
0000
,  // measure 29
1020
0000
0030
0000
,  // measure 30
0002
0000
0000
0103
0020
0000
0000
1030
,  // measure 31
2000
0000
3001
0000
,  // measure 32
1000
0000
0001
0000
,  // measure 33
1000
0000
0001
0000
1000
0000
0001
1000
,  // measure 34
0001
0000
1000
0001
1000
0001
1000
0000
0000
0000
0000
0000
0000
0000
0000
0000
,  // measure 35
2020
0000
0000
0000
3030
0000
1000
0010
,  // measure 36
0001
0010
1000
0000
0001
0000
0100
0000
,  // measure 37
0102
0103
0010
0000
,  // measure 38
0001
0100
1000
0100
0001
0100
1000
0100
,  // measure 39
0202
0000
0303
0000
0101
0000
0001
1000
,  // measure 40
0001
0100
0010
0000
1000
0010
0100
0010
,  // measure 41
0220
0000
0330
0000
1000
0010
0100
0010
,  // measure 42
0001
1000
0001
1001
,  // measure 43
1000
0000
0001
1000
0001
0000
0001
1000
,  // measure 44
0010
1000
0100
1000
0001
0000
0101
0000
,  // measure 45
1000
0000
0001
0000
1000
0010
0001
0000
,  // measure 46
1001
0000
0110
0000
0100
0010
0100
0000
,  // measure 47
1000
0100
0010
0001
0100
0010
1000
0100
,  // measure 48
0010
0001
1000
0001
1000
0000
1010
0000
,  // measure 49
0001
0000
1000
0000
0001
0010
0100
0000
,  // measure 50
0001
0000
1000
0000
0010
0100
0010
0000
,  // measure 51
0220
0000
0000
0000
,  // measure 52
0330
0000
0100
0000
,  // measure 53
0010
1000
0010
0001
0010
1000
0010
0001
,  // measure 54
0010
0000
1010
0000
,  // measure 55
1000
0001
0100
0001
0010
0001
0100
0001
,  // measure 56
1000
0000
1001
0000
,  // measure 57
0001
1000
0010
1000
0001
1000
0001
1000
,  // measure 58
0010
0000
0110
0000
,  // measure 59
1001
0000
0000
0000
0000
0001
0100
0001
,  // measure 60
0000
1000
0010
0100
0000
0010
0100
0010
,  // measure 61
0000
1000
0001
0100
0000
0001
0100
1000
,  // measure 62
0000
1000
0010
0001
0000
0100
0010
0100
,  // measure 63
0000
1000
0001
1000
0000
1000
0001
0100
,  // measure 64
0000
0001
0100
0001
0000
1000
0010
0100
,  // measure 65
0000
0010
0100
0010
0000
0000
1000
0010
,  // measure 66
1000
0100
0010
0001
0100
0000
0000
0000
,  // measure 67
1000
0001
1000
0000
2002
0000
0000
3003
,  // measure 68
0202
0000
0000
0000
0303
0000
0001
0100
,  // measure 69
1000
0100
0001
0000
1000
0000
0010
0000
,  // measure 70
2010
3010
0100
0000
,  // measure 71
1000
0010
0001
0010
1000
0010
0001
0010
,  // measure 72
2020
0000
3030
0000
1010
0000
1000
0001
,  // measure 73
1000
0010
0100
0000
0001
0100
0010
0100
,  // measure 74
0220
0000
0330
0000
0001
0100
0010
0100
,  // measure 75
1000
0001
1000
1001
,  // measure 76
0001
0000
1000
0001
1000
0000
1000
0001
,  // measure 77
0100
0001
0010
0001
1000
0000
1010
0000
,  // measure 78
0001
0000
1000
0000
0001
0100
1000
0000
,  // measure 79
1001
0000
0110
0000
0010
0100
0010
0000
,  // measure 80
0001
0010
0100
1000
0010
0100
0001
0010
,  // measure 81
0100
1000
0001
1000
0001
0000
0101
0000
,  // measure 82
1000
0000
0001
0000
1000
0100
0010
0000
,  // measure 83
1000
0000
0001
0000
0100
0010
0100
0000
,  // measure 84
0110
0000
0000
0000
;
