#TITLE:MORE & MORE;
#SUBTITLE:;
#ARTIST:TWICE;
#TITLETRANSLIT:;
#SUBTITLETRANSLIT:;
#ARTISTTRANSLIT:;
#CREDIT:;
#BANNER:MORE & MORE.png;
#BACKGROUND:MORE & MORE-bg.png;
#LYRICSPATH:;
#CDTITLE:;
#MUSIC:MORE & MORE.mp3;
#OFFSET:-0.340;
#SAMPLESTART:58.640;
#SAMPLELENGTH:15.000;
#SELECTABLE:YES;
#BPMS:0.000=107.000,104.000=214.001,168.000=107.000,232.000=214.001,294.000=107.000;
#STOPS:;
#BGCHANGES:-0.840=MORE & MORE.avi=1.000=0=0=0,
99999=-nosongbg-=1.000=0=0=0 // don't automatically add -songbackground-
;

//---------------dance-single - ----------------
#NOTES:
     dance-single:
     :
     Beginner:
     3:
     0.155,0.218,0.037,0.030,0.000:
0000
0000
0000
0000
,
0000
0000
0000
0000
,
1000
0000
0000
0000
,
0100
0000
0000
0000
,
0010
0000
0000
0000
,
0001
0000
0000
0000
,
0100
0000
0000
0000
,
0100
0000
0000
0000
,
0010
0000
0000
0000
,
0010
0000
0000
0000
,
0001
0001
0001
0000
,
0100
0100
0100
0000
,
0010
0010
0010
0000
,
1000
1000
1000
0000
,
0001
1000
0001
0000
,
1000
0010
1000
0000
,
0001
0100
0001
0000
,
0010
1000
0010
0000
,
1000
0000
0010
0000
,
1000
0000
0010
0000
,
0001
0000
0100
0000
,
0001
0000
0100
0000
,
0001
1000
0001
1000
,
0001
1000
0001
0000
,
0100
0010
0100
0010
,
0100
0000
0000
0000
,
1000
0000
0001
0000
,
0100
0000
0001
0000
,
1000
0000
0000
0000
,
0110
0000
0000
0000
,
0001
0000
1000
0000
,
0001
0000
0000
0000
,
0010
0000
1000
0000
,
0010
0000
0000
0000
,
0001
0000
1000
0000
,
0010
0000
1000
0000
,
0001
0000
0000
0000
,
1001
0000
0000
0000
,
1000
0000
0010
0000
,
1000
0000
0000
0000
,
0010
0000
0100
0000
,
0010
0000
0000
0000
,
2000
0000
3000
0000
,
1000
0001
1000
0000
,
0020
0000
0030
0000
,
0100
0010
0100
0000
,
0200
0000
0300
0000
,
1000
0010
1000
0000
,
0002
0000
0003
0000
,
0100
0001
0100
0000
,
0010
0001
0010
0000
,
1000
0010
1000
0000
,
0001
0100
0001
0000
,
0100
0010
0100
0000
,
0001
1000
0001
0000
,
1000
0001
1000
0000
,
0010
0100
0010
0000
,
0000
0000
0000
0000
,
0001
0000
1000
0000
,
0010
0000
1000
0000
,
0001
0000
0000
0000
,
0110
0000
0000
0000
,
1000
0000
0001
0000
,
1000
0000
0000
0000
,
0100
0000
0001
0000
,
0100
0000
0000
0000
,
1000
0000
0001
0000
,
0100
0000
0001
0000
,
1000
0000
0000
0000
,
1001
0000
0000
0000
,
0001
0000
0100
0000
,
0001
0000
0000
0000
,
0100
0000
0010
0000
,
0100
0000
0110
0000
;

//---------------dance-single - ----------------
#NOTES:
     dance-single:
     :
     Easy:
     5:
     0.209,0.245,0.089,0.089,0.000:
0000
0000
0000
0000
,
0000
0000
0000
0010
,
2000
0000
3010
0000
,
0002
0000
0103
0000
,
0020
0000
0130
0000
,
0200
0000
0310
0000
,
2000
0000
3010
0000
,
0020
0000
0130
0000
,
0200
0000
0301
0000
,
0002
0000
1003
0000
,
1000
0010
1000
0000
,
0100
0001
0010
0000
,
0010
0100
0001
0000
,
1000
0010
1000
0000
,
0010
0100
0010
0000
,
1000
0001
1000
0000
,
0001
0100
0001
0000
,
0010
0100
0010
0000
,
1000
0010
1000
0010
,
1000
0001
0100
0000
,
0010
1000
0001
1000
,
0001
0100
0001
0000
,
0100
0010
1000
0010
,
1000
0001
0100
0000
,
1000
0001
0100
0001
,
1000
0000
0000
0110
,
1001
0000
0010
0000
,
1000
0000
1000
0000
,
0001
0000
0100
0000
,
0110
0000
0000
0000
,
0001
0000
0000
0100
0000
0000
0101
0000
,
0000
0000
0010
0000
,
1000
0000
0001
0000
,
1000
0000
0010
0000
,
1000
0000
0001
0000
,
0100
0000
0010
0000
,
0100
0000
0001
0000
,
1000
0000
0100
0000
,
0010
0000
0000
1000
0000
0000
1010
0000
,
0000
0000
0001
0000
,
1000
0000
0001
0000
,
1000
0000
0001
0000
,
2000
0000
3001
1000
,
0001
0000
0100
0100
,
0002
0000
1003
0010
,
1000
0000
0001
0001
,
0200
0000
0301
0100
,
0001
0000
0010
0010
,
2000
0000
3100
1000
,
0100
0000
0001
0001
,
1001
0000
0100
0000
,
0001
0000
0100
0000
,
0010
0000
1000
0000
,
0001
0000
1000
0000
,
1000
0010
0001
0010
,
1000
0000
0001
0000
,
0001
0100
1000
0100
,
0001
0000
0000
0110
,
1001
0000
0100
0000
,
0001
0000
0001
0000
,
1000
0000
0010
0000
,
0110
0000
0000
0000
,
1000
0000
0000
0010
0000
0000
1010
0000
,
0000
0000
0100
0000
,
0001
0000
1000
0000
,
0001
0000
0100
0000
,
0001
0000
1000
0000
,
0010
0000
0100
0000
,
0010
0000
1000
0000
,
0001
0000
0010
0000
,
0100
0000
0000
0001
0000
0000
0101
0000
,
0000
0000
1000
0000
,
0001
0000
1000
0000
,
0001
0000
1001
0000
;

//---------------dance-single - ----------------
#NOTES:
     dance-single:
     :
     Medium:
     9:
     0.356,0.354,0.133,0.126,0.000:
0000
0000
0000
0000
,
0000
0000
0000
0001
,
1000
0001
1000
0000
0001
0000
1000
0000
,
0001
0100
1000
0000
0001
0000
1000
0000
,
0010
0100
0010
0000
0100
0000
0001
0000
,
2000
3010
0002
0103
,
1000
0010
1000
0000
0001
0000
0100
0000
,
0010
1000
0010
0000
1000
0000
0001
0000
,
0001
0100
0001
0000
1000
0000
0010
0000
,
0002
0000
0103
0000
0020
0000
1030
0001
,
1000
0000
0010
0000
1000
0000
0000
1001
,
0001
0000
1000
0000
0001
0000
0000
0101
,
0100
0010
1000
0002
,
1003
0000
0001
0000
1000
0000
0010
1000
,
0001
0000
0100
0000
0001
0000
0100
0101
,
0001
0000
1000
0000
0010
0000
1000
1010
,
1000
0010
0100
0001
,
0000
0010
0010
0000
0100
0000
0010
0001
,
1000
0010
1000
0001
,
1000
0000
0001
0000
0101
0000
1000
0100
,
1000
0001
0100
0010
,
0101
0000
1000
0100
0010
0000
1000
0100
,
0010
0010
0100
0100
,
0001
0000
0001
0000
1001
0000
1000
0001
,
1000
0001
0100
0001
,
0101
0000
0001
0010
0100
0000
1001
0000
,
1000
0001
1000
0010
,
0100
0001
0200
0000
,
0301
0000
0001
1000
0001
0000
1000
0000
,
0001
0000
0100
0000
,
0001
0000
0000
0101
0000
0000
1001
0000
,
0001
0100
0002
0000
,
1003
0000
0010
0000
1000
0100
0001
0000
,
0100
0000
0010
0000
,
0001
1000
0010
1000
,
0001
0100
0020
0000
,
0130
0000
0010
1000
0001
0000
1000
0000
,
0001
0000
0100
0000
,
0100
0000
0000
0010
0000
0000
1010
0000
,
1000
0001
1000
0000
0001
1000
0001
0000
,
1000
0000
0001
0000
0100
0001
0100
0000
,
0002
0000
0000
1000
0003
0000
0010
0000
,
1000
0001
1000
0000
0002
0000
0103
0000
,
0010
1000
0010
1010
,
0100
0001
0010
0000
0100
0000
2000
0000
,
3001
1000
0001
0000
1000
0000
0001
0000
,
0001
1000
0001
0000
2000
0000
3010
0000
,
0100
0001
0100
0101
,
0010
1000
0100
0000
0010
0000
0002
0000
,
1003
0001
1000
0000
0001
0000
1000
0000
,
0010
1000
0001
1000
,
0010
0000
1000
0000
0001
0000
0100
0100
,
0001
1000
0010
0010
,
1000
0000
0100
0000
0001
0000
0100
1000
,
0001
0010
1000
0010
,
0001
1000
0001
1000
,
0010
0000
1000
0000
0001
1000
0010
0000
,
0000
1000
0100
0010
0002
0000
1003
0000
,
0001
1000
0001
0100
,
0010
1000
0020
0000
,
1030
0000
1000
0001
1000
0000
0001
0000
,
1000
0000
0010
0000
,
1000
0000
0000
1010
0000
0000
1001
0000
,
1000
0010
2000
0000
,
3001
0000
0100
0000
0001
0010
1000
0000
,
0010
0000
0100
0000
,
1000
0001
0100
0001
,
1000
0010
0200
0000
,
0310
0000
0100
0001
1000
0000
0001
0000
,
1000
0000
0010
0000
,
0010
0000
0000
0100
0000
0000
0101
0000
,
0001
1000
0001
0000
1000
0001
1000
0000
,
0001
0000
1000
0000
0010
1000
0010
0000
,
1000
0000
1001
0000
;

//---------------dance-single - ----------------
#NOTES:
     dance-single:
     :
     Hard:
     14:
     0.536,0.628,0.289,0.215,0.333: // measure 1
0000
0000
0000
0000
,  // measure 2
0000
0000
0000
0000
0000
0000
0000
0000
0000
0000
0000
0000
0010
0100
0000
0010
,  // measure 3
0000
0000
0200
0000
0000
0000
0000
0000
0310
0000
0000
0000
1000
0010
0000
1000
,  // measure 4
0000
0001
0000
0100
0000
0001
0000
0100
0000
0010
0000
1000
0000
0100
0000
1000
,  // measure 5
0000
0000
0002
0000
0000
0000
0000
0000
1003
0000
0000
0000
0010
1000
0000
0001
,  // measure 6
0000
0000
1000
0000
0000
0000
0010
0100
0000
0000
0010
0000
0100
0010
0000
0100
,  // measure 7
0000
0000
0020
0000
0000
0000
0000
0000
0130
0000
0000
0000
0001
0100
0000
0001
,  // measure 8
0000
1000
0000
0010
0000
1000
0000
0010
0000
0100
0000
0001
0000
0010
0000
0001
,  // measure 9
0000
0000
2000
0000
0000
0000
0000
0000
3001
0000
0000
0000
0100
0001
0000
1000
,  // measure 10
0000
0000
0001
0000
0000
0000
0100
0010
0000
0000
0100
0000
0001
0000
1000
0000
,  // measure 11
1000
0010
0000
0010
1000
0000
0001
0100
0000
0100
0001
0000
0010
0000
0101
0000
,  // measure 12
0010
0100
0000
0100
0010
0000
1000
0001
0000
0001
1000
0000
0010
0000
1010
0000
,  // measure 13
0100
0010
0000
0010
1000
0000
1000
0001
0000
0001
0100
0000
0020
0000
0000
0000
,  // measure 14
0130
0000
0010
0100
0000
0100
0010
0000
1000
0000
0001
0100
0010
0100
0001
0100
,  // measure 15
0010
1000
0000
0001
0100
0000
0100
0010
0000
0010
1000
0000
0010
0000
1010
0000
,  // measure 16
0010
0100
0000
0100
0001
0000
0001
0010
0000
0010
0001
0000
1000
0000
1001
0000
,  // measure 17
1000
0100
0000
0010
0001
0000
0001
0010
0000
0100
1000
0000
1001
0000
0000
0000
,  // measure 18
0000
0000
0010
0000
1010
0000
0000
0000
0010
0000
1000
0000
0001
1000
0100
1000
,  // measure 19
0001
0011
0001
1001
,  // measure 20
1000
0000
0000
0000
2100
0000
0000
0000
3010
0000
1000
0000
0001
1000
0010
1000
,  // measure 21
0001
1001
0100
2000
,  // measure 22
3001
0000
0001
1000
0001
1000
0010
0000
0100
0000
0001
0000
1000
0001
0010
0001
,  // measure 23
1000
1100
1000
1001
,  // measure 24
0001
0000
0000
0000
0012
0000
0000
0000
0103
0000
0001
0000
1000
0001
0100
0001
,  // measure 25
1000
1001
0010
0002
,  // measure 26
1003
0000
1000
0001
1000
0001
0100
0000
0001
0000
0000
0000
2002
0000
3003
0000
,  // measure 27
1000
0010
0100
0010
1000
0000
0000
0100
,  // measure 28
1000
0010
1000
0001
2000
0000
0000
0000
,  // measure 29
3010
0000
0100
0000
0010
1000
0001
0000
,  // measure 30
0101
0000
0010
0000
,  // measure 31
0110
0000
0000
1001
0000
0000
0110
0000
,  // measure 32
0001
1000
0010
1000
0002
0000
0000
0000
,  // measure 33
0103
0000
0001
1000
0010
1000
0001
0000
,  // measure 34
1001
0000
0110
0000
,  // measure 35
1000
0100
0010
0001
1000
0000
0010
0000
,  // measure 36
0001
0010
0100
1000
0002
0000
0000
0000
,  // measure 37
0103
0000
0010
0000
0001
0100
0001
0000
,  // measure 38
1010
0000
0010
0000
,  // measure 39
1001
0000
0000
0110
0000
0000
1001
0000
,  // measure 40
1000
0010
1000
0010
1000
0001
0100
0000
,  // measure 41
0000
0010
0100
0001
1000
0010
1000
0000
,  // measure 42
0100
0000
0000
0100
0000
0000
0100
0000
,  // measure 43
1000
0010
0100
0001
0020
0000
0000
0000
0130
0000
0010
1000
0001
0000
0100
0000
,  // measure 44
0001
0000
0000
1000
0000
0000
0001
0000
1000
0000
0000
0000
1001
0000
0000
0000
,  // measure 45
0001
0100
0010
1000
0002
0000
0000
0000
0103
0000
1000
0010
2000
0000
0000
0000
,  // measure 46
3001
0100
0001
0000
0100
0000
0000
0000
0020
0000
0000
0000
0130
0000
0000
0000
,  // measure 47
0001
0100
0010
1000
0200
0000
0000
0000
0310
0000
0100
0001
1000
0000
0010
0000
,  // measure 48
1000
0000
0000
0001
0000
0000
1000
0000
0001
0000
0000
0000
1001
0000
0000
0000
,  // measure 49
1000
0010
0100
0001
2000
0000
0000
0000
3010
0000
0001
0100
0002
0000
0000
0000
,  // measure 50
1003
0010
1000
0000
0010
0000
0000
0000
0200
0000
0000
0000
0320
0000
0000
0000
,  // measure 51
1030
0001
1000
0010
1000
0000
0010
0000
,  // measure 52
1000
0100
0010
0001
1000
0000
0001
0000
,  // measure 53
0001
0100
1000
0100
0001
0000
0010
0000
,  // measure 54
1000
0000
0010
0000
0001
0000
0010
0000
1000
0010
1000
0000
0001
0100
0001
0000
,  // measure 55
0001
0010
0100
1000
0010
1000
0010
0000
,  // measure 56
1000
0001
0100
0001
0010
0001
0100
0000
,  // measure 57
0001
1000
0100
1000
0010
1000
1001
0000
,  // measure 58
0000
0000
0010
0000
0001
0000
0100
0000
1000
0000
1000
0001
2000
0000
3000
0000
,  // measure 59
0001
0100
0010
0100
0001
0000
0000
1000
,  // measure 60
0010
0100
0001
1000
0002
0000
0000
0000
,  // measure 61
0103
0000
0010
0000
0100
0001
1000
0000
,  // measure 62
1010
0000
0100
0000
,  // measure 63
0110
0000
0000
1001
0000
0000
0110
0000
,  // measure 64
1000
0001
0100
0001
2000
0000
0000
0000
,  // measure 65
3010
0000
1000
0001
0100
0001
1000
0000
,  // measure 66
1001
0000
0110
0000
,  // measure 67
0001
0010
0100
1000
0001
0000
0100
0000
,  // measure 68
1000
0100
0010
0001
2000
0000
0000
0000
,  // measure 69
3010
0000
0100
0000
1000
0010
1000
0000
,  // measure 70
0101
0000
0100
0000
,  // measure 71
1001
0000
0000
0110
0000
0000
1001
0000
,  // measure 72
0001
0100
0001
0100
0001
1000
0010
0000
,  // measure 73
0000
0100
0010
1000
0001
0100
0001
0000
,  // measure 74
0010
0000
0220
0330
;
