#TITLE:ME! (feat. Brendon Urie of Panic! At the Disco);
#SUBTITLE:;
#ARTIST:Taylor Swift;
#TITLETRANSLIT:;
#SUBTITLETRANSLIT:;
#ARTISTTRANSLIT:;
#CREDIT:;
#BANNER:ME! (feat. Brendon Urie of Panic! At the Disco).png;
#BACKGROUND:ME! (feat. Brendon Urie of Panic! At the Disco)-bg.png;
#LYRICSPATH:;
#CDTITLE:;
#MUSIC:ME! (feat. Brendon Urie of Panic! At the Disco).mp3;
#OFFSET:-0.900;
#SAMPLESTART:81.940;
#SAMPLELENGTH:15.000;
#SELECTABLE:YES;
#BPMS:0.000=91.000;
#STOPS:;
#BGCHANGES:;

//---------------dance-single - ----------------
#NOTES:
     dance-single:
     :
     Easy:
     4:
     0.194,0.213,0.086,0.072,0.000:
0000
0000
0000
0000
,
0000
0010
0100
0010
,
0110
0001
1000
0010
,
1001
0001
0010
0100
,
0101
1000
0100
0010
,
0000
0100
0010
0100
,
0110
1000
0001
0100
,
1001
1000
0100
0010
,
1010
0001
0010
0100
,
0000
0001
0000
1000
,
0000
0010
0000
0100
,
0000
0001
0000
1000
,
0000
0000
0001
0000
0000
0000
0100
0010
,
0200
0000
0000
0000
0300
0010
0100
0020
,
0000
0000
0030
0000
,
0100
0010
0100
0000
,
0010
0000
1000
0000
0001
1000
0010
2000
,
0000
0000
0000
0000
3000
0001
1000
0002
,
0000
0000
0003
0000
,
0001
0100
0010
0000
,
0100
0010
0100
0000
,
1000
0100
0010
0001
,
0101
0001
0100
1000
,
1010
0010
0100
0010
,
1000
0001
0100
0010
,
0100
0001
1000
0110
,
0100
0010
0100
0010
,
0001
1000
0010
0100
,
0001
1000
0010
0100
,
0010
1000
0001
0100
,
0001
0000
0100
0000
0010
0000
0010
0100
,
0020
0000
0000
0000
0030
0100
0010
0200
,
0000
0000
0300
0000
,
0010
0100
0010
0000
,
0100
0000
0001
0000
1000
0001
0100
0002
,
0000
0000
0000
0000
0003
1000
0001
2000
,
0000
0000
3000
0000
,
1000
0010
0100
0000
,
0010
0100
0010
0100
,
0001
0010
0100
1000
,
1010
0100
0010
0100
,
0001
1000
0010
1000
,
0001
0100
0001
1000
,
0010
0100
0010
1000
,
1010
0010
0100
0001
,
0100
0001
1000
0010
,
0100
0001
1000
0010
,
1000
1000
0010
0100
,
1000
0000
0001
0000
0100
0000
0010
0100
,
0220
0000
0330
0000
;

//---------------dance-single - ----------------
#NOTES:
     dance-single:
     :
     Beginner:
     2:
     0.132,0.142,0.043,0.014,0.000:
0000
0000
0000
0000
,
0000
0010
0000
0100
,
0000
0010
0000
1000
,
0000
0001
0000
1000
,
0000
0001
0000
0100
,
0000
0001
0000
1000
,
0000
0010
0000
0100
,
0000
0010
0000
0100
,
0000
0001
0000
0001
,
0000
0010
0010
0010
,
0000
1000
1000
1000
,
0000
0001
0001
0001
,
0000
0100
0100
0100
,
0110
0010
0000
0100
,
0000
0001
0000
1000
,
0000
0010
0000
0100
,
0000
0010
0000
0100
,
0000
0001
0000
0001
,
0000
1000
0000
0001
,
0000
1000
0000
0010
,
0000
0100
0000
0001
,
1000
0001
1000
0001
,
1001
1000
0000
0010
,
0000
0100
0000
0010
,
0000
1000
0000
0010
,
0000
0100
0000
0101
,
0000
0100
0000
0010
,
0000
1000
0000
1000
,
0000
0010
0000
0100
,
0000
0010
0000
1000
,
0010
1000
0010
1000
,
1010
0100
0000
0010
,
0000
1000
0000
0001
,
0000
0100
0000
0010
,
0000
0100
0000
0010
,
0000
1000
0000
1000
,
0000
0001
0000
1000
,
0000
0001
0000
0100
,
0000
0010
0000
1000
,
0001
1000
0001
1000
,
1001
0001
0010
0100
,
0000
1000
0010
1000
,
0000
0001
0100
0010
,
0000
0001
0001
0010
,
0000
0100
0100
0010
,
0000
1000
0010
0100
,
0000
1000
0001
1000
,
0000
0010
0100
0010
,
1000
0001
1000
0001
,
2002
0000
3003
0000
;

//---------------dance-single - ----------------
#NOTES:
     dance-single:
     :
     Medium:
     7:
     0.254,0.302,0.137,0.115,0.000:
0000
0000
0000
0000
,
0000
0000
0001
0100
0010
1000
0010
0100
,
0001
0000
0100
0010
0100
0010
1000
0001
,
1000
0000
0001
0100
0010
0100
0001
0010
,
0001
0100
0010
0100
,
0010
0000
1000
0010
0100
0001
0100
0010
,
1000
0000
0010
0100
0010
0100
0001
1000
,
0001
0000
1000
0010
0100
0010
1000
0100
,
1000
0010
0100
0010
,
0100
0101
0010
1010
,
0010
0110
0100
1001
,
0001
0101
0010
0011
,
1000
0010
0001
0010
1000
0010
1001
0110
,
2002
0000
0000
0000
3003
0001
1000
0002
,
0000
0200
0000
0303
0000
0000
0000
0000
,
0010
0100
0001
1000
,
1010
0000
0100
0000
0010
0100
0010
2000
,
0000
0000
0000
0000
3000
1000
0010
0002
,
0000
2000
0000
3003
0000
0000
0001
0000
,
0100
0010
1000
0010
,
0100
0001
1000
0010
,
1000
0000
0001
0000
0100
0000
0001
1000
,
1001
0010
0000
0100
,
0000
0010
0000
1000
,
0000
0001
0000
0100
,
0000
0010
0000
0110
,
0000
0001
0000
1000
,
0001
0100
0010
1000
,
0010
0100
0010
0100
,
0001
0100
0001
1010
,
0001
0100
1000
0100
0001
0100
1001
0110
,
2002
0000
0000
0000
3003
1000
0001
2000
,
0000
0020
0000
3030
0000
0000
0000
0000
,
0100
0010
1000
0001
,
0101
0000
0010
0000
0100
0010
0100
0002
,
0000
0000
0000
0000
0003
0001
0100
2000
,
0000
0002
0000
3003
0000
0000
1000
0000
,
0010
0100
0001
0100
,
0010
1000
0001
0100
,
0001
0000
1000
0000
0010
0000
1000
0001
,
1001
0000
0010
0000
0001
0100
0100
0000
,
0010
0000
0100
0000
1000
0010
0001
0000
,
0100
0000
0001
0000
1000
0100
0010
0000
,
0100
0000
0010
0000
1000
0100
0010
0000
,
1000
0000
0001
0000
0100
0010
0001
0000
,
1000
0000
0010
0000
0100
0010
0100
0000
,
0010
0000
0100
0000
0001
0100
1000
0000
,
0001
0000
1000
0000
0010
0100
0100
0000
,
0010
0000
1000
0000
0001
0000
1000
0001
,
2002
0000
3003
0000
;

//---------------dance-single - ----------------
#NOTES:
     dance-single:
     :
     Hard:
     13:
     0.428,0.440,0.172,0.101,0.295: // measure 1
0000
0000
0000
0000
,  // measure 2
0000
0000
0010
0100
0010
1000
0010
0100
,  // measure 3
1010
0000
0001
0100
0010
0100
0001
0100
,  // measure 4
0101
0000
0001
0100
1000
0100
0001
0100
,  // measure 5
0110
0000
1000
0001
0100
0010
1000
0010
,  // measure 6
0000
0000
0100
0010
0100
0001
0100
0010
,  // measure 7
0101
0000
1000
0010
0100
0010
1000
0010
,  // measure 8
1010
0000
1000
0010
0001
0010
1000
0010
,  // measure 9
0110
0000
0001
1000
0010
0100
0001
0100
,  // measure 10
0001
0100
0010
0000
0100
0000
0001
1000
0000
0010
0000
1000
0010
1000
0000
0000
,  // measure 11
1000
0010
0100
0000
0010
0000
0100
0010
0000
1000
0000
0001
0100
0001
0000
0000
,  // measure 12
0010
1000
0100
0000
0010
0000
0001
0100
0000
0010
0000
1000
0001
0100
0000
0000
,  // measure 13
1000
0100
0010
0001
0010
0100
1000
0001
1000
0001
1000
0000
0110
0000
1001
0000
,  // measure 14
0220
0000
0000
0000
0330
0010
1000
0002
,  // measure 15
0000
0200
0000
0303
0000
0010
0100
1000
,  // measure 16
1000
0010
1000
0001
0100
0001
0010
0000
0000
0000
0010
0000
0100
0000
0010
0000
,  // measure 17
0100
0001
0100
0010
1000
0100
0010
0000
0000
0000
0010
0000
0100
0000
0020
0000
,  // measure 18
0000
0000
0130
0000
0000
0010
0001
2000
,  // measure 19
0000
0200
0000
3300
0000
1000
0010
1000
,  // measure 20
0010
1000
0100
1000
0001
0100
0010
0000
0000
0000
0001
0000
1000
0000
0001
0000
,  // measure 21
0100
0001
1000
0010
0100
0010
1000
0000
0000
0000
0000
0000
0000
0000
0001
0010
,  // measure 22
0100
1000
0010
1000
0100
0010
0001
1000
0001
1000
0010
0000
0010
0000
0110
0000
,  // measure 23
1001
0010
0100
0110
,  // measure 24
0010
0100
1000
0000
0010
0100
0001
0000
,  // measure 25
1000
0001
1000
0000
0001
0100
0010
0000
,  // measure 26
0100
0010
1000
0000
0100
0001
1000
0000
,  // measure 27
0001
1000
0001
0010
0100
0010
0110
0000
,  // measure 28
0010
1000
0100
0000
0010
0100
0001
0000
,  // measure 29
1000
0010
0100
0000
0001
0100
0010
0000
,  // measure 30
0100
0010
0100
0000
1000
0100
0010
0000
,  // measure 31
0001
0010
0100
1000
0100
0010
0001
1000
0001
1000
0001
0000
0110
0000
1001
0000
,  // measure 32
0220
0000
0000
0000
0330
0100
0001
2000
,  // measure 33
0000
0020
0000
3030
0000
0100
0010
0001
,  // measure 34
0001
0100
0001
1000
0010
1000
0100
0000
0000
0000
0100
0000
0010
0000
0100
0000
,  // measure 35
0010
1000
0010
0100
0001
0010
0100
0000
0000
0000
0100
0000
0010
0000
0200
0000
,  // measure 36
0000
0000
0310
0000
0000
0100
1000
0002
,  // measure 37
0000
0020
0000
0033
0000
0001
0100
0001
,  // measure 38
0100
0001
0010
0001
1000
0010
0100
0000
0000
0000
1000
0000
0001
0000
1000
0000
,  // measure 39
0010
1000
0001
0100
0010
0100
0001
0000
0000
0000
0000
0000
0000
0000
1000
0100
,  // measure 40
0010
0001
0100
0001
0010
0100
1000
0001
1000
0001
0100
0000
0100
0000
0110
0000
,  // measure 41
1001
0000
0010
0000
0001
0000
0100
0010
0000
0000
0100
0000
1001
0000
0000
0000
,  // measure 42
1000
0000
0010
0000
0100
0000
0010
0100
0000
0000
0010
0000
0110
0000
0000
0000
,  // measure 43
1000
0010
0100
0010
1000
0001
0100
0000
0001
0000
0100
0000
0001
0000
0100
0000
,  // measure 44
0001
0100
0010
1000
0010
0100
0001
0000
1000
0000
0010
0000
0100
0000
0010
0000
,  // measure 45
1001
0000
0100
0000
1000
0000
0010
0100
0000
0000
0010
0000
1001
0000
0000
0000
,  // measure 46
0001
0000
0100
0000
0010
0000
0100
0010
0000
0000
0100
0000
0110
0000
0000
0000
,  // measure 47
0001
0100
0010
0100
0001
1000
0010
0000
1000
0000
0010
0000
1000
0000
0010
0000
,  // measure 48
1000
0010
0100
0001
0100
0010
1000
0000
0001
0000
0100
0000
0010
0000
1000
0000
,  // measure 49
0001
0100
0010
1000
0010
0100
0001
1000
0010
0100
0001
0000
0010
0000
1000
0000
,  // measure 50
1001
0000
0000
0000
;
