#TITLE:MANIAC;
#SUBTITLE:;
#ARTIST:Stray Kids;
#TITLETRANSLIT:;
#SUBTITLETRANSLIT:;
#ARTISTTRANSLIT:;
#CREDIT:;
#BANNER:MANIAC.png;
#BACKGROUND:MANIAC-bg.png;
#LYRICSPATH:;
#CDTITLE:;
#MUSIC:MANIAC.mp3;
#OFFSET:-0.340;
#SAMPLESTART:53.660;
#SAMPLELENGTH:15.000;
#SELECTABLE:YES;
#BPMS:0.000=90.000;
#STOPS:;
#BGCHANGES:-0.840=MANIAC.avi=1.000=0=0=0,
99999=-nosongbg-=1.000=0=0=0 // don't automatically add -songbackground-
;

//---------------dance-single - ----------------
#NOTES:
     dance-single:
     :
     Easy:
     3:
     0.173,0.254,0.107,0.098,0.000:
0000
0000
0000
0000
,
0000
0000
0000
0000
,
0000
0000
0000
0000
,
0000
0000
0000
0000
,
1000
0100
0010
0001
,
0100
0001
1000
0010
,
0100
0001
0100
0001
,
0010
0100
0001
0100
,
1000
0010
0100
0001
,
0100
0010
1000
0010
,
0100
0001
1000
0001
,
0010
0001
0100
0010
,
1001
0010
0101
1000
,
1010
0001
0011
0010
,
1010
0100
0110
0010
,
1001
0100
0101
0010
,
2010
3000
0010
0100
,
0201
0300
1000
0001
,
0012
0003
1000
0010
,
1000
0000
2000
0000
,
3010
1000
0000
0001
,
0010
0100
0000
0010
,
0100
1000
0000
1000
,
0010
0001
0000
0001
,
0100
0010
0000
1000
,
0010
0001
0000
0100
,
0001
1000
0000
0010
,
1000
0001
0000
0100
,
0020
0000
1030
0000
,
0200
0000
0310
0000
,
0020
0000
0130
0000
,
0002
0000
0013
1001
,
0000
0010
0010
0010
,
0000
1000
1000
1000
,
0000
0001
0001
0001
,
0002
0000
0203
0000
,
0301
0000
1000
0000
,
0010
0000
0100
0000
,
0001
0000
1000
0000
,
1000
0000
0010
0000
,
0100
0001
0000
1000
,
0100
0010
0000
0100
,
0010
0001
0000
0001
,
0100
1000
0000
2002
,
0000
3003
0000
0000
;

//---------------dance-single - ----------------
#NOTES:
     dance-single:
     :
     Beginner:
     1:
     0.116,0.127,0.057,0.049,0.000:
0000
0000
0000
0000
,
0000
0000
0000
0000
,
0000
0000
0000
0000
,
0000
0000
0000
0000
,
0000
0001
0000
0001
,
0000
0001
0000
0010
,
0000
1000
0000
0100
,
0000
1000
0000
0010
,
0000
1000
1000
1000
,
0000
0001
0001
0001
,
0000
0010
0010
0010
,
0000
0100
0100
0100
,
0000
0010
0000
1000
,
0000
0001
0000
0100
,
0000
0010
0000
0001
,
0000
0010
0000
1001
,
0110
0000
0010
0000
,
1000
0000
0010
0000
,
0100
0000
0010
0000
,
1000
0000
2002
0000
,
3003
1001
0000
0010
,
0000
1000
0000
0001
,
0000
0100
0000
0010
,
0000
1000
0000
0010
,
0000
0100
0000
0001
,
0000
0010
0000
0100
,
0000
1000
0000
0010
,
0000
0100
0000
0010
,
0010
0000
1000
0000
,
0001
0000
0010
0000
,
0001
0000
1000
0000
,
0010
0000
1000
0000
,
0010
0010
0000
1000
,
1000
1000
0000
0001
,
0001
0001
0000
0100
,
0200
0300
0200
0000
,
0300
0000
1001
0000
,
0010
0000
0100
0000
,
1000
0000
0001
0000
,
0100
0000
0001
0000
,
0000
1001
0000
0100
,
0000
0001
0000
1000
,
0000
0010
0000
0100
,
0000
0001
0000
0220
,
0000
0330
0000
0000
;

//---------------dance-single - ----------------
#NOTES:
     dance-single:
     :
     Medium:
     6:
     0.235,0.254,0.041,0.074,0.033:
0000
0000
0000
0000
,
0000
0000
0000
0000
,
0000
0000
0000
0000
,
0000
0000
0000
0000
,
1000
0000
0010
0000
0100
0010
0001
0000
,
0010
0000
0001
0000
0001
0100
0010
0000
,
0100
0000
0010
0000
0100
0010
1000
0000
,
1000
0000
0001
0000
0100
0001
1000
0000
,
0001
0000
0100
0000
0010
0100
1000
0000
,
0100
0000
1000
0000
1000
0010
0100
0000
,
0010
0000
0100
0000
0010
0100
0001
0000
,
0001
0000
1000
0000
0010
1000
0001
0000
,
1000
0010
1000
0001
,
0100
0010
1000
0001
,
0100
0010
1000
0001
,
0100
0000
0010
0000
0100
0000
1000
0110
,
0001
0000
0100
0000
1000
0000
0001
0100
,
0001
0000
0100
0000
0010
0000
1000
0010
,
1000
0000
0010
0000
0100
0000
0001
1000
,
2002
3003
0220
0000
,
0330
0000
0010
0000
0100
0010
1000
0000
,
0010
0100
0001
0000
0100
0010
0001
0000
,
0001
1000
0100
0000
0010
0001
0100
0000
,
0010
1000
0001
0000
0100
0001
1000
0000
,
0001
0000
1000
0000
0001
1000
0100
0000
,
1000
0001
0010
0000
0001
1000
0010
0000
,
0010
0100
0001
0000
1000
0010
0001
0000
,
1000
0100
0010
0000
0001
0010
0100
0000
,
1000
0000
0000
1000
0000
0000
0000
0000
0010
0000
0000
0010
0000
0000
0000
0000
,
1000
0000
0000
1000
0000
0000
0000
0000
0001
0000
0000
0001
0000
0000
0000
0000
,
0100
0000
0000
0100
0000
0000
0000
0000
0010
0000
0000
0010
0000
0000
0000
0000
,
1000
0000
0000
1000
0000
0000
0000
0000
0001
0000
0000
0001
0000
0000
0000
0000
,
1000
0010
0100
0000
0010
0100
0001
0000
,
0010
0001
0010
0000
0100
1000
0100
0000
,
0010
0100
0001
0000
0010
0001
1000
0000
,
2002
3003
0220
0000
,
0330
0000
0010
0000
,
0010
0000
0100
0000
,
0100
0000
1000
0000
,
1000
0000
0000
0000
0010
0000
0100
0010
,
1000
0000
0100
0000
0010
0100
0001
0000
,
0100
0010
1000
0000
0010
0100
1000
0000
,
1000
0001
0010
0000
0100
1000
0010
0000
,
0100
0001
1000
0000
0010
1000
0002
0000
,
0000
0003
0000
0000
;

//---------------dance-single - ----------------
#NOTES:
     dance-single:
     :
     Hard:
     14:
     0.423,0.399,0.074,0.066,0.500: // measure 1
0000
0000
0000
0000
,  // measure 2
0000
0000
0000
0000
,  // measure 3
0001
0000
0000
1000
0000
0000
0010
0000
0010
0000
0000
0100
0000
0000
0100
0000
,  // measure 4
0010
0000
0000
0010
0000
0000
1000
0000
0001
0000
0000
0000
0000
0001
1000
0000
,  // measure 5
0010
0000
1000
0010
0000
1000
0100
0010
0100
0000
0010
0000
0001
0000
0000
0000
,  // measure 6
0001
0000
0100
0001
0000
1000
0010
0100
0010
0000
1000
0000
0010
0000
0000
0000
,  // measure 7
0100
0000
0100
0010
0000
0010
0100
0010
1000
0000
0100
0000
0001
0000
0000
0000
,  // measure 8
0001
0100
0010
1000
0001
0000
0100
0000
0000
0000
0101
0000
0010
1000
0001
0100
,  // measure 9
0010
0000
0100
0000
0001
0000
0000
0000
0000
1000
0010
0100
0010
0100
0001
0100
,  // measure 10
0010
0000
1000
0000
1000
0000
0000
0000
0000
0000
0010
0100
0010
1000
0001
0010
,  // measure 11
0200
0000
0000
0000
0310
0000
0100
0000
0000
0100
0010
0100
0001
1000
0010
1000
,  // measure 12
0001
0000
0100
1000
0001
0000
0010
0000
0001
0000
0010
0000
0100
0000
0000
0000
,  // measure 13
1000
0000
0000
0010
0000
0000
0100
0000
0010
0000
0000
0100
0000
0000
0010
0000
,  // measure 14
0001
0000
0000
0100
0000
0000
0001
0000
0010
0000
0000
0100
0000
0000
1000
0000
,  // measure 15
0001
0000
0000
0100
0000
0000
0010
0000
0100
0000
0000
0010
0000
0000
0100
0000
,  // measure 16
1000
0000
0000
0010
0000
0000
1000
0000
0100
0000
0000
0000
0110
0000
1001
0000
,  // measure 17
0110
0000
0000
0000
1000
0010
1000
0000
0010
0100
0001
0000
0100
0000
0010
0000
,  // measure 18
1001
0000
0000
0000
0010
0100
0010
0000
0100
0010
0100
0000
0001
0000
1000
0000
,  // measure 19
1010
0000
0000
0000
0100
0010
1000
0000
0100
0000
0000
0000
0001
0000
1000
0000
,  // measure 20
0200
0000
0300
0000
2020
0000
0000
0030
,  // measure 21
3010
1000
0001
0000
0100
0000
0010
0100
0001
0000
0100
0010
1000
0000
0001
0000
,  // measure 22
0100
0001
1000
0000
0010
0000
0010
0000
0000
0000
0001
0000
0010
0001
1000
0100
,  // measure 23
0010
0001
0100
0000
0010
0000
1000
0010
0100
0000
0001
0100
0010
0000
1000
0000
,  // measure 24
0001
1000
0001
0000
0000
0000
1000
0001
1000
0000
0000
0000
0010
0000
0010
0000
,  // measure 25
0010
1000
0100
0000
0001
0000
0010
0001
0100
0000
0001
1000
0010
0000
0100
0000
,  // measure 26
0001
0010
0100
0000
0010
0000
0010
0000
0000
0000
0100
0000
0010
0100
0001
1000
,  // measure 27
0010
0100
0001
0000
0010
0000
1000
0010
0100
0000
0010
0100
0001
0000
1000
0000
,  // measure 28
0100
1000
0100
0000
0000
0000
1000
0100
1000
0000
0000
0000
1001
0000
0000
0000
,  // measure 29
0000
0000
1000
0010
0000
1000
0000
0010
0000
0001
0000
0100
0000
0001
0000
0100
,  // measure 30
0000
0010
0000
0000
0001
1000
0000
0010
0000
0100
0000
0001
0000
0100
0000
1000
,  // measure 31
0000
0010
0000
0000
0100
0010
0000
1000
0000
0001
0000
0100
0000
0001
0000
0010
,  // measure 32
0000
0100
0000
1000
0000
0010
0000
0100
0000
0001
0000
1000
0000
0001
0000
0000
,  // measure 33
1000
0000
0010
0000
0100
0000
0010
0100
0000
0010
0000
1000
0000
0000
1000
0100
,  // measure 34
0010
0000
0100
0010
0000
0100
0000
0001
0000
0000
0000
0000
0001
0100
0010
0000
,  // measure 35
0000
0000
0010
0000
0001
0000
0010
0001
0000
0100
0000
0000
0010
0000
0020
0000
,  // measure 36
0000
0030
2000
0000
,  // measure 37
3001
1000
0001
0000
0000
0000
0000
0000
0100
0000
0000
0000
0000
0000
0000
0000
,  // measure 38
0010
1000
0001
0000
0000
0010
0000
0100
0010
0000
1000
0000
0010
0000
0001
0000
,  // measure 39
0100
0001
1000
0000
0000
0100
0000
0010
0100
0000
0001
0000
0100
0000
1000
0000
,  // measure 40
0010
0100
0010
0000
0100
0000
0010
1000
0000
1000
0010
0000
0100
0000
0001
0000
,  // measure 41
0100
0001
1000
0000
0010
0000
0100
0010
1000
0000
0010
0100
0001
0000
1000
0000
,  // measure 42
0010
1000
0001
0000
0100
0000
0100
0000
0000
0000
1000
0000
0100
1000
0001
0010
,  // measure 43
0100
1000
0010
0000
0100
0000
0001
0100
0010
0000
1000
0010
0100
0000
0001
0000
,  // measure 44
1000
0001
1000
0000
0000
0000
0001
1000
0001
0000
0000
0000
0202
0000
0000
0000
,  // measure 45
0000
0303
0000
0000
;
