#TITLE:Lovesick Girls;
#SUBTITLE:;
#ARTIST:BLACKPINK;
#TITLETRANSLIT:;
#SUBTITLETRANSLIT:;
#ARTISTTRANSLIT:;
#CREDIT:;
#BANNER:Lovesick Girls.png;
#BACKGROUND:Lovesick Girls-bg.png;
#LYRICSPATH:;
#CDTITLE:;
#MUSIC:Lovesick Girls.mp3;
#OFFSET:-0.940;
#SAMPLESTART:54.600;
#SAMPLELENGTH:15.000;
#SELECTABLE:YES;
#BPMS:0.000=128.000;
#STOPS:;
#BGCHANGES:-2.040=Lovesick Girls.avi=1.000=0=0=0,
99999=-nosongbg-=1.000=0=0=0 // don't automatically add -songbackground-
;

//---------------dance-single - ----------------
#NOTES:
     dance-single:
     :
     Beginner:
     2:
     0.168,0.204,0.051,0.168,0.004:
0000
0000
0000
0000
,
0000
0000
0000
0000
,
0000
0000
0000
0000
,
0000
0000
0000
0000
,
0000
0000
0000
0000
,
0110
0000
0100
0000
,
0001
0000
0100
0000
,
2002
0000
3003
0000
,
0220
0000
0330
0000
,
0010
0000
1000
0000
,
0001
0000
0100
0000
,
0220
0000
0330
0000
,
2002
0000
3003
0000
,
1000
0000
0010
0000
,
0100
0000
0001
0000
,
0100
0000
0001
0000
,
1000
0000
0010
0000
,
1000
0000
0010
0000
,
0100
0000
0001
0000
,
0100
0000
0010
0000
,
0100
0000
1000
0000
,
1001
0000
1000
0000
,
0010
0000
0001
0000
,
0010
0000
1000
0000
,
0010
0000
0001
0000
,
0010
0000
0001
0000
,
0100
0000
1000
0000
,
0100
0000
0001
0000
,
0020
0000
0030
0000
,
0000
0100
0100
0100
,
0000
0010
0010
0010
,
0000
0001
0001
0001
,
0000
1000
1000
1000
,
0000
0001
0001
0001
,
0000
1000
1000
1000
,
0000
0010
0010
0010
,
0000
0100
0100
0100
,
0200
0000
0300
0000
,
0002
0000
0003
0000
,
2000
0000
3000
0000
,
0020
0000
0030
0000
,
2000
0000
3000
0000
,
0100
0100
0100
0000
,
0010
0010
0010
0000
,
0001
0001
0001
0000
,
1001
0000
0001
0000
,
0100
0000
0010
0000
,
1000
0000
0100
0000
,
1000
0000
0010
0000
,
0100
0000
0001
0000
,
0010
0000
0001
0000
,
1000
0000
1000
0000
,
0010
0000
0100
0000
,
0000
0010
0010
0010
,
0000
0100
0100
0100
,
0000
1000
1000
1000
,
0000
0001
0001
0001
,
0000
1000
1000
1000
,
0000
0001
0001
0001
,
0000
0100
0100
0100
,
0000
0010
0010
0010
,
0020
0000
0030
0000
,
2000
0000
3000
0000
,
0002
0000
0003
0000
,
0200
0000
0300
0000
,
0002
0000
0003
0000
,
0020
0000
0030
0000
,
0200
0000
0300
0000
,
2000
0000
3000
0000
,
1000
0000
0000
2000
0000
0000
0000
0000
0000
0000
0000
0000
0000
0000
0000
0000
,
3000
0000
0000
0000
;

//---------------dance-single - ----------------
#NOTES:
     dance-single:
     :
     Easy:
     4:
     0.258,0.281,0.066,0.263,0.004:
0000
0000
0000
0000
,
0000
0000
0000
0000
,
0000
0000
0000
0000
,
0000
0000
0000
0000
,
0000
0000
0000
0000
,
0220
0330
0010
1000
,
0001
0100
0001
0100
,
0002
0000
0003
0000
,
0202
0000
0303
0000
,
2020
3030
1000
0010
,
1000
0100
0010
0001
,
2000
0000
3000
0000
,
2020
0000
3030
0000
,
0100
0010
1000
0000
,
0001
0100
0010
0000
,
0100
0010
1000
0000
,
1000
0010
0001
0000
,
0100
0001
1000
0000
,
0010
0100
0001
0000
,
0001
0000
1000
0000
,
0010
0100
0020
0000
,
0130
0100
0001
0000
,
1000
0010
0100
0000
,
0010
0100
0001
0000
,
0001
0100
1000
0000
,
0010
1000
0001
0000
,
0100
0010
1000
0000
,
1000
0010
0001
0000
,
0200
0000
0300
1001
,
0110
0100
0010
1000
,
0000
0100
0010
0001
,
0000
1000
0010
1001
,
0000
0001
0100
0010
,
0000
0100
0001
1000
,
0000
0010
0001
0010
,
0000
0100
0010
0100
,
0000
0010
1000
0001
,
0002
0000
0013
0100
,
0020
0000
0130
0010
,
2000
0000
3010
0001
,
0002
0000
0103
0010
,
2000
0000
3010
0100
,
0200
0320
2030
3000
,
0001
0100
0010
0100
,
1000
0000
0001
0000
,
0002
0100
0100
0103
,
2000
0010
0010
3010
,
0020
0100
0100
0130
,
0200
0001
0001
0301
,
2000
0010
0010
3010
,
0002
0100
0100
0103
,
0200
0010
0010
0310
,
0020
1000
1000
1030
,
0110
0010
0100
0001
,
0000
0010
0100
1000
,
0000
0001
0100
1001
,
0000
1000
0010
0100
,
0000
0010
1000
0001
,
0000
0100
1000
0100
,
0000
0010
0100
0010
,
0000
0100
0001
1000
,
2000
0100
3100
0010
,
0200
0010
0310
0100
,
0002
0100
0103
1000
,
2000
0010
3010
0100
,
0002
0100
0103
0010
,
0020
0100
0130
0010
,
2000
0010
3010
0010
,
0001
0000
0000
1000
0000
0000
0010
0000
,
0010
0000
0000
0200
0000
0000
0000
0000
0000
0000
0000
0000
0000
0000
0000
0000
,
0300
0000
0000
0000
;

//---------------dance-single - ----------------
#NOTES:
     dance-single:
     :
     Medium:
     7:
     0.342,0.434,0.058,0.131,0.029:
0000
0000
0000
0000
,
0000
0000
0000
0000
,
0000
0000
0000
0000
,
0000
0000
0000
0000
,
0000
0000
0000
0000
,
0010
0000
0100
0000
0010
0000
0100
0010
,
0100
0000
0001
0100
0010
0000
0001
1000
,
0002
0000
1003
0000
,
2000
0000
3010
0000
,
0100
0000
0010
0000
0100
0000
0010
0100
,
0010
0000
1000
0010
0100
0000
1000
0001
,
2000
0000
3001
0000
,
0002
0000
0103
0000
,
0010
1000
0010
0000
1000
0000
0010
0000
,
0100
0001
1000
0000
0010
0000
0001
0000
,
0100
0010
1000
0000
0100
0010
0001
0000
,
0001
0010
1000
0000
0010
0000
0100
0000
,
0010
0000
0000
0100
0000
0000
0010
0000
0100
0000
0000
0001
0000
0000
0100
0000
,
1000
0000
0000
0010
0000
0000
1000
0000
0001
0000
0000
0100
0000
0000
1000
0000
,
0010
0000
0000
0100
0000
0000
0001
0000
1000
0000
0000
0010
0000
0000
0100
0000
,
0010
0000
0000
0100
0000
0000
0020
0000
0000
0000
0000
0000
0030
0000
0000
0000
,
0100
0000
0100
0000
0010
1000
0001
0000
,
0100
0000
0010
0000
0100
0010
0001
0000
,
1000
0000
0010
0000
0100
0001
1000
0000
,
0010
0000
0010
0000
0100
0001
1000
0000
,
0010
0000
0100
0000
0010
0100
1000
0000
,
0001
0000
0100
0000
0010
1000
0001
0000
,
0100
0000
0010
0000
0100
0010
1000
0000
,
2010
0000
3000
0010
,
1000
0010
0100
0001
,
1000
0010
0100
0100
,
0001
0000
0001
1000
0010
0000
0100
0010
,
0000
0001
0000
0110
,
0001
0100
0010
1000
,
0001
0100
0010
0010
,
1000
0000
1000
0001
0100
0000
0010
0100
,
0000
1000
0001
0110
,
0002
0000
0100
0000
0103
0010
1000
0000
,
2000
0000
0001
0000
3001
1000
0010
0000
,
0020
0000
0000
0000
0130
0010
1000
0000
,
0200
0000
0000
0000
0301
1000
0010
0000
,
2000
0000
0000
0000
3001
1000
0001
0000
,
0202
0303
2020
3030
0202
0303
0000
0000
,
0001
0000
0010
0000
0100
0000
1000
0010
,
0000
0100
0010
1000
,
0001
0000
0100
0001
1000
0000
0010
1000
,
0001
0000
0100
0010
1000
0000
0010
0100
,
0010
0000
0001
0010
0100
0000
1000
0100
,
0010
0000
0001
1000
0100
0000
1000
0001
,
1000
0000
0010
1000
0001
0000
0100
0001
,
1000
0000
0010
0100
0001
0000
0100
0010
,
0100
0000
1000
0100
0010
0000
0001
0010
,
0100
0000
1000
0000
0010
0000
0001
1000
,
0001
0100
0010
1000
,
0001
0100
0010
0010
,
1000
0000
1000
0001
0100
0000
0010
0100
,
0000
1000
0000
0110
,
1000
0010
0100
0001
,
1000
0010
0100
0100
,
0001
0000
0001
1000
0010
0000
0100
0010
,
0000
0001
1000
0110
,
1000
0100
0010
0000
0010
0100
0001
0000
,
1000
0001
1000
0000
1000
0001
0100
0000
,
0100
0010
0100
0000
0010
0100
0001
0000
,
0010
1000
0001
0000
1000
0001
0100
0000
,
0001
0010
1000
0000
1000
0001
1000
0000
,
1000
0010
0100
0000
0010
0100
0010
0000
,
1000
0001
0100
0000
0010
0100
0001
0000
,
0100
0000
0000
0010
0000
0000
1000
0000
,
0100
0000
0000
0020
0000
0000
0000
0000
0000
0000
0000
0000
0000
0000
0000
0000
,
0030
0000
0000
0000
;

//---------------dance-single - ----------------
#NOTES:
     dance-single:
     :
     Hard:
     13:
     0.469,0.562,0.036,0.146,0.215: // measure 1
0000
0000
0000
0000
,  // measure 2
0000
0000
0000
0000
,  // measure 3
0000
0000
0000
0000
,  // measure 4
0000
0000
0000
0000
,  // measure 5
0000
0000
0000
0000
0000
0001
0100
0010
,  // measure 6
0001
0000
0000
0000
0100
0000
0000
0000
0010
0000
0000
0000
1000
0010
0000
0000
,  // measure 7
0010
1000
0000
0000
0010
0100
0000
0000
0100
0010
0000
0000
0100
0001
0000
0000
,  // measure 8
0002
0000
0023
0030
,  // measure 9
0200
0000
0000
0000
2300
0100
3100
1000
,  // measure 10
0001
0000
0010
0000
0100
0000
0001
0010
,  // measure 11
0100
0000
0100
1000
0010
0000
0010
0100
,  // measure 12
2000
0000
3200
0300
,  // measure 13
0020
0000
0032
0003
,  // measure 14
1000
0100
0010
0100
1000
0001
0100
0000
0000
0110
0000
0000
,  // measure 15
0001
1000
0010
0100
0001
0100
0010
0000
0000
1010
0000
0000
,  // measure 16
0001
0100
0010
1000
0010
0100
0001
0010
0100
1000
0100
0010
,  // measure 17
0001
0100
0010
1000
0010
0100
0010
0000
0000
0100
0000
0000
,  // measure 18
0001
0000
0000
0001
0000
0000
0001
0000
0010
0000
0000
0010
0000
0000
0010
0000
,  // measure 19
0100
0000
0000
0100
0000
0000
0100
0000
1000
0000
0000
1000
0000
0000
1000
0000
,  // measure 20
0100
0000
0000
0100
0000
0000
0100
0000
0010
0000
0000
0010
0000
0000
0010
0000
,  // measure 21
0001
0000
0000
0001
0000
0000
0002
0000
0000
0000
0103
0000
0010
0000
0100
0000
,  // measure 22
1000
0000
0010
0000
1000
0010
0100
0002
,  // measure 23
0000
0000
0103
0000
0000
0000
0001
0010
0100
0000
0010
0000
1000
0000
0001
0000
,  // measure 24
0100
0000
0010
0000
0100
1000
0010
2000
,  // measure 25
0000
3010
0200
0000
0300
0100
0010
0100
,  // measure 26
1000
0000
0010
0001
0010
1000
0010
0001
,  // measure 27
0000
1000
0000
0010
0100
0001
0100
0010
,  // measure 28
1000
0000
0010
0000
0100
0010
1000
0020
,  // measure 29
0000
0000
0130
0000
0000
0001
0110
1000
,  // measure 30
0001
0000
0001
0000
1000
0010
0100
1000
,  // measure 31
0010
0000
1000
0000
0001
0000
0100
0001
0000
0000
1000
0000
0100
0000
0010
0000
,  // measure 32
0001
0000
0010
1000
0001
0000
0100
0010
,  // measure 33
1000
0000
0000
0010
0000
0000
0100
0000
0001
0000
1000
0000
0010
0000
1000
0000
,  // measure 34
0001
0000
1000
0000
0001
0100
0010
0001
,  // measure 35
0100
0000
0001
0000
1000
0000
0010
1000
0000
0000
0001
0000
0010
0000
0100
0000
,  // measure 36
1000
0000
0100
0001
1000
0000
0010
0100
,  // measure 37
0001
0000
0000
0100
0000
0000
0010
0000
0000
0000
0100
0000
0010
0000
0100
0000
,  // measure 38
0020
0000
0000
0000
1030
0010
0100
0001
,  // measure 39
2000
0000
0000
0000
3001
1000
0010
0100
,  // measure 40
0002
0000
0000
0000
0103
0010
0100
1000
,  // measure 41
0020
0000
0000
0000
0130
0001
1000
0001
,  // measure 42
0200
0000
0000
0000
0000
0000
0000
0000
0310
0000
0100
0000
0001
0000
0100
0010
,  // measure 43
0000
0100
0000
0001
0000
0100
0010
0100
,  // measure 44
1000
0000
0010
0000
0100
0000
0001
2000
,  // measure 45
0001
0000
0000
0001
0000
0000
0001
0000
3000
0000
0010
0000
1001
0000
0000
0000
,  // measure 46
0100
0000
0000
0000
0010
0100
0010
0000
0100
0010
0100
0000
0001
0000
1000
0000
,  // measure 47
0010
0000
0000
0000
1000
0010
0100
0000
0001
0100
0010
0000
0100
0000
0001
0000
,  // measure 48
1000
0000
0000
0000
1000
0100
0010
0000
0001
0010
0100
0000
1000
0000
0010
0000
,  // measure 49
0100
0001
0010
0001
0100
1000
0100
0001
,  // measure 50
0010
0000
0000
0000
0100
0010
0100
0000
0010
0100
0010
0000
1000
0000
0001
0000
,  // measure 51
0100
0000
0000
0000
0001
0100
0010
1000
0010
0000
0001
0000
0010
0000
1000
0000
,  // measure 52
0001
0000
0000
0000
0001
0010
0100
0000
1000
0100
0010
0000
0001
0000
0100
0000
,  // measure 53
0010
1000
0100
1000
0010
0001
0010
0101
,  // measure 54
1000
0010
1000
0100
0001
0100
0010
0001
,  // measure 55
0100
0000
0001
0000
1000
0000
0010
1000
0000
0000
0001
0000
0010
0000
0100
0000
,  // measure 56
1000
0010
0100
0001
1000
0100
0010
0100
,  // measure 57
0001
0000
0000
0100
0000
0000
0010
0000
1000
0000
0001
0000
0100
0000
0001
0000
,  // measure 58
1000
0010
0001
0100
1000
0010
0100
1000
,  // measure 59
0010
0000
1000
0000
0001
0000
0100
0001
0000
0000
1000
0000
0100
0000
0010
0000
,  // measure 60
0001
0100
0010
1000
0001
0010
0100
0010
,  // measure 61
1000
0000
0000
0010
0000
0000
0100
0000
0001
0000
0010
0000
0100
0000
0010
0000
,  // measure 62
0100
0000
0001
0000
1000
0000
0000
0000
0001
0000
0100
0000
0010
0000
1000
0010
,  // measure 63
1000
0000
0010
0100
0000
0001
0010
0100
,  // measure 64
1000
0000
0010
0000
0100
0000
0000
0000
0010
0000
0001
0000
1000
0000
0100
1000
,  // measure 65
0100
0000
1000
0001
0000
0010
1000
0001
,  // measure 66
0010
0000
1000
0000
0001
0000
0000
0000
1000
0000
0010
0000
0100
0000
0001
0100
,  // measure 67
0001
0000
0100
0010
0000
1000
0100
0010
,  // measure 68
0001
0100
0010
0000
0100
1000
0001
0010
,  // measure 69
0001
0000
0000
0010
0000
0000
0100
0000
,  // measure 70
1000
0000
0000
0002
0000
0000
0000
0000
0000
0000
0000
0000
0000
0000
0000
0000
,  // measure 71
0003
0000
0000
0000
;
