#TITLE:Love Cherry Motion;
#SUBTITLE:;
#ARTIST:LOONA;
#TITLETRANSLIT:;
#SUBTITLETRANSLIT:;
#ARTISTTRANSLIT:;
#CREDIT:;
#BANNER:Love Cherry Motion.png;
#BACKGROUND:Love Cherry Motion-bg.png;
#LYRICSPATH:;
#CDTITLE:;
#MUSIC:Love Cherry Motion.mp3;
#OFFSET:0.600;
#SAMPLESTART:51.300;
#SAMPLELENGTH:15.000;
#SELECTABLE:YES;
#BPMS:0.000=137.000;
#STOPS:;
#BGCHANGES:1.000=Love Cherry Motion.avi=1.000=0=0=0,
99999=-nosongbg-=1.000=0=0=0 // don't automatically add -songbackground-
;

//---------------dance-single - ----------------
#NOTES:
     dance-single:
     :
     Easy:
     5:
     0.270,0.450,0.094,0.081,0.000:
0000
0000
0000
0000
,
0000
0000
0000
0000
,
0000
0000
0000
0000
,
0000
0000
0000
0000
,
0000
0000
0000
0000
,
0000
0000
0000
0000
,
0010
0000
0000
0100
0000
0010
0000
0000
,
0000
0000
0000
0001
0000
1000
0000
0000
,
0001
0100
0010
0001
,
1000
0000
0000
0010
0000
1000
0000
0000
,
1000
0010
0100
0001
,
0010
0000
0000
0100
0000
0010
0000
0000
,
1000
0010
0100
0001
,
0100
0000
0000
0001
0000
1000
0000
0000
,
0010
1000
0001
0100
,
0001
0100
0000
0010
,
1000
0010
0100
0001
,
0100
0010
1000
0001
,
0000
1000
0010
1000
,
0000
0010
0100
0001
,
0000
0001
0010
0100
,
0000
1000
0000
0010
,
0020
0100
0100
0130
,
0020
0100
0100
0130
,
0010
0001
1000
1000
,
0010
0100
0010
1000
,
0010
0100
0001
0010
,
1000
0010
0100
0001
,
1000
0010
0100
0010
,
2000
0000
3000
1010
,
0000
0010
0100
1000
,
0000
0001
0100
0001
,
0000
0100
0001
0100
,
0010
0110
1001
0110
,
0010
1000
0000
1000
,
0010
0100
0000
0001
,
1000
0001
0000
0100
,
0010
0000
0001
0000
0000
0000
0000
0001
,
0001
0001
0000
1000
1000
1000
0000
0000
,
0010
0000
1000
0000
0001
0000
0000
1000
,
1000
1000
0000
0001
0001
0001
0000
0000
,
0100
0010
0100
0001
,
1000
0010
0001
0010
,
1000
0001
0100
0001
,
0001
0100
0001
0100
,
0010
1000
0010
1000
,
1001
0000
0010
0000
,
1000
0000
0010
0100
,
0010
0000
1000
0000
,
0001
0000
0100
0010
,
0110
0000
0010
0000
,
1000
0000
0001
1000
,
0010
0000
0001
0000
,
0100
0000
0100
0010
,
0101
0000
0001
0000
,
0100
0010
1000
0010
,
0001
0000
1000
0000
,
0001
0100
0010
0001
,
0100
0000
0010
0000
,
0100
0010
0100
0001
,
1000
0000
0010
0000
,
2000
0010
3010
0000
,
0110
0000
0000
0010
,
0010
0000
0000
0000
,
0002
0000
0003
0000
,
2000
0000
3000
0000
,
0000
0100
0010
0001
,
0000
1000
0010
1000
,
0000
0010
1000
0010
,
0100
0110
1001
0110
,
0100
0001
0000
0001
,
0100
0010
0000
1000
,
0001
1000
0000
0010
,
0100
0000
1000
0000
0000
0000
0000
1000
,
1000
1000
0000
0001
0001
0001
0000
0000
,
0100
0000
0001
0000
1000
0000
0000
0001
,
0001
0001
0000
1000
1000
1000
0000
0000
,
0010
0100
0010
1000
,
0001
0100
1000
0100
,
0001
1000
0010
1000
,
1000
0010
1000
0010
,
0100
0001
0100
0001
,
2002
0000
3003
0220
0000
0330
2002
0000
,
3003
0010
0010
0000
0100
0010
0000
0000
;

//---------------dance-single - ----------------
#NOTES:
     dance-single:
     :
     Beginner:
     3:
     0.198,0.282,0.101,0.101,0.000:
0000
0000
0000
0000
,
0000
0000
0000
0000
,
0000
0000
0000
0000
,
0000
0000
0000
0000
,
0000
0000
0000
0000
,
0000
0000
0000
0000
,
0000
0010
0000
1000
,
0000
0001
0000
1000
,
0000
0010
0000
1000
,
0000
0010
0000
0100
,
0000
0010
0000
1000
,
0000
0001
0000
0100
,
0000
0001
0000
0010
,
0000
0001
0000
1000
,
0000
1000
1000
1000
,
0000
0010
0000
0100
,
0000
0001
0001
0001
,
0000
1000
0000
0010
,
0000
0100
0000
0010
,
0000
1000
0000
0001
,
0000
0100
0000
0001
,
0000
1000
0000
0010
,
0020
0000
0030
0010
,
0020
0000
0030
0000
,
0110
0000
1000
0000
,
0001
0000
0100
0000
,
0002
0000
0003
0001
,
0002
0000
0003
0000
,
0100
0000
0001
0000
,
1000
0000
0000
1001
,
0000
0001
1000
0001
,
0000
0100
0010
0100
,
0000
0010
0100
0010
,
0000
1000
0100
1000
,
0000
0001
0100
0001
,
0000
0100
0001
0100
,
0000
0010
0100
0010
,
0000
1000
0000
0010
,
0000
0110
0000
1001
,
0000
0010
0010
0010
,
0000
1001
0000
0110
,
0000
0100
0100
0100
,
0000
0010
0000
1000
,
0000
0001
0000
0100
,
0000
0001
0000
1000
,
2000
0000
3000
1000
,
0000
0000
1000
0000
,
0010
0000
0010
0000
,
0100
0000
0001
0000
,
1000
0000
0010
0000
,
1000
0000
0001
0000
,
0100
0000
0001
0000
,
1000
0000
0010
0000
,
1000
0000
0010
0000
,
1000
1000
1000
0000
,
0100
0100
0100
0000
,
0010
0010
0010
0000
,
0001
0001
0001
0000
,
0010
0010
0010
0000
,
0001
0001
0001
0000
,
1000
1000
1000
0000
,
1001
0110
1001
0000
,
0020
0000
0030
0000
,
0200
0000
0300
0000
,
0002
0000
0003
0000
,
2000
0000
3000
0000
,
0000
1000
0001
1000
,
0000
0010
0100
0010
,
0000
0100
0010
0100
,
0000
0001
0010
0001
,
0000
1000
0010
1000
,
0000
0010
1000
0010
,
0000
0100
0010
0100
,
0000
0001
0000
0100
,
0000
0110
0000
1001
,
0000
0100
0100
0100
,
0000
1001
0000
0110
,
0000
0010
0010
0010
,
0000
0100
0000
0001
,
0000
1000
0000
0010
,
0000
1000
0000
0001
,
0002
0000
0003
0001
,
0002
0003
0000
2002
,
3003
0000
0220
0330
;

//---------------dance-single - ----------------
#NOTES:
     dance-single:
     :
     Medium:
     8:
     0.310,0.366,0.020,0.074,0.000:
0000
0000
0000
0000
,
0000
0000
0000
0000
,
0000
0000
0000
0000
,
0000
0000
0000
0000
,
0002
2000
0000
0000
3003
0000
0200
0020
,
0000
0000
0330
0000
0000
0000
0010
0100
,
0001
0000
0000
1000
0000
0001
0000
0000
,
0100
0000
0000
0010
0000
0010
0000
0000
,
0100
0000
0010
1000
0010
0000
0100
0000
,
0001
0000
0000
0001
0000
0010
0000
0001
,
1000
0000
0000
0001
0000
1000
0000
0000
,
0010
0000
0000
0100
0000
0100
0000
0000
,
0010
0000
0100
0001
0100
0000
0010
0000
,
1000
0000
0000
1000
0000
0100
0000
1000
,
0001
0000
0100
0010
0001
0000
0100
0010
,
0000
0100
0010
1000
0000
0000
0010
0000
,
1000
0000
0010
0100
1000
0000
0010
0100
,
0000
0010
0100
0001
0000
0100
0010
0100
,
0010
0000
0000
1000
0000
0001
0000
0000
,
0100
0000
0000
0001
0000
0010
0000
0000
,
0001
0000
0001
0010
0100
0000
0010
0000
,
1000
0000
0000
0010
0000
1000
0000
1000
,
0010
0010
0010
0010
,
1000
1000
1000
1000
,
0001
0001
0001
0001
,
0100
0100
0100
0100
,
0010
1000
0001
0100
,
0001
1000
0010
0100
,
0001
0100
0010
1000
,
0010
0100
0010
1001
,
0010
0000
0100
0000
0010
0100
0000
0010
,
0000
1000
0010
1000
0000
0000
0000
0010
,
0000
0000
0100
0010
0000
1000
0000
0001
,
0100
0001
0010
0100
,
1000
0000
1000
0000
0001
1000
0000
0001
,
0000
0010
0001
0010
0000
0001
1000
0001
,
0000
0000
1000
0001
0000
0010
0000
0100
,
0000
0000
0100
0000
0001
0000
0100
0010
,
0100
0010
0000
1000
0100
1000
0000
0001
,
0000
0001
0010
0100
0000
0000
0000
0010
,
0001
0010
0000
0100
1000
0100
0000
1000
,
0000
0010
1000
0010
0000
0000
0000
0000
,
0100
0000
0010
0000
0100
0010
0000
1000
,
0000
0001
1000
0001
0000
0000
0010
0000
,
0100
0001
0010
0100
,
1000
0001
1000
0110
,
0001
0000
0000
0010
0000
0000
0001
0000
,
0000
0000
1000
0000
0000
0000
0100
0010
,
1000
0000
0000
0100
0000
0000
0010
0000
,
0000
0000
0100
0000
0000
0000
0001
0010
,
1000
0000
0000
0100
0000
0000
1000
0000
,
0000
0000
0001
0000
0000
0000
0010
0100
,
0001
0000
0000
0010
0000
0000
0100
0000
,
0000
0000
0010
0000
0000
0000
1000
0100
,
0001
0000
0000
0010
0000
0000
0001
0000
,
0000
0000
0100
0000
0000
0000
1000
0010
,
0100
0000
0000
1000
0000
0000
0010
0000
,
0000
0000
1000
0000
0000
0000
0001
0010
,
0100
0000
0000
1000
0000
0000
0100
0000
,
0000
0000
0001
0000
0000
0000
0010
1000
,
0001
0000
0000
0010
0000
0000
1000
0000
,
0000
0010
0000
0100
,
0200
0000
0300
0001
,
0002
0000
0003
0000
,
2000
0000
0000
0000
0000
0000
0000
0002
,
0000
0000
0000
3003
,
0100
0000
0010
0000
0100
0010
0000
0100
,
0000
0001
0100
0001
0000
0000
0000
0100
,
0000
0000
0010
0100
0000
0001
0000
1000
,
0000
1000
0100
0010
,
0001
0000
0001
0000
1000
0001
0000
1000
,
0000
0100
1000
0100
0000
0100
0001
1000
,
0000
0000
0001
1000
0000
0100
0000
0010
,
0000
0000
0010
0000
1000
0000
0010
0100
,
0010
0100
0000
0001
0010
0001
0000
1000
,
0000
1000
0100
0010
0000
0000
0000
0100
,
1000
0100
0000
0010
0001
0010
0000
0001
,
0000
0100
0001
0100
0000
0000
0000
0000
,
0010
0000
0100
0000
0010
0100
0000
0001
,
0000
1000
0001
1000
0000
0010
0100
0010
,
0000
0000
1000
0010
0000
0100
0000
0001
,
0000
1000
0001
0110
,
2000
0000
3000
0020
0000
0030
2000
0000
,
3000
1000
0001
1000
0001
1000
0000
0000
;

//---------------dance-single - ----------------
#NOTES:
     dance-single:
     :
     Hard:
     14:
     0.462,0.563,0.067,0.215,0.074: // measure 1
0000
0000
0000
0000
,  // measure 2
0000
0000
0000
0000
,  // measure 3
0001
0000
0010
0000
0100
0000
1000
0000
0000
0000
0000
0000
0000
0000
1000
0010
,  // measure 4
1000
0100
0010
0001
0000
0000
0000
0000
,  // measure 5
2000
0002
0000
0000
3003
0000
0020
0200
,  // measure 6
0000
0000
0330
0000
0000
0000
1000
0100
,  // measure 7
0010
0100
0010
0100
0010
0001
0000
0000
,  // measure 8
0000
0010
0100
0010
0001
0000
1000
0000
,  // measure 9
1000
0000
0010
0100
0010
0000
0100
0000
0010
0000
1000
0000
0001
0000
0000
0000
,  // measure 10
0100
0010
0100
0100
0000
0010
0000
1000
,  // measure 11
0100
0010
0100
0010
0100
1000
0000
0000
,  // measure 12
0000
0100
0010
0100
1000
0010
0001
0000
,  // measure 13
0010
0000
0100
0010
0100
0000
0010
0000
0100
0000
0001
0000
1000
0000
0000
0000
,  // measure 14
0010
0100
0010
0010
0000
0100
0010
0001
,  // measure 15
1000
0010
0100
0001
0010
0000
0010
0001
,  // measure 16
0000
0100
0000
0101
0000
0000
0001
0100
,  // measure 17
1000
0100
0001
1000
0010
0000
0100
0020
,  // measure 18
0000
0000
0130
0010
0000
0100
0010
0001
,  // measure 19
0000
1000
0010
0100
0001
0010
0000
0000
,  // measure 20
0000
1000
0100
0010
0002
0000
1003
0000
,  // measure 21
0010
0000
0100
0001
0100
0000
0010
0000
0100
0000
1000
0000
0010
0000
0000
0000
,  // measure 22
0001
0000
0000
1000
0000
0010
0000
1000
,  // measure 23
0020
1000
1030
0000
,  // measure 24
0000
0010
1000
0010
1000
0001
0100
0001
,  // measure 25
0100
0000
0100
0001
0000
0010
0000
0001
,  // measure 26
0000
1000
0000
0010
0000
0100
0000
0001
,  // measure 27
2000
0001
3001
0000
,  // measure 28
0000
0100
0010
0001
0010
0100
0010
0002
,  // measure 29
0000
0000
0000
0000
0003
0000
0001
2000
,  // measure 30
0000
0000
0000
0000
3000
0010
0000
1000
,  // measure 31
0010
0000
0000
0000
1000
0000
0000
0010
0100
0000
0010
0000
0000
0000
0100
0000
,  // measure 32
0000
0001
0010
0100
0000
0010
0100
1000
,  // measure 33
0000
0000
0001
1000
0000
0100
0000
0010
,  // measure 34
0200
1000
1300
1010
,  // measure 35
1000
0000
0000
0000
0001
0000
0000
1000
0010
0000
1000
0000
0000
0000
0010
0000
,  // measure 36
0000
0100
1000
0010
0000
1000
0010
0001
,  // measure 37
0000
0000
0100
0001
0000
0010
0000
0200
,  // measure 38
0000
0000
0000
0001
0000
0301
0000
0100
,  // measure 39
0010
1000
0000
0100
0001
0100
0000
0010
,  // measure 40
0000
1000
0100
0020
0000
0030
0000
0010
,  // measure 41
0001
0100
0000
0010
1000
0001
0000
1000
,  // measure 42
0000
1000
0010
2000
0000
3000
0000
0000
,  // measure 43
0100
0000
0000
0000
1000
0000
0000
0100
1000
0000
0100
0000
0000
0000
1000
0000
,  // measure 44
0000
0001
0100
1000
0000
0100
1000
0010
,  // measure 45
0000
0000
0001
0010
0000
1000
0000
0002
,  // measure 46
1000
0000
1000
0000
1003
0000
1001
0001
,  // measure 47
1000
0000
0010
0000
0100
0010
1000
0000
0010
0000
0010
0100
0001
0000
0100
0000
,  // measure 48
0000
0010
0001
0100
0010
1000
0100
1000
,  // measure 49
0010
0000
0100
0000
0010
1000
0001
0000
0100
0000
0010
0100
0001
0000
0100
0000
,  // measure 50
0000
0000
0001
0000
1000
0000
0100
0000
1000
0000
0001
0000
0100
0010
0100
0000
,  // measure 51
0001
0000
0100
0000
0010
0100
0001
0000
0100
0000
0100
0010
1000
0000
0010
0000
,  // measure 52
0000
0100
1000
0010
0100
0001
0010
0001
,  // measure 53
0100
0000
0010
0000
0100
0001
1000
0000
0010
0000
0100
0010
1000
0000
0010
0000
,  // measure 54
0000
0000
0000
0000
0000
0000
1000
0000
0000
0000
0000
0000
0001
0000
0000
0000
0000
0000
0010
0000
0000
0000
0000
0000
0001
0000
0000
0000
1000
0000
0000
0000
0001
0000
0000
0000
1000
0000
0000
0000
0000
0000
0010
0000
0000
0100
0000
0000
,  // measure 55
0010
0100
0001
1000
0010
0000
0001
0000
,  // measure 56
0010
0000
0001
0000
1000
0000
0100
0001
,  // measure 57
1000
0010
0100
0010
0001
0000
0010
0000
,  // measure 58
0001
0000
0100
0000
0010
1000
0010
0100
,  // measure 59
0001
0100
1000
0100
0001
0000
1000
0000
,  // measure 60
0010
0000
1000
0000
0001
0000
0100
0010
,  // measure 61
0001
0100
0010
0010
0100
0010
1000
0100
,  // measure 62
0010
0001
0202
0303
,  // measure 63
2020
0000
3030
1000
,  // measure 64
1000
0010
1000
0010
0100
0001
0100
0002
,  // measure 65
0000
0000
0000
0000
0000
0000
0000
0200
,  // measure 66
0000
0000
0000
0000
0303
0100
0000
0001
,  // measure 67
0100
0000
0000
0000
0001
0000
0000
0100
0010
0000
0100
0000
0000
0000
0010
0000
,  // measure 68
0000
1000
0100
0010
0000
0100
0010
0001
,  // measure 69
0000
0000
1000
0001
0000
0010
0000
2000
,  // measure 70
0000
0001
3001
0101
,  // measure 71
0001
0000
0000
0000
1000
0000
0000
0001
0100
0000
0001
0000
0000
0000
0100
0000
,  // measure 72
0000
0010
0001
0100
0000
0001
0100
1000
,  // measure 73
0000
0000
0010
1000
0000
0100
0000
0020
,  // measure 74
0000
0000
0000
1000
0000
1030
0000
0010
,  // measure 75
0100
0001
0000
0010
1000
0010
0000
0100
,  // measure 76
0000
0001
0010
0200
0000
0300
0000
0100
,  // measure 77
1000
0010
0000
0100
0001
1000
0000
0001
,  // measure 78
0000
0001
0100
0002
0000
0003
0000
0000
,  // measure 79
0010
0000
0000
0000
0001
0000
0000
0010
0001
0000
0010
0000
0000
0000
0001
0000
,  // measure 80
0000
1000
0010
0001
0000
0010
0001
0100
,  // measure 81
0000
0000
1000
0100
0000
0001
0000
2000
,  // measure 82
0001
0001
3001
1001
,  // measure 83
0220
0000
0330
2002
0000
3003
0220
0000
,  // measure 84
0330
0100
0010
0100
0010
0100
0000
0000
;
