#TITLE:Love & Live;
#SUBTITLE:;
#ARTIST:LOONA 1/3;
#TITLETRANSLIT:;
#SUBTITLETRANSLIT:;
#ARTISTTRANSLIT:;
#CREDIT:;
#BANNER:Love & Live.png;
#BACKGROUND:Love & Live-bg.png;
#LYRICSPATH:;
#CDTITLE:;
#MUSIC:Love & Live.mp3;
#OFFSET:-0.140;
#SAMPLESTART:54.120;
#SAMPLELENGTH:15.000;
#SELECTABLE:YES;
#BPMS:0.000=110.000;
#STOPS:;
#BGCHANGES:-0.440=Love & Live.avi=1.000=0=0=0,
99999=-nosongbg-=1.000=0=0=0 // don't automatically add -songbackground-
;

//---------------dance-single - ----------------
#NOTES:
     dance-single:
     :
     Easy:
     4:
     0.176,0.234,0.041,0.074,0.004:
0000
0000
0000
0000
,
0000
0000
0000
0000
,
0000
0000
0000
0000
,
0000
0000
0000
0000
,
0000
0000
0000
0000
,
0020
0000
0030
0000
,
1000
0000
0100
0000
,
1000
0000
0010
0000
,
0002
0000
2003
0000
,
3000
0100
0010
1000
,
0000
0001
0010
1000
,
0000
0100
1000
0001
,
0000
0010
1000
0001
,
0000
0100
1000
0100
,
0000
0001
0010
0001
,
0000
0100
1000
0010
,
0000
1000
0100
0010
,
0000
0010
0100
0001
,
0000
1000
0100
0001
,
0000
0010
0001
1000
,
0000
0100
0001
1000
,
0000
0010
0001
0010
,
0000
1000
0100
1000
,
0000
0010
0001
0100
,
0001
0000
0000
0010
0000
0000
0100
0000
0010
0000
0000
0000
1001
0000
0000
0000
,
0110
0100
0010
1000
,
0000
0001
0100
0001
,
0010
0001
0100
0010
,
0000
1000
0100
1000
,
0100
0010
0100
0010
,
0001
0100
1001
0000
,
0100
0100
0010
0010
,
1000
0010
1000
0001
,
0110
0010
0100
0001
,
0000
1000
0010
1000
,
0100
1000
0010
0100
,
0000
0001
0010
0001
,
0010
0100
0010
0100
,
1000
0010
1001
0000
,
0010
0010
0100
0100
,
0001
0100
0001
1000
,
0020
0000
2030
0000
,
3010
0000
0100
0000
,
0002
0000
2003
0000
,
3010
0000
0100
0000
,
0001
0000
0100
0010
,
1000
0000
0001
0100
,
0001
0000
0100
0010
,
0200
0000
0000
0000
,
0300
0000
0100
0010
,
0020
0000
0000
0000
,
0000
0000
0000
0000
,
0030
0000
0000
0000
;

//---------------dance-single - ----------------
#NOTES:
     dance-single:
     :
     Beginner:
     1:
     0.114,0.128,0.008,0.016,0.000:
0000
0000
0000
0000
,
0000
0000
0000
0000
,
0000
0000
0000
0000
,
0000
0000
0000
0000
,
0000
0000
0000
0000
,
0000
0000
0000
0000
,
0000
0000
0000
0000
,
0000
0000
0000
0000
,
0000
0000
0000
0000
,
0000
0100
0000
1000
,
0000
0001
0000
0010
,
0000
0100
0000
1000
,
0000
0100
0000
0010
,
0000
0100
0000
0001
,
0000
1000
0000
0010
,
0000
0100
0000
0001
,
0000
1000
0000
0001
,
0000
0100
0000
0100
,
0000
0010
0000
0010
,
0000
1000
0000
0001
,
0000
1000
0000
0010
,
0000
0100
0000
0001
,
0000
0010
0000
0001
,
0000
1000
0000
0010
,
0000
0100
0000
0110
,
0000
0010
0010
0010
,
0000
0001
0001
0001
,
0000
1000
1000
1000
,
0000
0100
0100
0100
,
0000
0010
0000
0001
,
0000
1000
0000
0100
,
0000
1000
0000
0001
,
0000
0010
0000
0001
,
0000
0100
0100
0100
,
0000
1000
1000
1000
,
0000
0001
0001
0001
,
0000
0010
0010
0010
,
0000
0100
0000
1000
,
0000
0001
0000
0010
,
0000
0001
0000
1000
,
0000
0100
0000
1000
,
0000
0001
1000
0001
,
0000
1000
0001
1000
,
0000
0010
0100
0010
,
0000
0100
0010
0100
,
0000
0010
0000
1000
,
0000
0001
0000
0010
,
0000
0100
0000
0010
,
0020
0000
0000
0000
,
0030
0000
0100
0100
,
0200
0000
0000
0000
,
0000
0000
0000
0000
,
0300
0000
0000
0000
;

//---------------dance-single - ----------------
#NOTES:
     dance-single:
     :
     Medium:
     6:
     0.269,0.362,0.066,0.090,0.152:
0000
0000
0000
0000
,
0000
0000
0000
0000
,
0000
0000
0000
0000
,
0000
0000
0000
0000
,
0000
0000
0000
0000
,
0220
0000
0330
0000
,
0010
0000
0000
0100
0000
0000
0010
0000
0000
1000
0000
0000
0001
0000
0100
0000
,
0010
0000
0000
1000
0000
0000
0001
0000
0000
0100
0000
0000
0010
0000
0100
0000
,
2000
0000
3002
0000
,
1003
0000
0000
1000
0000
0000
1000
0000
0000
1000
0000
0000
1000
0000
0010
0000
,
0100
0000
0000
0100
0000
0000
0100
0000
0000
0100
0000
0000
0100
0000
0001
0000
,
0010
0000
0000
0010
0000
0000
0010
0000
0000
0010
0000
0000
0010
0000
0100
0000
,
0001
0000
0000
0001
0000
0000
0001
0000
0000
0001
0000
0000
0001
0000
0100
0000
,
0001
0000
0000
0001
0000
0000
0001
0000
0000
0001
0000
0000
0001
0000
0100
0000
,
0010
0000
0000
0010
0000
0000
0010
0000
0000
0010
0000
0000
0010
0000
1000
0000
,
0100
0000
0000
0100
0000
0000
0100
0000
0000
0100
0000
0000
0100
0000
0010
0000
,
1000
0000
0000
1000
0000
0000
1000
0000
0000
1000
0000
0000
1000
0000
0010
0000
,
1000
0000
0010
0100
0010
0000
1000
0010
,
0001
0000
0010
0001
0010
0000
0100
0001
,
1000
0000
0010
0100
0001
0000
0010
1000
,
0001
0000
1000
0001
0100
0000
0010
0100
,
0001
0000
0100
0010
1000
0000
0010
0010
,
0010
0000
0100
0100
0100
0000
0110
0000
,
2000
0000
0000
3000
,
0010
0000
0000
0100
0000
0000
0010
0000
0100
0000
0000
0000
0100
0010
0000
0000
,
1001
0001
0100
0010
,
1000
0010
0100
0001
,
0101
0010
1010
0100
,
0010
1000
0001
0100
,
0010
1000
0010
1000
,
0001
0100
0001
0100
,
0001
1000
0010
0100
,
0010
0000
0100
0010
0000
0100
0000
0001
0000
0000
0000
1000
0001
1000
0010
0000
,
1001
0010
0100
0010
0010
0000
0100
0000
,
0001
0100
0010
1000
,
1010
0100
0101
0010
,
0100
0001
1000
0010
,
0100
0001
0100
0001
,
1000
0010
1000
0010
,
1000
0001
0100
0010
,
0100
0000
0010
0100
0000
0010
0000
1000
0000
0000
0000
0001
1000
0001
0100
0000
,
0002
0000
0000
0000
0003
0000
0000
0200
0000
0000
0000
0300
0000
0000
0000
0000
,
0010
1000
0001
1000
,
2000
0000
0000
0000
3000
0000
0000
0020
0000
0000
0000
0030
0000
0000
0000
0000
,
1000
0010
0100
0001
,
1000
0010
0100
0001
,
0100
0001
1000
0001
,
0001
0000
0000
0000
1000
0000
0000
0000
0100
0000
0010
0100
0000
0010
0000
2000
,
0000
0000
0000
0000
,
3000
0000
0010
1000
,
0002
0000
0000
0000
,
0000
0000
0000
0000
,
0003
0000
0000
0000
;

//---------------dance-single - ----------------
#NOTES:
     dance-single:
     :
     Hard:
     13:
     0.358,0.405,0.041,0.090,0.353: // measure 1
0000
0000
0000
0000
,  // measure 2
0000
0000
0000
0000
,  // measure 3
0000
0000
0000
0000
,  // measure 4
0000
0000
0000
0000
,  // measure 5
0000
0000
0000
0000
,  // measure 6
1001
0000
0000
0010
0100
0010
0100
0000
,  // measure 7
0000
0000
0000
0000
0001
0010
0100
1000
0100
0010
0001
0010
0100
1000
0100
0010
,  // measure 8
0001
0000
0000
0000
0000
0000
0000
0000
1000
0000
0000
0010
0000
0000
1000
0000
,  // measure 9
0002
0000
2000
0000
,  // measure 10
3003
0000
0010
0000
1000
0000
0100
1000
0000
0100
0000
0000
1000
0000
0010
1000
,  // measure 11
0001
0000
0100
0000
0001
0000
0010
0001
0000
0000
0001
0000
0010
0000
0100
0000
,  // measure 12
0010
0000
0001
1000
0000
0000
0010
0000
0000
0100
0000
0000
0001
0000
0000
0000
,  // measure 13
0010
0000
0000
0001
0000
0000
0100
0000
0000
1000
0000
0000
0100
0000
0000
0000
,  // measure 14
0010
0000
0100
0000
0010
0000
0001
0010
0000
0000
0000
0000
0000
0000
0010
0001
,  // measure 15
0010
0000
0001
0000
0100
0000
0010
1000
0000
0000
0100
0000
1000
0000
0010
0000
,  // measure 16
0001
0000
0100
0001
0000
0000
0100
0000
0000
0010
0000
0000
0100
0000
0010
0000
,  // measure 17
1000
0000
0000
0010
0000
0000
0100
0000
0000
0001
0000
0000
1000
0000
0000
0000
,  // measure 18
0001
0000
0100
0000
0001
0000
0010
0001
0000
0010
0000
0000
0001
0000
0100
0001
,  // measure 19
1000
0000
0010
0000
1000
0000
0100
1000
0000
0000
1000
0000
0100
0000
0010
0000
,  // measure 20
0100
0000
1000
0001
0000
0000
0100
0000
0000
0010
0000
0000
1000
0000
0000
0000
,  // measure 21
0100
0000
0000
1000
0000
0000
0010
0000
0001
0000
0100
0000
0010
0000
1000
0000
,  // measure 22
0000
0000
0010
0000
0100
0000
1000
0100
0000
0000
0010
0000
0000
0000
0001
0000
,  // measure 23
0000
1000
0010
0100
0001
0010
0000
0200
,  // measure 24
0000
0000
0010
0000
0010
0000
0310
0100
,  // measure 25
0001
0000
0000
0100
0000
0000
0010
0000
1001
0000
0000
0000
0001
1000
0000
0000
,  // measure 26
1010
0000
0000
0000
0100
0000
0010
0100
0000
0000
0001
0010
0100
0000
1000
0000
,  // measure 27
0010
0000
0100
0000
1000
0010
0000
0100
0000
0000
1000
0000
0010
0000
0001
0000
,  // measure 28
0010
0000
1000
0001
0000
0100
0000
0010
0000
0000
0100
0010
0100
0000
0010
0000
,  // measure 29
0001
0000
0100
0000
0010
1000
0000
0010
0000
0000
1000
0000
0010
0000
0100
0000
,  // measure 30
0001
0000
0000
0000
0000
0000
0100
0010
0100
0000
0000
0000
0000
0000
1000
0001
,  // measure 31
1000
0000
0000
0010
0000
0000
0100
0010
0100
0000
0000
0000
0000
0000
0010
0000
,  // measure 32
0010
0000
0000
0000
1000
0000
0000
0000
0001
0000
0000
0100
0000
0000
0001
0000
,  // measure 33
0010
0000
0001
0010
0000
0100
0000
0001
0000
0000
0000
0000
1000
0100
0010
0000
,  // measure 34
0011
0000
0001
0000
0010
0000
0100
0010
0000
0000
1000
0100
0010
0000
0001
0000
,  // measure 35
0100
0000
0010
0000
0001
0100
0000
0010
0000
0000
0001
0000
0100
0000
1000
0000
,  // measure 36
0100
0000
0001
1000
0000
0010
0000
0100
0000
0000
0010
0100
0010
0000
0100
0000
,  // measure 37
1000
0000
0010
0000
0100
0001
0000
0100
0000
0000
0001
0000
0100
0000
0010
0000
,  // measure 38
1000
0000
0000
0000
0000
0000
0010
0100
0010
0000
0000
0000
0000
0000
0001
1000
,  // measure 39
0001
0000
0010
0100
0000
0010
0000
1000
0000
0000
0000
0000
0100
0000
0010
0200
,  // measure 40
0000
0000
0000
0000
0300
0000
0000
0000
1000
0000
0010
1000
0000
0010
0000
0001
,  // measure 41
0000
0000
1000
0100
0000
0010
0000
1000
0000
0010
0100
0000
0001
0010
0100
0000
,  // measure 42
2000
0000
0000
0000
3000
0000
0000
0200
0000
0000
0000
0300
0000
0000
0000
0000
,  // measure 43
0010
0000
0100
0000
0000
0010
0000
0000
0100
0000
0000
0001
0000
0000
1000
0000
,  // measure 44
0002
0000
0000
0000
0003
0000
0000
0200
0000
0000
0000
0300
0000
0000
0000
0000
,  // measure 45
0010
0000
1000
0000
0000
0001
0000
0000
0100
0000
0000
0010
0000
0000
1000
0000
,  // measure 46
0001
0000
0100
0000
0001
0000
0100
0000
0010
0000
1000
0010
0000
0000
0000
0000
,  // measure 47
0100
0000
0010
0000
0100
0000
0001
0000
0010
0000
0100
1000
0000
0000
0000
0000
,  // measure 48
1000
0000
0010
0000
1000
0000
0000
0000
0100
0000
0010
0100
0000
0010
0000
2000
,  // measure 49
0000
0000
0000
0000
,  // measure 50
3000
0000
1000
0001
,  // measure 51
0220
0000
0000
0000
,  // measure 52
0000
0000
0000
0000
,  // measure 53
0330
0000
0000
0000
;
