#TITLE:Level Up;
#SUBTITLE:;
#ARTIST:Ciara;
#TITLETRANSLIT:;
#SUBTITLETRANSLIT:;
#ARTISTTRANSLIT:;
#CREDIT:;
#BANNER:Level Up.png;
#BACKGROUND:Level Up-bg.png;
#LYRICSPATH:;
#CDTITLE:;
#MUSIC:Level Up.mp3;
#OFFSET:-0.660;
#SAMPLESTART:120.220;
#SAMPLELENGTH:15.000;
#SELECTABLE:YES;
#BPMS:0.000=153.000;
#STOPS:;
#BGCHANGES:;

//---------------dance-single - ----------------
#NOTES:
     dance-single:
     :
     Easy:
     4:
     0.248,0.278,0.215,0.161,0.000:
0000
0000
0000
0000
,
0000
0000
0000
0000
,
1001
0000
0010
0000
,
1000
0010
0100
0010
,
1000
0000
0001
0000
,
0100
0001
0100
0001
,
0010
0000
0100
0000
,
1001
0000
0010
0000
,
0110
0000
0100
0000
,
1010
0000
0010
0000
,
0101
0000
0001
0000
,
0001
0010
0100
1000
,
0001
0000
0100
0000
,
1000
0010
0001
0010
,
1000
0000
0010
0000
,
1010
0000
0100
0000
,
0110
0000
0001
0000
,
0011
0000
0100
0000
,
1001
0000
0010
1000
,
0010
0000
0100
0010
,
0100
0000
0001
0000
,
0101
0000
0001
0100
,
0010
0000
0100
0010
,
1000
0000
0010
0100
,
0010
0000
0100
0000
,
1010
0000
1000
0100
,
0010
0000
0100
0001
,
0100
0000
0010
0100
,
0010
0000
1000
0000
,
1010
0000
1000
0010
,
0100
0000
0010
0100
,
0001
0000
0100
0010
,
0100
0000
0010
0000
,
0101
0000
0001
0100
,
0002
0000
0000
0000
,
0023
0000
0000
0000
,
0230
0000
0000
0000
,
2300
0000
0000
0000
,
3002
0000
0000
0000
,
2003
0000
0000
0000
,
3020
0000
0000
0000
,
0230
0000
0000
0000
,
0310
0000
0100
0000
,
0010
0100
0010
0100
,
1001
0000
0100
0000
,
0001
0100
0010
0100
,
0001
0000
1000
0000
,
0010
1000
0010
1000
,
0100
0000
0010
0000
,
1001
0000
0100
0000
,
0110
0000
0010
0000
,
0101
0000
0100
0000
,
1010
0000
1000
0000
,
1000
0100
0010
0001
,
1000
0000
0010
0000
,
0001
0100
1000
0100
,
0001
0000
0100
0000
,
0101
0000
0010
0000
,
0110
0000
1000
0000
,
1100
0000
0010
0000
,
2000
0000
3000
0000
,
0020
0000
0030
0000
,
0200
0000
0300
0000
,
0002
0000
0003
0000
,
0200
0000
0300
0000
,
0002
0000
0003
0000
,
2000
0000
3000
0000
,
0020
0000
0030
0110
,
0200
0000
0010
0000
,
0320
0000
1000
0000
,
2030
0000
0001
0000
,
3002
0000
0100
0000
,
0203
0000
0001
0000
,
0302
0000
0010
0000
,
0023
0000
0100
0000
,
0230
0000
0300
0110
,
1001
0000
0100
0000
,
0001
0100
0001
0100
,
0001
0000
0100
0000
,
0010
1000
0010
1000
,
0010
0000
1000
0000
,
0110
0000
0100
0000
,
1010
0000
0010
0000
,
0011
0000
0000
0000
,
1001
0000
0010
0000
,
1000
0010
0100
0010
,
1000
0000
0001
0000
,
0100
0001
0100
0001
,
0010
0000
0100
0000
,
1001
0000
0010
0000
,
0110
0000
0100
0000
,
1010
0000
0010
0000
,
0101
0000
0000
0000
;

//---------------dance-single - ----------------
#NOTES:
     dance-single:
     :
     Beginner:
     1:
     0.188,0.370,0.282,0.221,0.000:
0000
0000
0000
0000
,
0000
0000
0000
0000
,
1001
0000
0000
0000
,
0110
0000
0000
0000
,
1001
0000
0110
0000
,
1001
0000
0000
0000
,
0010
0000
0000
0000
,
0100
0000
0000
0000
,
0010
0000
0100
0000
,
0010
0000
0000
0000
,
0011
0000
0000
0000
,
1100
0000
0000
0000
,
1010
0000
0101
0000
,
1010
0000
0000
0000
,
0100
0000
0000
0000
,
0010
0000
0000
0000
,
1000
0000
0100
0000
,
0010
0000
0000
0000
,
1000
0000
1000
0000
,
0010
0000
0010
0000
,
0100
0000
0100
0000
,
0100
0000
0001
0000
,
0001
0000
0100
0000
,
0010
0000
1000
0000
,
0010
0000
0010
0000
,
0010
0000
0100
0000
,
0001
0000
1000
0000
,
1000
0000
0010
0000
,
0100
0000
0010
0000
,
0100
0000
0001
0000
,
0100
0000
0010
0000
,
0100
0000
0001
0000
,
1000
0000
0010
0000
,
1000
0000
0000
0000
,
2002
0000
0000
0000
,
3003
0000
0000
0000
,
0220
0000
0000
0000
,
0330
0000
0000
0000
,
2000
0000
3000
0000
,
0002
0000
0003
0000
,
0001
0000
1000
0000
,
2002
0000
0000
0000
,
3003
0000
0100
0000
,
0010
0100
0010
0100
,
0110
0000
0000
0000
,
1001
0000
0000
0000
,
0110
0000
1001
0000
,
0110
0000
0000
0000
,
0100
0000
0000
0000
,
0010
0000
0000
0000
,
0100
0000
0010
0000
,
0100
0000
0000
0000
,
1100
0000
0000
0000
,
0011
0000
0000
0000
,
0101
0000
1010
0000
,
0101
0000
0000
0000
,
0010
0000
0000
0000
,
0100
0000
0000
0000
,
0001
0000
0010
0000
,
0100
0000
0000
0000
,
0020
0000
0030
0000
,
0200
0000
0300
0000
,
2000
0000
3000
0000
,
0002
0000
0003
0000
,
2000
0000
3000
0000
,
0002
0000
0003
0000
,
0200
0000
0300
0000
,
2002
0000
3003
0000
,
0220
0000
0330
0000
,
2020
0000
3030
0000
,
0202
0000
0303
0000
,
0022
0000
0033
0000
,
2200
0000
3300
0000
,
2002
0000
3003
0000
,
0220
0000
0330
0000
,
2002
0000
3003
1001
,
0110
0000
0010
0000
,
1000
0000
0000
0000
,
0010
0000
0100
0000
,
0010
0000
0000
0000
,
1001
0000
0000
0000
,
0010
0000
0000
0000
,
0110
0000
0000
0000
,
0100
0000
0000
0000
,
1001
0000
0000
0000
,
0110
0000
0000
0000
,
1001
0000
0110
0000
,
1001
0000
0000
0000
,
0010
0000
0000
0000
,
0100
0000
0000
0000
,
0010
0000
0100
0000
,
0010
0000
0000
0000
,
1001
0000
0000
0000
;

//---------------dance-single - ----------------
#NOTES:
     dance-single:
     :
     Medium:
     9:
     0.435,0.432,0.034,0.181,0.027:
0000
0000
0000
0000
,
0000
0000
0000
0000
,
0000
0000
0001
0100
0001
0000
1000
0010
,
1000
0000
0010
0100
0010
0100
0001
1000
,
0001
0000
0100
0010
0100
0000
0010
0100
,
0010
0000
1000
0010
0100
0010
0100
0001
,
0010
0000
0100
0000
1000
0000
0001
1000
,
0001
0000
0100
0000
0010
0000
0100
0010
,
0001
0000
0001
0000
0001
0000
0001
1000
,
0010
0000
0100
0000
0010
0000
1000
0001
,
1000
0000
0001
1000
0001
0000
1000
0001
,
1000
0000
0001
0100
0010
1000
0010
0100
,
0001
0000
0001
0010
1000
0000
1000
0100
,
0001
0000
1000
0010
0100
0001
0100
0010
,
1000
0000
0010
0000
0100
0000
0010
1000
,
0010
0000
0100
0000
0010
0000
1000
0100
,
0001
0000
1000
0000
0001
0000
0001
0100
,
0001
0000
0100
0000
0010
0000
1000
0010
,
0100
0000
0000
0000
0010
0000
0000
0000
0100
0000
0000
0010
0000
0000
0100
0000
,
0010
0000
0000
0000
1000
0000
0000
0000
0001
0000
0000
1000
0000
0000
0001
0000
,
0100
0000
0000
0000
0001
0000
0000
0000
0010
0000
0000
0100
0000
0000
1000
0000
,
0010
0000
0000
0000
0100
0000
0000
0000
0001
0000
0000
0010
0000
0000
0100
0000
,
1000
0000
0000
0000
0100
0000
0000
0000
0010
0000
0000
0001
0000
0000
0100
0000
,
0010
0000
0000
0000
1000
0000
0000
0000
0100
0000
0000
0010
0000
0000
0001
0000
,
0100
0000
0000
0000
0001
0000
0000
0000
0100
0000
0000
0010
0000
0000
1000
0000
,
0010
0000
0000
0000
1000
0000
0000
0000
0001
0000
0000
1000
0000
0000
0001
0000
,
0010
0001
0100
0010
1000
0100
1000
0000
,
0000
0010
1000
0001
0100
0010
1000
0001
,
0000
0001
0100
0010
0000
1000
0010
1000
,
0000
0010
0100
0010
1000
0100
0010
0001
,
0000
0000
0001
0000
0100
0000
0010
0100
,
0001
0000
0100
0000
0010
0000
1000
0010
,
1000
0000
1000
0000
0001
0000
0001
0010
,
0100
0000
0010
0000
1000
0000
0010
0100
,
0020
0100
0100
0130
,
2000
0001
0001
3001
,
0002
0010
0010
0013
,
2000
0100
0100
3100
,
0020
0100
0100
0130
,
0002
0010
0010
0013
,
2000
0100
0100
3100
,
2002
0000
0000
3003
,
1001
0000
1000
0000
,
0100
0010
0001
0001
,
1000
0000
1000
0010
1000
0000
0001
0100
,
0001
0000
0100
0010
0100
0010
1000
0001
,
1000
0000
0010
0100
0010
0000
0100
0010
,
0100
0000
0001
0100
0010
0100
0010
1000
,
0100
0000
0010
0000
0001
0000
1000
0001
,
1000
0000
0010
0000
0100
0000
0010
0100
,
1000
0000
1000
0000
1000
0000
1000
0001
,
0100
0000
0010
0000
0100
0000
0001
1000
,
0001
0000
1000
0001
1000
0000
0001
1000
,
0001
0000
1000
0010
0100
0001
0100
0010
,
1000
0000
1000
0100
0001
0000
0001
0010
,
1000
0000
0001
0100
0010
1000
0010
0100
,
0001
0000
0100
0000
0010
0000
0100
0001
,
0100
0000
0010
0000
0100
0000
0001
0010
,
1000
0000
0001
0000
1000
0000
1000
0010
,
1000
0000
0010
0000
0100
0000
0001
0100
,
0020
0000
0000
0030
,
2000
0000
0000
3000
,
0002
0000
0000
0003
,
0020
0000
0000
0030
,
0200
0000
0000
0300
,
2000
0000
0000
3000
,
2000
0000
3000
2000
0000
3000
2000
0000
,
0000
0000
3000
1001
,
0002
0000
0100
0003
,
0020
0000
1000
0030
,
2000
0000
0100
3000
,
0200
0000
0010
0300
,
2000
0000
0001
3000
,
0020
0000
0001
0030
,
0200
0000
0001
0300
,
2002
0000
3003
1001
,
0000
0000
0001
0100
0001
0000
1000
0010
,
1000
0000
0010
0100
0010
0100
0001
1000
,
0001
0000
0100
0010
0100
0000
0010
0100
,
0010
0000
1000
0010
0100
0010
0100
0001
,
0010
0000
0100
0000
1000
0000
0001
1000
,
0001
0000
0100
0000
0010
0000
0100
0010
,
0001
0000
0001
0000
0001
0000
0001
1000
,
0010
0000
0100
0000
0010
0000
1000
0001
,
1000
0000
0001
1000
0001
0000
1000
0001
,
1000
0000
0001
0100
0010
1000
0010
0100
,
0001
0000
0001
0010
1000
0000
1000
0100
,
0001
0000
1000
0010
0100
0001
0100
0010
,
1000
0000
0010
0000
0100
0000
0010
1000
,
0010
0000
0100
0000
0010
0000
1000
0100
,
0001
0000
1000
0000
0001
0000
0001
0100
,
0001
0000
0100
0000
0010
0000
1000
0010
,
0100
0000
0000
0000
;

//---------------dance-single - ----------------
#NOTES:
     dance-single:
     :
     Hard:
     15:
     0.599,0.617,0.127,0.188,0.416: // measure 1
0000
0000
0000
0000
,  // measure 2
0000
0000
0000
0000
,  // measure 3
1001
0000
0000
0000
0100
0001
0100
0000
0010
0000
0000
0000
0100
0001
0100
0000
,  // measure 4
0010
0000
0000
0000
0100
0010
0100
0000
0010
0100
0010
0000
1000
0001
1000
0000
,  // measure 5
0001
0000
0000
0000
1000
0010
0100
0000
0010
0000
0000
0000
0001
0100
0010
0000
,  // measure 6
0100
0000
0000
0000
0001
0010
0001
0000
0100
0010
0100
0000
1000
0100
1000
0000
,  // measure 7
0010
0000
0000
0000
1000
0000
0000
0010
0000
0000
1000
0000
0010
0000
0100
0000
,  // measure 8
0001
0000
0000
0000
0010
0000
0000
0001
0000
0000
0100
0000
0010
0000
1000
0000
,  // measure 9
0010
0000
0000
0000
1000
0000
0000
0001
0000
0000
0100
0000
0001
0000
1000
0000
,  // measure 10
0001
0000
0000
0000
0100
0000
0000
0010
0000
0000
0010
0000
0100
0000
0010
0000
,  // measure 11
0100
0000
0000
0000
1000
0100
1000
0000
0001
0000
0000
0000
1000
0100
1000
0000
,  // measure 12
0001
0000
0000
0000
1000
0001
1000
0000
0001
1000
0001
0000
0010
0100
0010
0000
,  // measure 13
0100
0000
0000
0000
0100
0001
1000
0000
0001
0000
0000
0000
0010
1000
0001
0000
,  // measure 14
1000
0000
0000
0000
0100
0001
0100
0000
1000
0001
1000
0000
0010
1000
0010
0000
,  // measure 15
0001
0000
0000
0000
0010
0000
0000
0001
0000
0000
0010
0000
0001
0000
1000
0000
,  // measure 16
0100
0000
0000
0000
0001
0000
0000
0100
0000
0000
1000
0000
0001
0000
0010
0000
,  // measure 17
0001
0000
0000
0000
0010
0000
0000
0100
0000
0000
1000
0000
0100
0000
0010
0000
,  // measure 18
0100
0000
0000
0000
1000
0000
0000
0001
0000
0000
0001
0000
1000
0000
0001
0000
,  // measure 19
0010
0000
0100
0000
1000
0000
0010
0000
0100
0000
0000
0001
0000
0000
0010
0000
,  // measure 20
0001
0000
0100
0000
0010
0000
1000
0000
0100
0000
0000
1000
0000
0000
0001
0000
,  // measure 21
1000
0010
1000
0010
0000
0001
0100
0001
,  // measure 22
0000
0100
0010
0100
0010
1000
0001
0000
,  // measure 23
0001
0000
0100
0000
0010
0000
1000
0000
0010
0000
0000
0100
0000
0000
0010
0000
,  // measure 24
1000
0000
0010
0000
0100
0000
0001
0000
0100
0000
0000
0001
0000
0000
0100
0000
,  // measure 25
0001
0100
0001
0010
0000
1000
0010
0100
,  // measure 26
0000
0001
0010
0100
0010
0001
0010
1000
,  // measure 27
0100
0000
0010
0000
0001
0000
0100
0000
0010
0000
0000
1000
0000
0000
0100
0000
,  // measure 28
1000
0000
0010
0000
0100
0000
0001
0000
0010
0000
0000
0001
0000
0000
1000
0000
,  // measure 29
0001
0100
0001
0100
0000
1000
0010
1000
,  // measure 30
0000
0010
0100
0010
0100
0001
1000
0000
,  // measure 31
1000
0000
0010
0000
0100
0000
0001
0000
0100
0000
0000
0010
0000
0000
0100
0000
,  // measure 32
0001
0000
0100
0000
0010
0000
1000
0000
0010
0000
0000
1000
0000
0000
0010
0000
,  // measure 33
1000
0010
1000
0100
0000
0001
0100
0010
,  // measure 34
0000
1000
0100
0010
0100
1000
0100
0010
,  // measure 35
0002
0100
0100
0100
,  // measure 36
0103
0000
0010
0100
0010
0100
0010
1000
,  // measure 37
0020
1000
1000
1000
,  // measure 38
1030
0000
0000
1000
0100
0010
0001
0100
,  // measure 39
0000
0001
0000
0001
0010
0100
1000
0010
,  // measure 40
0000
1000
0000
0001
0010
0100
0010
0001
,  // measure 41
0020
0000
0001
0032
0000
0000
0003
0000
,  // measure 42
2002
0000
0000
3003
,  // measure 43
1001
0000
0110
0000
,  // measure 44
1010
0011
1100
0101
,  // measure 45
1001
0000
0000
0000
0010
1000
0010
0000
0100
0000
0000
0000
0010
1000
0010
0000
,  // measure 46
0100
0000
0000
0000
0010
0100
0010
0000
0100
0010
0100
0000
0001
1000
0001
0000
,  // measure 47
1000
0000
0000
0000
0001
0100
0010
0000
0100
0000
0000
0000
1000
0010
0100
0000
,  // measure 48
0010
0000
0000
0000
1000
0100
1000
0000
0010
0100
0010
0000
0001
0010
0001
0000
,  // measure 49
0100
0000
0000
0000
0001
0000
0000
0100
0000
0000
0001
0000
0100
0000
0010
0000
,  // measure 50
1000
0000
0000
0000
0100
0000
0000
1000
0000
0000
0010
0000
0100
0000
0001
0000
,  // measure 51
0100
0000
0000
0000
0001
0000
0000
1000
0000
0000
0010
0000
1000
0000
0001
0000
,  // measure 52
1000
0000
0000
0000
0010
0000
0000
0100
0000
0000
0100
0000
0010
0000
0100
0000
,  // measure 53
0010
0000
0000
0000
0001
0010
0001
0000
1000
0000
0000
0000
0001
0010
0001
0000
,  // measure 54
1000
0000
0000
0000
0001
1000
0001
0000
1000
0001
1000
0000
0100
0010
0100
0000
,  // measure 55
0010
0000
0000
0000
0010
1000
0001
0000
1000
0000
0000
0000
0100
0001
1000
0000
,  // measure 56
0001
0000
0000
0000
0010
1000
0010
0000
0001
1000
0001
0000
0100
0001
0100
0000
,  // measure 57
1000
0000
0000
0000
0100
0000
0000
1000
0000
0000
0100
0000
1000
0000
0001
0000
,  // measure 58
0010
0000
0000
0000
1000
0000
0000
0010
0000
0000
0001
0000
1000
0000
0100
0000
,  // measure 59
1000
0000
0000
0000
0100
0000
0000
0010
0000
0000
0001
0000
0010
0000
0100
0000
,  // measure 60
0010
0000
0000
0000
0001
0000
0000
1000
0000
0000
1000
0000
0001
0000
1000
0000
,  // measure 61
0020
0000
0000
0000
0000
0100
0000
0000
0100
0000
0030
0100
0000
0010
0000
0000
,  // measure 62
2000
0000
0000
0000
0000
0001
0000
0000
0001
0000
0000
3001
0000
0100
0000
0000
,  // measure 63
0002
0000
0000
0000
0000
1000
0000
0000
1000
0000
0000
1003
0000
0010
0000
0000
,  // measure 64
0200
0000
0000
0000
0000
0010
0000
0000
0010
0000
0000
0310
0000
0100
0000
0000
,  // measure 65
2000
0000
0000
0000
0000
0010
0000
0000
0010
0000
0000
3010
0000
0100
0000
0000
,  // measure 66
0000
0000
0000
0000
0100
0000
0000
0010
0000
0000
0100
0000
0000
0000
0000
0000
,  // measure 67
0202
0000
0303
0220
0000
0330
2002
0000
,  // measure 68
0000
0000
3003
1001
,  // measure 69
0200
0000
0000
0000
0000
0010
0000
0000
0010
0000
0300
0010
0000
0100
0000
0000
,  // measure 70
0002
0000
0000
0000
0000
1000
0000
0000
1000
0000
0000
1003
0000
0010
0000
0000
,  // measure 71
2000
0000
0000
0000
0000
0001
0000
0000
0001
0000
0000
3001
0000
0100
0000
0000
,  // measure 72
0020
0000
0000
0000
0000
0100
0000
0000
0100
0000
0000
0130
0000
0010
0000
0000
,  // measure 73
0002
0000
0000
0000
0000
0100
0000
0000
0100
0000
0000
0103
0000
0010
0000
0000
,  // measure 74
0000
0000
0000
0000
0010
0000
0000
0100
0000
0000
0010
0000
0000
0000
0000
0000
,  // measure 75
2020
0000
3030
0220
0000
0330
2002
0000
,  // measure 76
0000
0000
3003
1001
,  // measure 77
1001
0000
0000
0000
0100
0001
0100
0000
0010
0000
0000
0000
0100
0001
0100
0000
,  // measure 78
0010
0000
0000
0000
0100
0010
0100
0000
0010
0100
0010
0000
1000
0001
1000
0000
,  // measure 79
0001
0000
0000
0000
1000
0010
0100
0000
0010
0000
0000
0000
0001
0100
0010
0000
,  // measure 80
0100
0000
0000
0000
0001
0010
0001
0000
0100
0010
0100
0000
1000
0100
1000
0000
,  // measure 81
0010
0000
0000
0000
1000
0000
0000
0010
0000
0000
1000
0000
0010
0000
0100
0000
,  // measure 82
0001
0000
0000
0000
0010
0000
0000
0001
0000
0000
0100
0000
0010
0000
1000
0000
,  // measure 83
0010
0000
0000
0000
1000
0000
0000
0001
0000
0000
0100
0000
0001
0000
1000
0000
,  // measure 84
0001
0000
0000
0000
0100
0000
0000
0010
0000
0000
0010
0000
0100
0000
0010
0000
,  // measure 85
0100
0000
0000
0000
1000
0100
1000
0000
0001
0000
0000
0000
1000
0100
1000
0000
,  // measure 86
0001
0000
0000
0000
1000
0001
1000
0000
0001
1000
0001
0000
0010
0100
0010
0000
,  // measure 87
0100
0000
0000
0000
0100
0001
1000
0000
0001
0000
0000
0000
0010
1000
0001
0000
,  // measure 88
1000
0000
0000
0000
0100
0001
0100
0000
1000
0001
1000
0000
0010
1000
0010
0000
,  // measure 89
0001
0000
0000
0000
0010
0000
0000
0001
0000
0000
0010
0000
0001
0000
1000
0000
,  // measure 90
0100
0000
0000
0000
0001
0000
0000
0100
0000
0000
1000
0000
0001
0000
0010
0000
,  // measure 91
0001
0000
0000
0000
0010
0000
0000
0100
0000
0000
1000
0000
0100
0000
0010
0000
,  // measure 92
0100
0000
0000
0000
1000
0000
0000
0001
0000
0000
0001
0000
1000
0000
0001
0000
,  // measure 93
1001
0000
0000
0000
;
