#TITLE:Let Me In;
#SUBTITLE:;
#ARTIST:LOONA;
#TITLETRANSLIT:;
#SUBTITLETRANSLIT:;
#ARTISTTRANSLIT:;
#CREDIT:;
#BANNER:Let Me In.png;
#BACKGROUND:Let Me In-bg.png;
#LYRICSPATH:;
#CDTITLE:;
#MUSIC:Let Me In.mp3;
#OFFSET:-0.640;
#SAMPLESTART:99.960;
#SAMPLELENGTH:15.000;
#SELECTABLE:YES;
#BPMS:0.000=116.000;
#STOPS:;
#BGCHANGES:-1.440=Let Me In.avi=1.000=0=0=0,
99999=-nosongbg-=1.000=0=0=0 // don't automatically add -songbackground-
;

//---------------dance-single - ----------------
#NOTES:
     dance-single:
     :
     Easy:
     3:
     0.172,0.213,0.039,0.227,0.000:
0000
0000
0000
0000
,
0000
0000
0000
0000
,
0000
0000
0000
0000
,
0000
0000
0000
0000
,
0000
1000
0100
0010
,
0002
0000
0003
0000
,
0001
0200
0000
0301
,
0002
0000
0000
0003
,
0010
0000
1000
0000
,
0010
0100
0001
0000
,
0010
0000
1000
0000
,
0100
0000
2020
0000
,
3030
0000
0100
0000
,
0010
0001
1000
0000
,
0010
0000
0100
0000
,
0010
0000
0002
0000
,
0003
0000
0100
0000
,
0020
0000
0230
0000
,
0300
0000
0001
0000
,
2000
0000
3002
0000
,
0003
0000
0100
0000
,
0100
0010
0001
0000
,
1000
0000
0010
0000
,
0200
0000
0020
0330
,
0010
0000
0000
1000
0000
0000
0000
0010
,
0000
0100
0100
0010
,
1000
0000
0000
0001
0000
0000
0000
2000
,
0000
3002
2003
3000
,
0100
0000
0000
0001
0000
0000
0000
0100
,
0000
0010
0000
0100
,
0001
0000
0000
1000
0000
0000
0000
0002
,
0000
1003
0001
1000
,
0000
1000
0000
0010
,
0000
1000
0000
0001
,
0000
0010
0000
0010
,
0000
0001
1000
0001
,
1001
0000
0000
0100
0000
0000
0000
0000
,
0010
0000
0000
0010
0000
0000
0000
0000
,
1000
0000
0000
1000
0000
0000
0000
1000
,
0000
0100
0010
0001
,
0002
0000
0000
0000
,
0000
0000
0003
0010
,
0020
0000
0000
0030
,
0000
0100
0010
0100
,
0110
0000
0000
0010
0000
0000
0000
0100
,
0000
0000
0000
0000
0010
0000
0000
2000
,
0000
0000
3000
0002
0000
0000
0003
0000
,
0001
0010
0100
1000
,
0100
0000
0000
0001
0000
0000
0000
0100
,
0000
0010
0010
0100
,
0001
0000
0000
1000
0000
0000
0000
0002
,
0000
2003
3002
0003
,
0010
0000
0000
1000
0000
0000
0000
0010
,
0000
0100
0000
0010
,
1000
0000
0000
0001
0000
0000
0000
2000
,
0000
3002
0000
0003
,
2002
0000
3003
0000
,
0000
0020
0000
0000
0000
0030
0000
0000
,
0000
0000
0000
2000
0000
0000
0000
0000
,
0000
0000
3000
0000
,
0000
0000
0000
1001
0000
0000
0000
0000
;

//---------------dance-single - ----------------
#NOTES:
     dance-single:
     :
     Beginner:
     1:
     0.118,0.189,0.055,0.094,0.000:
0000
0000
0000
0000
,
0000
0000
0000
0000
,
0000
0000
0000
0000
,
0000
0000
0000
0000
,
0000
0000
0000
0000
,
0200
0000
0000
0000
,
0300
0000
0000
0000
,
0020
0000
0000
0000
,
0030
0000
0010
0000
,
0100
0000
0010
0000
,
0001
0000
1000
0000
,
0010
0000
0220
0000
,
0330
0000
1000
0000
,
0001
0000
0100
0000
,
0001
0000
1000
0000
,
1000
0000
2000
0000
,
3000
0000
0001
0000
,
0100
0000
0001
0000
,
0010
0000
1000
0000
,
0001
0000
0100
0000
,
0001
0000
1000
0000
,
0010
0000
1000
0000
,
0001
0000
1000
0000
,
2002
0000
3003
0000
,
0110
0000
0000
0010
,
0000
0001
0000
0100
,
0000
0010
0000
1000
,
0000
0001
0001
0001
,
0000
0010
0000
0100
,
0000
0001
0000
1000
,
0000
0010
0000
1000
,
0000
0010
0010
0010
,
0000
0000
0000
0000
0000
0001
0000
0000
,
0000
0100
0000
0000
0000
0000
0000
0000
,
0010
0000
0000
0000
0000
1000
0000
0000
,
0000
0010
0000
0000
0000
0000
0000
0000
,
1001
0000
0000
0000
,
0110
0000
0000
0000
,
1000
0000
0000
0000
,
0000
0010
0010
0010
,
0020
0000
0000
0000
,
0000
0000
0030
0000
,
0010
0000
0000
0000
0000
0000
0000
1000
,
0000
0000
0000
0000
,
0001
0000
0000
0000
0000
0000
0000
0100
,
0000
0000
0000
0000
0000
0000
0000
0010
,
0000
0000
0000
1000
0000
0000
0000
0000
,
1001
0000
0000
0000
,
0110
0000
0000
0100
,
0000
1000
0000
0010
,
0000
0100
0000
0001
,
0000
1000
1000
1000
,
0000
0100
0000
0010
,
0000
1000
0000
0001
,
0000
0000
0100
0000
0000
0000
0000
0002
,
0000
0000
0003
0000
,
0002
0000
0003
0000
,
0000
2000
0000
0000
0000
3000
0000
0000
,
0000
0000
0000
0020
0000
0000
0000
0000
,
0000
0000
0030
0000
,
0000
0000
0000
0010
0000
0000
0000
0000
;

//---------------dance-single - ----------------
#NOTES:
     dance-single:
     :
     Medium:
     6:
     0.233,0.284,0.071,0.172,0.000:
0000
0000
0000
0000
,
0000
0000
0000
0000
,
0000
0000
0000
0000
,
0000
0000
0000
0000
,
0000
0000
1000
0000
0010
0000
1000
0010
,
2000
0000
0000
3000
,
0001
0010
0200
0000
0000
0000
0300
0000
,
0002
0000
0000
0000
,
0003
0010
0001
0100
,
0000
1000
0010
1000
0020
0000
0030
0000
,
1000
0000
0001
0000
,
0100
0000
0202
0000
,
0303
0100
1000
0010
,
0100
0001
0100
0002
0200
0000
0303
0000
,
0001
0000
1000
0000
,
0010
0000
2020
3000
,
1030
0010
0000
0010
1000
0000
0010
0000
,
0100
0100
0000
0010
0010
0000
0100
0000
,
0001
0100
0000
0010
1000
0000
0001
0000
,
1000
0100
0000
0010
0001
0000
0100
0000
,
0001
0001
0000
0010
0001
0000
0100
0000
,
0010
1000
0000
1000
1000
0000
0100
0000
,
0001
0000
1000
0000
,
2002
0000
0000
3003
,
1000
0000
0010
1000
0000
1000
1000
1000
,
0000
0010
0100
0010
0000
0100
0100
0000
,
0001
0000
0000
1000
0000
0000
0000
0010
,
0000
0100
0100
0100
,
0001
0000
0100
0001
0000
0001
0001
0001
,
0000
0100
0010
0100
0000
0000
0010
1000
,
0000
0000
1000
0001
0000
0000
0010
0100
,
0000
0010
0010
0010
,
1000
0000
0000
0010
0000
0010
0000
0100
,
0000
0001
0000
0100
0000
0010
0000
0000
,
0100
0000
0000
0010
0000
0001
0000
0010
,
0000
0001
0000
0000
0100
0000
0001
0000
,
1001
0000
0000
0010
0000
0000
0100
0000
,
0010
0000
0000
1000
0000
0000
0010
0000
,
0100
0000
0000
0010
0000
0000
0000
0110
,
0000
2000
3200
0320
,
0032
0000
0000
0000
,
0000
0000
0000
0000
0000
0103
0001
0100
,
0020
0000
0000
0000
,
0030
0010
0010
0010
,
1000
0000
0000
0010
0000
0000
0000
0100
,
0000
0000
0000
0000
0000
0000
0000
1001
,
0000
0000
0000
0110
0000
0000
0000
0000
,
2002
0000
0000
3003
,
0001
0000
0010
0001
0000
0001
0001
0001
,
0000
0010
1000
0010
0000
1000
1000
0000
,
0100
0000
0000
0001
0000
0000
0000
0010
,
0000
1000
1000
1000
,
0100
0000
1000
0100
0000
0100
0100
0100
,
0000
1000
0010
1000
0000
0000
0010
0001
,
0000
0000
0001
0100
0000
0000
0010
1000
,
0000
0010
0000
0000
,
2000
0000
3000
0000
,
0000
0020
0000
0000
0000
0030
0000
0000
,
0000
0000
0000
0002
0000
0000
0000
0000
,
0000
0000
0003
0000
,
0000
0000
0000
1001
0000
0000
0000
0000
;

//---------------dance-single - ----------------
#NOTES:
     dance-single:
     :
     Hard:
     8:
     0.353,0.426,0.110,0.282,0.055: // measure 1
0000
0000
0000
0000
,  // measure 2
0000
0000
0000
0000
,  // measure 3
0000
0000
0000
0000
,  // measure 4
0000
0000
0000
0000
,  // measure 5
0001
0000
0100
0000
0001
0000
0100
0010
,  // measure 6
0002
0000
0000
0003
,  // measure 7
0010
0100
2000
0000
0000
0000
0010
0000
,  // measure 8
3020
0000
0000
0030
,  // measure 9
0000
0010
0001
0010
1000
0010
0000
1000
,  // measure 10
0100
0010
0100
1000
0000
0000
0001
0001
,  // measure 11
0000
0000
0010
0001
0000
0100
0000
0010
,  // measure 12
0000
0000
0220
0000
,  // measure 13
0330
0100
0010
0100
1000
0100
0000
0001
,  // measure 14
1000
0001
1000
0001
0000
0000
1000
1000
,  // measure 15
0000
0000
0001
0001
0000
1000
0000
0020
,  // measure 16
0000
0000
0000
0030
2002
0000
0003
0001
,  // measure 17
3000
1000
0001
0100
0000
0010
1000
0001
,  // measure 18
1000
0010
0000
0010
1000
0000
0000
0100
,  // measure 19
0000
0010
0100
0010
0000
0010
0100
2000
,  // measure 20
0000
0000
0000
0000
0001
0000
3001
0010
,  // measure 21
0100
0000
0100
0010
0000
0010
0000
1000
,  // measure 22
0000
0010
0000
0100
0000
0000
0000
0000
,  // measure 23
0000
0000
0001
0000
0100
0000
0001
0000
0100
0000
0000
0001
0000
0000
0100
0000
,  // measure 24
0020
2030
3020
2030
3020
0000
0030
0000
,  // measure 25
1010
0010
0100
0001
0000
0010
0001
0010
,  // measure 26
0000
0100
0010
0000
0100
0000
0010
0000
0000
0000
1000
0000
1000
0000
0010
0000
,  // measure 27
0000
1000
0010
0001
0010
1000
0010
0002
,  // measure 28
0000
1003
0010
1000
,  // measure 29
0011
0001
1000
0100
0000
0001
0100
0001
,  // measure 30
0000
1000
0001
1000
0001
0000
1000
0000
0000
0000
0010
0000
0010
0000
0001
0000
,  // measure 31
0000
0010
0001
0100
0000
0010
0001
0200
,  // measure 32
0000
0310
0001
0010
,  // measure 33
0001
0100
0010
1000
0000
1000
0000
0010
,  // measure 34
0000
1000
0000
0100
0000
1000
0100
2000
,  // measure 35
0010
0010
0000
3010
0000
1000
0000
0001
,  // measure 36
0100
0000
0001
0100
0001
0000
0100
0001
0100
0000
0010
1000
0010
0000
1000
0010
,  // measure 37
1000
0000
0010
1000
0000
0010
0100
0010
,  // measure 38
0000
0100
0010
0001
0000
0000
0010
0001
,  // measure 39
0000
0010
0001
0010
0000
0001
0010
0100
,  // measure 40
0000
2000
3020
2030
,  // measure 41
3002
1000
1000
1000
2000
0000
3000
1000
,  // measure 42
2000
0000
3000
1000
2003
0000
3000
0000
,  // measure 43
1001
0000
0000
0000
0000
0000
0000
0000
0000
0000
0010
0000
0100
0010
1000
0000
,  // measure 44
0000
0010
0100
0000
0110
0000
1001
0000
,  // measure 45
1000
0100
0010
0100
0000
0010
0100
0010
,  // measure 46
0000
0000
0100
0000
0100
0000
0000
0000
0001
0010
0001
0000
0100
0010
0200
0000
,  // measure 47
0000
0000
0000
0020
0000
0000
0330
0000
,  // measure 48
2002
0000
0000
3003
,  // measure 49
0101
0100
0010
1000
0000
0100
1000
0100
,  // measure 50
0000
0010
0100
0000
0010
0000
0100
0000
0000
0000
0001
0000
0001
0000
0100
0000
,  // measure 51
0000
0001
0100
1000
0100
0001
0100
2000
,  // measure 52
0000
3001
0100
0001
,  // measure 53
1100
1000
0001
0010
0000
1000
0010
1000
,  // measure 54
0000
0001
1000
0001
1000
0000
0001
0000
0000
0000
0100
0000
0100
0000
1000
0000
,  // measure 55
0000
0100
1000
0010
0000
0100
1000
0020
,  // measure 56
0000
0130
0000
0000
,  // measure 57
2020
0000
3030
0000
,  // measure 58
0000
0202
0000
0000
0000
0303
0000
0000
,  // measure 59
0000
0000
0000
2002
0000
0000
0000
0000
,  // measure 60
0000
0000
3003
0000
,  // measure 61
0000
0000
0000
0110
0000
0000
0000
0000
;
