#TITLE:LUNA;
#SUBTITLE:;
#ARTIST:ONEUS;
#TITLETRANSLIT:;
#SUBTITLETRANSLIT:;
#ARTISTTRANSLIT:;
#CREDIT:;
#BANNER:LUNA.png;
#BACKGROUND:LUNA-bg.png;
#LYRICSPATH:;
#CDTITLE:;
#MUSIC:LUNA.mp3;
#OFFSET:-0.240;
#SAMPLESTART:50.600;
#SAMPLELENGTH:15.000;
#SELECTABLE:YES;
#BPMS:0.000=162.000;
#STOPS:;
#BGCHANGES:;

//---------------dance-single - ----------------
#NOTES:
     dance-single:
     :
     Easy:
     5:
     0.263,0.360,0.173,0.055,0.000:
0000
0000
0000
0000
,
0000
0000
0000
0000
,
0000
0000
0000
0000
,
0000
0000
0000
0000
,
0000
0000
0000
0000
,
0000
0000
0000
0000
,
0000
0000
0000
0000
,
0000
0000
0000
0000
,
0000
0000
0000
0000
,
0000
0000
0000
0000
,
0001
0010
0100
0000
,
0010
0100
0001
0000
,
1000
0001
1000
0000
,
0100
1000
0001
0000
,
0010
0100
1000
0000
,
0100
0001
1000
0000
,
0010
0001
0010
1000
,
0100
1001
0000
0000
,
1000
0000
0001
0000
,
0100
0010
1000
0000
,
0010
0000
1000
0000
,
0010
0100
0100
0000
,
0001
0000
1000
0000
,
0001
0001
1000
0000
,
1000
0000
0001
0000
,
0100
0010
0002
0000
,
1003
0000
0110
1001
,
0110
0000
0010
0000
,
1000
0000
0101
1010
,
0101
0000
0010
0000
,
0010
0000
0110
1001
,
0110
0000
0010
0000
,
2000
3000
0002
0003
,
0200
0300
0020
0030
,
0110
0010
1000
0001
,
0100
0001
0010
0001
,
0101
0001
1000
0010
,
1000
0001
0100
0001
,
1010
0100
0001
0100
,
1000
0100
0001
0100
,
1100
1000
0100
0000
,
0010
0001
0100
0000
,
0010
0000
0100
0000
,
0001
0000
0010
0000
,
0001
0000
1000
0000
,
0010
0000
0001
0000
,
0010
0000
0100
0000
,
1000
1000
0010
0000
,
0001
0010
0100
0000
,
1000
0010
0001
0000
,
0001
1000
0001
0000
,
1000
0001
0100
0000
,
0010
0100
0010
0000
,
0100
0010
0001
0000
,
1000
0010
0100
0000
,
0010
0100
0001
0000
,
0001
0100
0001
0000
,
1000
0010
1000
2000
,
0000
0000
3000
0000
,
1001
1000
0100
0010
,
0001
0010
1000
0010
,
0011
0010
0100
1000
,
0100
0010
0001
0010
,
1100
0001
0010
0001
,
0100
0001
0010
0001
,
0101
0100
0001
0000
,
1000
0010
0001
0000
,
0110
0100
0001
1000
,
0010
1000
0100
1000
,
1010
1000
0001
0100
,
0001
1000
0010
1000
,
0101
0010
1000
0010
,
0001
0010
1000
0010
,
0011
0001
0010
0000
,
0100
1000
0010
0000
,
0100
0000
0000
1000
,
0000
0000
0000
0000
,
0001
0000
0000
0100
,
0000
0000
0000
0000
,
0100
0000
0000
0010
,
0000
0000
0000
0000
,
1000
0000
0000
0001
,
0000
0000
0002
0000
,
0000
0000
0003
0000
;

//---------------dance-single - ----------------
#NOTES:
     dance-single:
     :
     Beginner:
     3:
     0.196,0.229,0.047,0.016,0.000:
0000
0000
0000
0000
,
0000
0000
0000
0000
,
0000
0000
0000
0000
,
0000
0000
0000
0000
,
0000
0000
0000
0000
,
0000
0000
0000
0000
,
0000
0000
0000
0000
,
0000
0000
0000
0000
,
0000
0000
0000
0000
,
0000
0000
0000
0000
,
0001
0000
1000
0000
,
0001
0000
1000
0000
,
0010
0000
0100
0000
,
0100
0000
0010
0000
,
1000
0000
0001
0000
,
1000
0000
0001
0000
,
1000
1000
1000
0000
,
0010
0010
0010
0000
,
1000
0000
0010
0000
,
1000
0000
0100
0000
,
0010
0000
0001
0000
,
0100
0000
0001
0000
,
0010
0000
0001
0000
,
0100
0000
0010
0000
,
1000
0000
0001
0000
,
1001
0110
0000
0000
,
0010
0000
0010
0010
,
0010
0000
1000
0000
,
0010
0000
1000
1000
,
1000
0000
0001
0000
,
0100
0000
0001
0001
,
0001
0000
1000
0000
,
0010
0000
0100
0000
,
0110
0000
0010
0000
,
1001
0000
0000
0001
,
1000
0001
0000
0100
,
0010
0100
0000
0010
,
1000
0010
0000
0100
,
0001
0100
0000
0001
,
0010
0001
0000
1000
,
0100
1000
0000
0010
,
0100
0010
0000
0000
,
0010
0000
0001
0000
,
1000
0000
0010
0000
,
0100
0000
0010
0000
,
1000
0000
0001
0000
,
0100
0000
0001
0000
,
0100
0000
0010
0000
,
1000
0000
0001
0000
,
0100
0000
0001
0001
,
0001
0000
1000
0000
,
0010
0000
0010
0010
,
0010
0000
0001
0000
,
1000
0000
1000
0000
,
1001
0000
0010
0000
,
0100
0000
0001
0000
,
0100
0000
0010
0000
,
1000
0000
0002
0000
,
0003
0000
0100
0000
,
1001
0000
0000
1000
,
0001
1000
0000
0010
,
0100
0010
0000
0100
,
0001
0100
0000
0010
,
1000
0010
0000
1000
,
0100
1000
0000
0001
,
0010
0001
0000
0100
,
0010
0100
0000
1000
,
0010
1000
0000
0001
,
0100
0001
0000
0100
,
0010
0100
0000
0001
,
1000
0001
0000
1000
,
0100
1000
0000
0010
,
0001
0010
0000
0100
,
0001
0100
0000
0010
,
0100
0010
0000
1000
,
0001
1000
0000
0001
,
0000
0000
0000
0000
,
0010
0000
0000
1000
,
0000
0000
0000
0000
,
0010
0000
0000
1000
,
0000
0000
0000
0000
,
0100
0000
0000
0001
,
0000
0000
0002
0000
,
0000
0000
0003
0000
;

//---------------dance-single - ----------------
#NOTES:
     dance-single:
     :
     Medium:
     8:
     0.370,0.393,0.031,0.071,0.043:
0000
0000
0000
0000
,
0000
0000
0000
0000
,
0000
0000
0000
0000
,
0000
0000
0000
0000
,
0000
0000
0000
0000
,
0000
0000
0000
0000
,
0000
0000
0000
0000
,
0000
0000
0000
0000
,
0000
0000
0000
0000
,
0000
0000
0000
0000
,
1000
0000
0010
1000
0010
0000
0100
0000
,
0010
0000
0100
0010
0001
0000
0001
0000
,
0100
0000
0001
1000
0010
0000
0100
0000
,
0001
0000
1000
0001
1000
0000
0010
0000
,
0001
0000
0100
0001
0100
0000
0010
0000
,
0100
0000
0010
0100
1000
0000
1000
0000
,
0010
1001
0100
0110
,
1000
1010
0000
0000
,
0010
0000
0001
0100
0001
0000
1000
0000
,
0010
0000
0100
0001
1000
0000
0010
0000
,
0100
0000
0010
0100
0001
0000
1000
0000
,
0001
0000
1000
0010
0100
0000
0010
0000
,
0100
0000
0010
0100
0010
0000
1000
0000
,
0100
0000
1000
0100
0010
0000
0100
0000
,
0010
0000
0001
0010
0001
0000
0100
0000
,
0002
2003
3002
0000
,
0013
0000
0000
0100
0010
0000
0100
0000
,
0000
0010
1000
0001
,
1000
0000
0000
0010
0100
0000
0010
0000
,
0000
0001
0100
0010
,
0100
0000
0000
0010
0100
0000
0010
0000
,
0000
0000
0100
0000
0001
0000
1000
0010
,
0001
0000
0010
0100
0010
0000
0100
0001
,
1000
0000
1000
0001
0010
0000
0100
0000
,
1000
0000
0010
1000
0010
0000
0100
0000
,
0010
0000
0100
0010
0100
0000
0001
0000
,
0010
0000
0001
0100
0010
0000
1000
0000
,
0001
0000
0100
0001
0100
0000
0010
0000
,
0100
0000
1000
0100
1000
0000
0001
0000
,
1000
0000
0001
1000
0001
0000
0010
0000
,
1000
0000
0010
0001
1000
0000
0100
0000
,
0010
0000
0001
0010
0001
0000
1000
0000
,
0001
0000
0000
0001
0000
0000
0000
0000
0010
0000
0000
0010
0000
0000
0000
0000
,
0200
0000
0000
0000
0300
0000
0000
0000
1000
0000
0000
1000
0000
0000
0000
0000
,
0020
0000
0000
0000
0030
0000
0000
0000
1000
0000
0000
1000
0000
0000
0000
0000
,
0200
0000
0000
0000
0300
0000
0000
0000
0010
0000
0000
0010
0000
0000
0000
0000
,
0002
0000
0000
0000
0003
0000
0000
0000
0010
0000
0000
0010
0000
0000
0000
0000
,
1000
0000
0000
0000
0010
0000
0000
0000
1000
0000
0000
1000
0000
0000
0000
0000
,
0100
0010
0100
0000
0010
0100
0010
0000
,
0001
2000
0001
3001
,
1000
0000
0000
0100
0010
0000
0100
0000
,
0100
0001
1000
0010
,
0010
0000
0000
1000
0001
0000
1000
0000
,
0010
0100
0001
1000
,
0010
0000
0000
0001
1000
0000
0010
0000
,
1000
0000
0000
0100
0010
0000
0001
1000
,
0001
0000
0100
0010
1000
0000
0010
0100
,
0001
0000
1000
0001
1000
0000
0001
0000
,
0000
0000
0000
0000
0010
0100
0010
0000
,
1001
0000
0010
0001
0010
0000
1000
0000
,
0010
0000
1000
0010
1000
0000
0100
0000
,
0010
0000
0100
1000
0010
0000
0001
0000
,
0100
0000
1000
0100
1000
0000
0010
0000
,
1000
0000
0001
1000
0001
0000
0100
0000
,
0001
0000
0100
0001
0100
0000
0010
0000
,
0001
0000
0010
0100
0001
0000
1000
0000
,
0010
0000
0100
0010
0100
0000
0001
0000
,
0001
0000
0100
0001
0100
0000
0010
0000
,
0100
0000
0010
0100
0010
0000
1000
0000
,
0100
0000
1000
0010
0100
0000
0001
0000
,
1000
0000
0010
1000
0010
0000
0100
0000
,
0010
0000
0001
0010
0001
0000
1000
0000
,
0001
0000
1000
0001
1000
0000
0100
0000
,
0001
0000
0100
1000
0001
0000
0010
0000
,
0100
0000
1000
0100
1000
0000
0001
0000
,
1000
0000
0000
1000
0000
0000
0010
0000
,
0000
0000
0000
0000
0000
0000
0000
0000
0000
0000
0100
0000
0000
0010
0000
0000
,
0100
0000
0000
0001
0000
0000
1000
0000
,
0000
0000
0000
0000
0000
0000
0000
1000
0000
0000
1000
0000
0000
1000
0000
0000
,
0001
0000
0000
0001
0000
0000
0100
0000
,
0000
0000
0000
0000
0000
0000
0000
0000
0100
0000
0000
0010
0000
0000
0100
0000
,
0010
0000
0000
1000
0000
0000
0001
0000
,
0000
0000
0200
0000
,
0000
0000
0300
0000
;

//---------------dance-single - ----------------
#NOTES:
     dance-single:
     :
     Hard:
     13:
     0.481,0.688,0.094,0.094,0.153: // measure 1
0000
0000
0000
0000
,  // measure 2
0000
0000
0000
0000
,  // measure 3
0010
0000
0000
0100
0000
0000
0001
0000
,  // measure 4
0000
0000
0000
0000
0000
0000
0000
0000
0000
0000
1000
0000
0000
0010
0000
0000
,  // measure 5
1000
0000
0000
0010
0000
0000
0100
0000
,  // measure 6
0000
0000
0000
0000
0000
0000
0000
0010
0000
0000
0100
0000
0000
0010
0000
0000
,  // measure 7
0001
0000
0000
0100
0000
0000
0010
0000
,  // measure 8
0000
0000
0000
0000
0000
0000
0000
1000
0000
0000
0100
0000
0000
0010
0000
0000
,  // measure 9
0001
0000
0000
1000
0000
0000
1000
0000
,  // measure 10
0000
0000
0000
0000
0000
0000
0000
0100
,  // measure 11
0010
0000
0100
0010
1000
0000
0000
1000
,  // measure 12
0001
0000
0100
0010
0001
0000
0000
0001
,  // measure 13
0100
0000
0001
0010
0100
1000
0010
0100
,  // measure 14
0000
0010
0000
0100
0000
0000
0100
0010
,  // measure 15
0100
0000
0010
0100
0001
0000
0000
0001
,  // measure 16
1000
0000
0010
0100
1000
0000
0000
0000
,  // measure 17
1000
0001
0000
0000
0001
1000
0000
0000
0010
0100
0000
0000
0100
0010
0000
0000
,  // measure 18
0010
0100
0000
0000
1001
0000
0000
0000
0000
0000
0000
0000
0001
1000
0000
0000
,  // measure 19
0001
0000
0100
0010
1000
0000
1000
0100
,  // measure 20
0010
0000
0000
0000
0100
0000
0000
0000
0010
0000
0000
0000
1000
0010
0000
0000
,  // measure 21
0100
0000
0010
0100
0010
0000
0100
0010
,  // measure 22
0001
0000
0001
0000
0010
0001
0100
1000
,  // measure 23
0010
0000
0000
1000
0010
1000
0010
0200
,  // measure 24
0000
0000
0000
0000
0301
0000
0000
0010
,  // measure 25
0001
0000
0100
0010
1000
0010
0000
1000
,  // measure 26
0020
2030
3002
0000
,  // measure 27
1003
0000
0000
0010
1000
0000
0010
0000
,  // measure 28
0001
0010
0100
1000
0010
0000
0100
0000
,  // measure 29
0001
0000
0000
0001
0100
0000
0010
0000
,  // measure 30
0000
0000
0000
0000
0001
0100
0001
0000
1000
0000
0010
0000
1000
0000
0010
0000
,  // measure 31
0100
0000
0000
0100
0010
0000
1000
0000
,  // measure 32
1000
0100
0001
0100
1000
0000
0001
0100
,  // measure 33
0001
0000
1000
0010
1000
0000
0010
0100
,  // measure 34
0010
0000
1000
0010
0100
0000
1001
0000
,  // measure 35
0001
0000
0001
0100
0001
1000
0010
0000
,  // measure 36
1000
0100
0010
1000
0001
0000
0100
0000
,  // measure 37
0010
0000
1000
0001
0100
0001
1000
0000
,  // measure 38
0010
1000
0010
1000
0001
0000
0101
0000
,  // measure 39
0100
0000
0100
1000
0100
0001
0010
0000
,  // measure 40
0001
1000
0010
0001
0100
0000
1000
0000
,  // measure 41
0010
0000
0101
0000
1000
0000
0001
1000
,  // measure 42
0010
0000
0010
0001
0100
0000
1100
0000
,  // measure 43
1000
0000
0000
0010
0000
0000
0000
0000
0010
0000
0000
1000
0000
0000
0000
0000
,  // measure 44
0020
0000
0000
0000
0030
0000
0000
0000
0100
0000
0000
0010
0000
0000
0000
0000
,  // measure 45
0002
0000
0000
0000
0003
0000
0000
0000
0001
0000
0000
1000
0000
0000
0000
0000
,  // measure 46
2000
0000
0000
0000
3000
0000
0000
0000
1000
0000
0000
1000
0000
0000
0000
0000
,  // measure 47
0200
0000
0000
0000
0300
0000
0000
0000
0100
0000
0000
0010
0000
0000
0000
0000
,  // measure 48
0010
0000
0000
0000
0100
0000
0000
0000
0001
0000
0000
1000
0000
0000
0000
0000
,  // measure 49
0010
1000
0010
0001
0010
1000
0010
0001
,  // measure 50
0000
0000
0200
0000
0000
0000
0300
0000
0001
0100
0001
0000
1000
0010
1000
0000
,  // measure 51
0001
0000
0100
0001
0100
0000
0010
0000
1000
0000
0100
1000
0000
0000
0001
0000
,  // measure 52
1000
0000
0010
1000
0001
0100
0010
1000
0001
0000
0100
0001
0000
0000
0100
0000
,  // measure 53
0001
0100
0010
0000
1000
0000
0010
0000
1000
0010
0100
0000
0001
0000
0100
0001
,  // measure 54
1000
0000
0010
1000
0010
1000
0001
0000
0100
0000
0000
0001
0000
0000
0000
0000
,  // measure 55
0100
0000
0000
0010
1000
0000
0010
0000
,  // measure 56
0100
0000
0001
1000
0010
0000
0100
0010
,  // measure 57
0100
0000
0010
0100
1000
0000
1000
0010
,  // measure 58
0001
0000
1000
0001
1000
0000
0220
0000
,  // measure 59
0000
0000
0330
0000
0100
0010
0100
0010
,  // measure 60
1000
0000
1000
0010
1000
0001
0100
0000
,  // measure 61
0001
0010
0100
0001
1000
0000
0010
0000
,  // measure 62
0100
0000
0001
1000
0010
1000
0001
0000
,  // measure 63
0100
0001
0100
0001
1000
0000
1010
0000
,  // measure 64
0010
0000
0010
0001
0010
1000
0100
0000
,  // measure 65
1000
0001
0100
1000
0010
0000
0001
0000
,  // measure 66
0100
0000
1010
0000
0001
0000
1000
0001
,  // measure 67
0100
0000
0100
1000
0010
0000
0011
0000
,  // measure 68
0010
0000
0010
0001
0010
0100
1000
0000
,  // measure 69
0100
0001
1000
0100
0010
0000
0001
0000
,  // measure 70
1000
0000
0100
0010
0001
0010
0100
0000
,  // measure 71
1000
0100
1000
0100
0010
0000
0011
0000
,  // measure 72
0001
0000
0001
0100
0001
0010
1000
0000
,  // measure 73
0010
0100
1000
0010
0001
0000
0100
0000
,  // measure 74
1000
0000
0011
0000
0100
0000
0010
0100
,  // measure 75
1000
0000
1000
0010
0001
0000
0101
0000
,  // measure 76
0100
0000
0000
0010
0000
0000
1000
0000
,  // measure 77
0000
0000
0000
0000
0000
0000
0000
0000
0000
0000
0001
0000
0000
0100
0000
0000
,  // measure 78
0001
0000
0000
0100
0000
0000
0010
0000
,  // measure 79
0000
0000
0000
0000
0000
0000
0000
0100
0000
0000
0010
0000
0000
0100
0000
0000
,  // measure 80
1000
0000
0000
0010
0000
0000
0100
0000
,  // measure 81
0000
0000
0000
0000
0000
0000
0000
0001
0000
0000
0010
0000
0000
0100
0000
0000
,  // measure 82
1000
0000
0000
0001
0000
0000
0001
0000
,  // measure 83
0000
0000
2000
0000
,  // measure 84
0000
0000
3000
0000
;
