#TITLE:LOVE DIVE;
#SUBTITLE:;
#ARTIST:IVE;
#TITLETRANSLIT:;
#SUBTITLETRANSLIT:;
#ARTISTTRANSLIT:;
#CREDIT:;
#BANNER:LOVE DIVE.png;
#BACKGROUND:LOVE DIVE-bg.png;
#LYRICSPATH:;
#CDTITLE:;
#MUSIC:LOVE DIVE.mp3;
#OFFSET:-0.280;
#SAMPLESTART:57.227;
#SAMPLELENGTH:15.000;
#SELECTABLE:YES;
#BPMS:0.000=118.000;
#STOPS:;
#BGCHANGES:;

//---------------dance-single - ----------------
#NOTES:
     dance-single:
     :
     Easy:
     4:
     0.232,0.304,0.072,0.341,0.000:
0000
0000
0000
0000
,
0000
0000
0000
0000
,
0000
0000
0000
0000
,
0000
0000
0000
0000
,
0110
0000
0100
0010
,
1000
0000
0001
0000
,
0100
0000
0010
0100
,
0001
0000
0010
0000
,
1001
0000
0001
0010
,
0100
0000
0100
0000
,
1000
0000
0100
0010
,
1000
0000
0100
0000
,
1010
2000
3200
0320
,
0032
0003
0010
0100
,
0001
0002
0023
0032
,
0203
0300
0100
0010
,
0100
0020
2030
3002
,
0203
0300
0010
0100
,
0110
0000
1001
0000
,
0100
0010
0001
0000
,
0000
0100
0001
0010
,
0000
0100
0010
1000
,
0000
0100
1000
0100
,
0000
0010
0001
0010
,
0000
0001
0000
0100
,
0000
0001
0000
1000
,
0000
0010
0000
0001
,
0000
0010
0000
1000
,
1001
2000
3200
0320
,
0032
0003
0100
0001
,
0100
0002
0023
0230
,
2300
3000
0010
1000
,
0010
0200
0302
2003
,
3020
0030
0000
0010
,
0000
1000
0000
0001
,
0000
0010
0000
0001
,
0100
0000
0010
0000
,
1000
0010
0100
0000
,
1000
0000
0010
0000
,
0010
1000
0001
0000
,
0100
0000
0010
0000
,
1000
0001
0100
0000
,
0010
0000
0100
0000
,
0001
0010
0100
1000
,
1001
0002
0023
0230
,
2300
3000
0010
1000
,
0010
2000
3200
0320
,
0032
0003
0100
0001
,
0100
0020
2030
3002
,
0203
0300
0000
0100
,
0000
0001
0000
1000
,
0000
0100
0000
2002
,
3003
0000
0000
0000
;

//---------------dance-single - ----------------
#NOTES:
     dance-single:
     :
     Beginner:
     2:
     0.150,0.210,0.072,0.018,0.000:
0000
0000
0000
0000
,
0000
0000
0000
0000
,
0000
0000
0000
0000
,
0000
0000
0000
0000
,
0000
0001
0000
0001
,
0000
1000
0000
1000
,
0000
0001
0000
0001
,
0000
0100
0000
0100
,
0000
0010
0000
0010
,
0000
1000
0000
1000
,
0000
0100
0000
0100
,
0000
0001
0000
0001
,
0000
0010
0010
0010
,
0000
0100
0000
0010
,
0000
1000
1000
1000
,
0000
0001
0000
0100
,
0000
0001
0001
0001
,
0000
0100
0000
0010
,
0000
0110
0000
1001
,
0000
0010
0010
0010
,
0000
0100
0000
0010
,
0000
1000
0000
0010
,
0000
0100
0000
0001
,
0000
0010
0000
0001
,
0000
1000
0000
1000
,
0000
0010
0000
0100
,
0000
0100
0000
0100
,
0000
0010
0010
0010
,
0000
0001
1000
0001
,
0000
0100
0010
0100
,
0000
0010
0100
0010
,
0000
1000
0010
1000
,
0000
0010
0001
0010
,
0000
1001
0110
1001
,
0000
0100
0000
0100
,
0000
0001
0001
0001
,
0000
0000
0010
0000
,
0000
0000
1000
0000
,
0000
0000
0001
0000
,
0000
0000
0100
0000
,
0000
0000
0010
0000
,
0000
0000
0001
0000
,
0000
0000
1000
0000
,
0200
0000
0000
0300
,
0000
1000
0001
1000
,
0000
0010
0100
0010
,
0000
0100
0010
0100
,
0000
0001
0100
0001
,
0000
0100
1000
0100
,
0000
1001
0110
1001
,
0000
0010
0000
0010
,
0000
1000
1000
2000
,
3000
0000
0000
0000
;

//---------------dance-single - ----------------
#NOTES:
     dance-single:
     :
     Medium:
     6:
     0.343,0.374,0.144,0.530,0.000:
0000
0000
0000
0000
,
0000
0000
0000
0000
,
0000
0000
0000
0000
,
0000
0000
0000
0000
,
1000
0000
1000
0000
0000
0010
0000
0000
,
1000
0000
0001
0000
0000
0100
0000
0000
,
0100
0000
0010
0000
0000
0010
0000
0000
,
0100
0000
1000
0000
0000
0100
0000
0000
,
0001
0000
0001
0000
0000
0100
0000
0000
,
0001
0000
1000
0000
0000
0010
0000
0000
,
0010
0000
0100
0000
0000
0100
0000
0000
,
0010
0000
0001
0000
0000
0010
0000
0000
,
0100
0200
0320
2030
,
3002
1003
0010
0100
,
0001
0002
0023
0230
,
2300
3010
1000
0100
,
0010
2000
3020
0230
,
0302
0000
0013
0000
0001
0000
0100
0001
,
0101
0000
0100
1000
1100
0000
1000
0000
,
0100
0001
0010
1000
,
1000
0010
1000
0001
,
0100
0001
0100
0010
,
1000
0010
1000
0010
,
0100
0100
0100
0000
,
0001
0100
0001
1000
,
0010
1000
0010
0100
,
0001
0100
0001
0100
,
0010
0010
0010
0000
,
1001
0020
0230
0302
,
2003
0000
3001
1000
0001
1000
0010
0000
,
1000
2000
3200
2300
,
3200
0000
1300
0100
0010
0001
0010
0000
,
0011
0002
0203
0320
,
2030
0000
3010
1000
0010
0100
0001
0000
,
0100
0010
0100
0001
,
1000
0010
0000
0010
0100
0000
0110
0000
,
2000
3000
2000
3000
2010
3000
0000
0000
,
0200
0300
0200
0300
0210
0300
0000
0000
,
0002
0003
0002
0003
0102
0003
0000
0000
,
0002
0003
0002
0003
1002
0003
0000
0000
,
0002
0003
0002
0003
0102
0003
0000
0000
,
0020
0030
0020
0030
0120
0030
0000
0000
,
2000
3000
2000
3000
2010
3000
0000
0000
,
1000
0010
0000
0010
1000
0000
1001
0000
,
1001
0200
0320
2030
,
3002
0000
1003
0001
1000
0001
0100
0000
,
0001
0002
0023
0032
,
0023
0000
0031
0010
0100
1000
0100
0000
,
1100
2000
3020
0230
,
0302
0000
0103
0001
0100
0010
1000
0000
,
0010
0100
0010
1000
,
0001
0100
0000
0100
0010
0000
0220
0000
,
0330
0000
0000
0000
;

//---------------dance-single - ----------------
#NOTES:
     dance-single:
     :
     Hard:
     10:
     0.408,0.374,0.153,0.341,0.031: // measure 1
0000
0000
0000
0000
,  // measure 2
0000
0000
0000
0000
,  // measure 3
0000
0000
0000
0000
,  // measure 4
0000
0000
0000
0110
,  // measure 5
0000
0001
0010
0100
1000
0100
1000
0000
,  // measure 6
0010
1000
0001
0100
0001
0010
1000
0010
,  // measure 7
0000
1000
0010
0100
0001
0100
0010
0000
,  // measure 8
1000
0010
0001
0010
1000
0100
0001
0100
,  // measure 9
0000
0000
0100
0010
0100
1000
0010
0000
,  // measure 10
0001
0100
0001
0100
0010
1000
0010
0000
,  // measure 11
0000
0000
0001
0010
1000
0010
0001
0000
,  // measure 12
0001
0010
0100
0010
0001
1000
0100
0000
,  // measure 13
1010
2000
3100
0020
,  // measure 14
0031
0000
0100
0000
0010
0100
0001
1000
,  // measure 15
0010
0020
1030
0002
,  // measure 16
0103
0000
0000
0000
0001
0000
0000
0000
0001
0000
0001
0010
0100
0000
1000
0000
,  // measure 17
0010
2000
3100
0020
,  // measure 18
1030
0000
0000
1010
0000
0000
0010
0100
,  // measure 19
1000
0000
0100
0010
0001
0100
0001
0100
,  // measure 20
0010
1000
0001
0100
0001
1000
0001
0010
,  // measure 21
0100
1000
0000
0010
0000
1001
0000
0010
,  // measure 22
0100
0010
0000
0100
0000
0110
0000
0100
,  // measure 23
0001
1000
0000
0010
0000
0001
0000
0101
,  // measure 24
0000
0000
0001
0000
1000
0010
1000
0100
,  // measure 25
0010
0001
0000
0100
0000
1001
0000
0100
,  // measure 26
0010
0100
0000
0010
0000
0110
0000
0010
,  // measure 27
1000
0000
0001
1000
0000
0000
0100
0000
0010
0000
1000
0010
0000
0000
0000
0000
,  // measure 28
0001
0010
0000
0100
1000
0000
1001
0000
,  // measure 29
0110
0002
0103
0020
,  // measure 30
0031
0000
0000
0000
0001
0000
0100
0001
0100
0000
0010
0000
1000
0000
0010
1000
,  // measure 31
0000
2000
3100
0020
,  // measure 32
0130
0000
1000
0010
0001
0100
0001
0010
,  // measure 33
1000
0002
0013
0200
,  // measure 34
1300
0001
0010
1000
0010
0001
0010
0000
,  // measure 35
0010
0000
0001
0200
0010
0000
0310
0000
,  // measure 36
0010
0100
0000
0010
0100
0000
1001
0000
,  // measure 37
2000
3000
0020
0030
2000
3000
0020
0030
,  // measure 38
1000
0010
0000
0100
0001
0000
0101
0000
,  // measure 39
0002
0003
0020
0030
0200
0300
2000
3000
,  // measure 40
1000
0100
0000
0010
0001
0000
0101
0000
,  // measure 41
0002
0003
0200
0300
0002
0003
0200
0300
,  // measure 42
0001
0100
0000
0010
1000
0000
1010
0000
,  // measure 43
2000
3000
0200
0300
0020
0030
0002
0003
,  // measure 44
0001
0010
0000
0100
1000
0000
1010
0000
,  // measure 45
0110
2000
3010
0200
,  // measure 46
1300
0000
0000
0000
1000
0000
0010
1000
0010
0000
0100
0000
0001
0000
0100
0001
,  // measure 47
0000
0002
0013
0200
,  // measure 48
0310
0000
0001
0100
1000
0010
1000
0100
,  // measure 49
0001
2000
3100
0020
,  // measure 50
0031
1000
0100
0001
0100
1000
0100
0000
,  // measure 51
0100
0000
1000
0020
0100
0000
0130
0000
,  // measure 52
0100
0010
0000
0100
0010
0000
2002
0000
,  // measure 53
3003
0000
0000
0000
;
