#TITLE:LOCO;
#SUBTITLE:;
#ARTIST:ITZY;
#TITLETRANSLIT:;
#SUBTITLETRANSLIT:;
#ARTISTTRANSLIT:;
#CREDIT:;
#BANNER:LOCO.png;
#BACKGROUND:LOCO-bg.png;
#LYRICSPATH:;
#CDTITLE:;
#MUSIC:LOCO.mp3;
#OFFSET:0.320;
#SAMPLESTART:48.460;
#SAMPLELENGTH:15.000;
#SELECTABLE:YES;
#BPMS:0.000=102.010,84.000=204.020,252.000=102.010,268.000=204.020;
#STOPS:;
#BGCHANGES:0.420=LOCO.avi=1.000=0=0=0,
99999=-nosongbg-=1.000=0=0=0 // don't automatically add -songbackground-
;

//---------------dance-single - ----------------
#NOTES:
     dance-single:
     :
     Easy:
     5:
     0.277,0.384,0.151,0.136,0.019:
0000
0000
0000
0000
,
0000
0000
0000
0000
,
0000
0000
0000
0000
,
0000
0000
0000
0000
,
0000
0000
0000
0000
,
1000
0000
0000
0010
0000
0000
0000
0100
,
0010
0000
0000
0001
0000
0000
0000
0010
,
0100
0000
0000
0000
1000
0000
0000
1000
,
0001
0000
0000
0000
0010
0000
0000
0100
,
0010
0000
0000
0000
0001
0000
0000
0001
,
1000
0000
0000
0000
0010
0000
0000
0010
,
1000
0000
0000
0000
1000
0000
0000
1000
,
0100
0000
0220
0000
,
0330
0010
1000
1000
,
0000
0010
0100
0010
,
0000
1000
0010
1000
,
0000
0001
0100
0001
,
0100
0000
0000
0000
0000
0000
0000
0000
0010
0000
0000
0100
0000
0000
0000
0000
,
0010
0000
0000
1000
0000
0000
0000
0000
1000
0000
0000
0010
0000
0000
0000
0000
,
0100
0000
0000
0001
0000
0000
0000
0000
0001
0000
0000
1000
0000
0000
0000
0000
,
2002
0000
0000
0000
3003
0000
1000
0001
,
1000
0010
1000
0000
,
0001
0100
0001
0001
,
2000
0000
0000
3010
,
0000
0100
0010
0100
,
0101
0000
0110
0000
,
1010
0000
1000
0000
,
1000
0010
0100
0000
,
0010
0100
0001
0100
,
0002
0000
0103
0000
,
0001
1000
0010
1000
,
0020
0000
0000
0130
,
0000
1000
0010
0100
,
1010
0000
0010
0000
,
0101
0000
0010
0000
,
0010
0100
0010
0001
,
0010
0100
0010
0001
,
1001
0000
0000
0010
,
1000
0000
0000
1000
,
0001
0000
0000
0010
,
0100
0000
0000
0010
,
1000
0000
0000
1000
,
0001
0000
0000
1000
,
0001
0000
0000
0010
,
0220
0330
0000
0000
,
1000
0000
0010
0000
,
1000
0000
0001
0000
,
0100
0001
0100
0000
,
0010
0100
0001
0000
,
1000
0000
0010
0000
,
0100
0010
1000
0000
,
1000
0010
1000
0000
,
1000
0000
0001
0000
,
1001
0000
0100
0000
,
0001
0000
1000
0000
,
0010
1000
0010
0000
,
0100
0010
1000
0000
,
0001
0000
0100
0000
,
0010
0100
0001
0000
,
0001
0100
0001
0000
,
1000
0010
1000
0010
,
2002
0000
0000
0000
,
0000
0000
0000
3003
,
1001
0010
0100
0010
,
0110
0100
0001
0100
,
0101
0010
1000
0100
,
1100
0000
0010
0000
,
0001
0100
0001
0000
,
1000
0010
1000
1000
,
0002
0000
0000
0103
,
0000
0010
0100
0010
,
1010
0000
0110
0000
,
0101
0000
0001
0000
,
0001
0100
0010
0000
,
0100
0010
1000
0010
,
2000
0000
3010
0000
,
1000
0010
1000
0010
,
0000
0100
0010
0100
,
0001
0000
0000
0100
0000
0000
0001
0000
,
0002
0000
0103
0000
,
0001
0100
0001
0100
,
0000
0010
0100
0010
,
1000
0000
0000
0010
0000
0000
1000
0000
,
2002
0000
3003
0000
,
1000
0001
0100
0220
,
0330
0000
0000
0000
;

//---------------dance-single - ----------------
#NOTES:
     dance-single:
     :
     Beginner:
     2:
     0.157,0.256,0.105,0.090,0.000:
0000
0000
0000
0000
,
0000
0000
0000
0000
,
0000
0000
0000
0000
,
0000
0000
0000
0000
,
0000
0000
0000
0000
,
1001
0000
0010
0000
,
0100
0000
0001
0000
,
0110
0000
0001
0000
,
0100
0000
0010
0000
,
0100
0000
1000
0000
,
0010
0000
0100
0000
,
0001
0000
0001
0000
,
1000
0000
2002
3003
,
0000
0001
0000
0100
,
0000
0001
0000
1000
,
0000
0010
0000
1000
,
0000
0010
0000
0200
,
0300
0000
0010
0000
,
1000
0000
0001
0000
,
0100
0000
0001
0000
,
0100
0000
0220
0330
,
0110
0000
0000
0000
,
0010
0000
0000
0000
,
1000
0000
1000
0000
,
1000
0000
0000
0000
,
0001
0000
0000
0000
,
0100
0000
0000
0000
,
0001
0000
0001
0000
,
0001
0000
0000
0000
,
0100
0000
0000
0000
,
0010
0000
0000
0000
,
0100
0000
0100
0000
,
0100
0000
0000
0000
,
0010
0000
0100
0000
,
0010
0000
0010
0000
,
0010
0000
0000
0000
,
1000
0000
0000
0000
,
1001
0000
0000
0000
,
1000
0000
0000
0000
,
0110
0000
0000
0000
,
0010
0000
0000
0000
,
0101
0000
0000
0000
,
0010
0000
0000
0000
,
1010
0000
0000
0000
,
2002
3003
0000
0000
,
1000
0000
0010
0000
,
1000
0000
0000
0000
,
0001
0000
0100
0000
,
0001
0000
0000
0000
,
0100
0000
0010
0000
,
0100
0000
0000
0000
,
0010
0000
1000
0000
,
0010
0000
0000
0000
,
0100
0000
0001
0000
,
0100
0000
0000
0000
,
0001
0000
1000
0000
,
0001
0000
0000
0000
,
1000
0000
0010
0000
,
1000
0000
0000
0000
,
0100
0000
0001
0000
,
0100
0000
0001
0000
,
0200
0000
0000
0000
,
0000
0000
0000
0000
,
0300
0100
0100
0100
,
0000
0001
0001
0001
,
0000
0010
0010
0010
,
0000
0000
0220
0330
,
0110
0000
0000
0000
,
0100
0000
0000
0000
,
0001
0000
0001
0000
,
0001
0000
0000
0000
,
1000
0000
0000
0000
,
0010
0000
0000
0000
,
1000
0000
1000
0000
,
1000
0000
0000
0000
,
0010
0000
0000
0000
,
0100
0000
0000
0000
,
0010
0000
0010
0000
,
0010
0000
0000
0000
,
1000
0000
0000
0000
,
0001
0000
0000
0000
,
1000
0000
1000
0000
,
1000
0000
0000
0000
,
1000
0000
0000
0000
,
0001
0000
1001
2002
,
3003
0000
0000
0000
;

//---------------dance-single - ----------------
#NOTES:
     dance-single:
     :
     Medium:
     8:
     0.397,0.416,0.196,0.121,0.023:
0000
0000
0000
0000
,
0000
0000
0000
0000
,
0000
0000
0000
0000
,
0000
0000
0000
0000
,
0000
0000
0000
0000
0000
0000
0000
0001
,
0100
0000
0000
0000
0010
0000
0000
0000
0100
0000
0000
0001
0000
0100
0000
0001
,
0000
0000
0000
0010
0000
0000
1000
0010
,
0100
0000
0000
0000
1000
0000
0000
0000
0010
0000
0000
1000
0000
0010
0000
1000
,
0000
0010
0100
0001
,
0100
0000
0010
0100
0010
0000
0000
1000
,
0001
0000
1000
0001
0100
0000
0000
0010
,
0100
0000
0100
0010
0100
0000
0000
0100
,
0001
0000
0001
0010
2000
0000
3000
0000
,
1000
0000
0010
0000
0100
0010
1000
0000
,
0001
0000
0100
0000
0010
0100
1000
0000
,
0010
0000
0100
0000
0010
1000
0001
0000
,
0100
0001
0100
0010
1000
0010
1000
0000
,
0010
0000
0100
0001
0100
0000
0010
0000
,
1000
0000
0010
0100
1000
0000
1000
0000
,
0010
0000
1000
0010
0001
0000
0100
0000
,
0001
0100
0001
0100
0010
1000
0010
1000
,
2002
0000
0000
0000
3003
0000
0000
1000
,
0000
0010
0000
1000
0010
0000
1000
0000
,
0020
0000
0000
0130
,
0000
0000
0000
1000
0001
1000
0001
0000
,
1000
0001
1000
0001
,
1000
0000
0001
1000
0000
1001
0000
0000
,
0010
0000
0100
0000
0010
0000
1000
0010
,
0000
1010
0000
0000
0010
0000
1000
0000
,
0220
0000
0000
0000
0330
0000
0000
0010
,
0000
0100
0000
0001
1000
0000
0010
0000
,
2000
0000
0000
3001
,
0000
0000
0000
1000
0010
0001
0010
0000
,
0001
1000
0001
1000
,
0001
0000
1000
0001
0000
1001
0000
0000
,
1000
0100
0000
0010
0000
0001
0000
0000
,
0001
0100
0000
0001
0000
0101
0000
0000
,
0110
0000
0100
0010
0100
0000
0010
0000
,
1000
0001
0100
0000
,
0101
0000
0001
1000
0100
0000
1000
0000
,
0010
0100
0010
0000
,
1100
0000
1000
0010
0100
0000
0010
0000
,
1000
0001
0001
0000
,
0010
0000
0000
0010
0000
0000
0010
0000
,
0020
0130
0110
0000
,
0010
0000
1000
0010
0100
0000
0010
0000
,
1000
0001
0001
0000
,
0001
1000
0000
0001
1000
0000
0010
0100
,
0000
0010
0100
0000
0010
0000
1000
0000
,
0100
0000
0001
0100
0010
0000
0100
0000
,
0001
1000
1000
0000
,
1000
0001
0000
1000
0001
0000
0100
0010
,
0000
0100
0010
0000
0100
0000
0001
0000
,
1000
0000
0100
1000
0001
0000
1000
0000
,
0100
0010
0010
0000
,
0010
0100
0000
0010
0100
0000
1000
0001
,
0000
1000
0001
0000
1000
0000
0100
0000
,
0001
0000
0010
0001
1000
0000
0001
0000
,
0010
0100
0100
0000
,
0100
0010
0000
0100
0010
0000
0001
1000
,
0000
0001
1000
0000
0001
0000
0010
0000
,
0220
0000
0000
0000
,
0000
0300
0130
0100
,
1000
0000
0010
0000
1000
0001
1000
0001
,
0200
0001
0310
0100
,
1010
1000
0101
0001
,
1000
0001
1000
0000
0010
0100
0010
0100
,
0220
0000
0000
0000
0330
0000
0000
0100
,
0000
0010
0000
1000
0001
0000
0100
0000
,
0002
0000
0000
1003
,
0000
0000
0000
0001
0100
1000
0100
0000
,
1000
0001
1000
0001
,
1000
0000
0001
1000
0000
1001
0000
0000
,
0001
0010
0000
0100
0000
1000
0000
0000
,
1000
0010
0000
1000
0000
1010
0000
0000
,
0110
0000
1010
0000
,
0010
1000
0001
0100
,
0000
0000
0001
0000
0100
0001
0000
0001
,
0100
0000
0100
0001
0000
0000
0001
0000
,
1001
0000
0101
0000
,
0001
0010
0100
1000
,
0000
0000
1000
0000
0010
1000
0000
1000
,
0010
0000
0010
1000
0000
0010
0000
0000
,
1001
0000
0110
0000
,
1100
0110
0011
2002
,
3003
0000
0000
0000
;

//---------------dance-single - ----------------
#NOTES:
     dance-single:
     :
     Hard:
     13:
     0.574,0.640,0.392,0.211,0.290: // measure 1
0000
0000
0000
0000
,  // measure 2
0000
0000
0000
0000
,  // measure 3
0000
0000
0000
0000
,  // measure 4
1001
0000
0010
0100
,  // measure 5
0010
0000
0000
0100
0000
0000
0010
0000
0100
0000
0001
0000
1000
0000
0010
0000
,  // measure 6
1000
0000
0000
0010
0000
0000
0010
1000
0010
1000
0000
0010
0000
0100
0000
0001
,  // measure 7
0000
0000
0100
0001
1000
0001
0000
0000
0001
0100
0000
0000
0001
0100
0001
0000
,  // measure 8
0001
0000
0000
0100
0000
0000
0100
0001
0100
0001
0000
0100
0000
0010
0000
1000
,  // measure 9
0000
0000
0010
1000
0001
1000
0000
0000
1000
0010
0000
0000
1000
0010
1000
0000
,  // measure 10
0100
0000
0000
0000
1000
0000
0100
0000
0010
0000
1000
0010
0000
0000
0010
0100
,  // measure 11
0010
1000
0000
0000
0001
0000
0100
0000
0010
0000
0100
0001
0000
0100
0000
0000
,  // measure 12
1001
0000
0010
1000
0000
1000
0000
0010
0100
0010
1000
0000
0001
0000
0100
0000
,  // measure 13
0001
0010
0001
0000
0010
0001
0000
0100
0010
0000
1000
0100
0000
1000
0000
0000
,  // measure 14
1000
0000
0000
0000
1000
0000
0010
0000
1000
0000
0100
0000
0010
0001
0000
0000
,  // measure 15
0010
0000
1000
0000
0001
0000
0010
0000
1000
0000
0010
0000
0001
1000
0000
0000
,  // measure 16
0100
0000
0010
0100
0010
0100
0001
0010
0001
0000
0100
0000
0001
0100
0000
0000
,  // measure 17
0010
1000
0010
0100
0010
1000
0001
0000
1000
0001
1000
0010
0100
0000
0000
1010
,  // measure 18
0000
0000
0000
0100
0000
0010
0000
0100
0000
0000
0000
0000
0010
0100
0000
0010
,  // measure 19
0000
1000
0000
0010
0000
0100
0000
0001
0000
0101
0000
0000
0001
0000
1000
0000
,  // measure 20
0001
0000
0000
0100
0001
0100
0000
1010
0000
0000
1000
0000
0010
1000
0000
0010
,  // measure 21
0000
1000
0000
0010
0000
0220
0000
0000
0000
0000
0330
0000
0100
0010
0100
0010
,  // measure 22
2010
0010
3010
1000
,  // measure 23
0001
0100
0000
0100
0001
0000
0100
0000
,  // measure 24
0020
1000
1000
1030
,  // measure 25
0010
0000
0000
0100
0010
1000
0001
0000
,  // measure 26
0100
0001
0010
0000
1000
0010
0001
0000
,  // measure 27
0001
0010
1000
0000
1000
0100
0001
0000
,  // measure 28
0001
0000
0100
0000
1000
0010
0000
0100
,  // measure 29
0000
0110
0000
0000
0100
0010
0100
0000
,  // measure 30
1002
1000
1003
0010
,  // measure 31
0100
0010
0000
0010
0100
0000
0010
0000
,  // measure 32
0200
0010
0010
0310
,  // measure 33
0100
0000
0000
0010
1000
0010
1000
0000
,  // measure 34
0001
0100
0001
0000
1000
0010
0100
0000
,  // measure 35
1000
0100
0010
0000
0100
0010
0001
0000
,  // measure 36
0100
0001
0000
0010
0000
0101
0000
0000
,  // measure 37
0010
0100
0000
1000
0000
1001
0000
0000
,  // measure 38
1001
0000
0001
1000
0001
0000
0100
0000
,  // measure 39
0101
0100
1010
0010
,  // measure 40
1001
0000
0100
0010
0100
0010
0100
0010
,  // measure 41
0110
0100
1001
1000
,  // measure 42
1010
0000
1000
0001
1000
0000
0010
0000
,  // measure 43
0011
0001
1001
1000
,  // measure 44
1010
0000
0000
0101
0000
0000
2002
0000
,  // measure 45
0000
3003
1001
0000
0110
0000
0000
0000
,  // measure 46
0101
0000
0001
0100
0001
0000
0100
0000
,  // measure 47
0010
1000
0000
1000
0010
0000
0100
0000
,  // measure 48
0010
0100
0000
0010
1000
0000
1000
0010
,  // measure 49
0000
0100
0001
0000
0011
0000
0101
0000
,  // measure 50
1010
0000
1000
0010
1000
0000
0010
0000
,  // measure 51
0100
0001
0000
0001
0100
0000
0010
0000
,  // measure 52
0100
0010
0000
0100
0001
0000
0001
0100
,  // measure 53
0000
0010
1000
0000
1100
0000
1010
0000
,  // measure 54
0011
0000
0010
0001
0010
0000
0001
0000
,  // measure 55
1000
0100
0000
0100
1000
0000
0001
0000
,  // measure 56
1000
0001
0000
1000
0100
0000
0100
1000
,  // measure 57
0000
0001
0010
0000
1010
0000
0011
0000
,  // measure 58
1100
0000
0100
1000
0100
0000
1000
0000
,  // measure 59
0001
0010
0000
0010
0001
0000
1000
0000
,  // measure 60
0001
1000
0000
0001
0010
0000
0010
0001
,  // measure 61
0000
1000
0100
0000
0101
0000
1100
0000
,  // measure 62
0022
0000
0000
0000
,  // measure 63
0000
0000
0033
0001
,  // measure 64
0200
0000
0000
0000
0310
0000
0100
0000
0010
0100
0001
0100
0001
0000
0100
0000
,  // measure 65
0002
0000
0000
0000
1003
0000
0000
0000
0010
0000
0000
0010
1000
0010
0100
0000
,  // measure 66
1001
0000
0000
0000
0110
0000
0000
0000
1001
0000
0000
0010
0000
0100
0000
0000
,  // measure 67
0001
0000
0100
0000
0001
1000
0000
0010
1000
0010
1000
0001
0100
0000
0010
0000
,  // measure 68
2001
0001
3001
0100
,  // measure 69
0010
0100
0000
0100
0010
0000
0100
0000
,  // measure 70
0020
0100
0100
0130
,  // measure 71
0010
0000
0000
0100
0001
0100
0001
0000
,  // measure 72
1000
0010
1000
0000
0001
0100
0010
0000
,  // measure 73
0001
0010
0100
0000
0010
0100
1000
0000
,  // measure 74
0010
1000
0000
0100
0000
1010
0000
0000
,  // measure 75
0100
0010
0000
0001
0000
1001
0000
0000
,  // measure 76
1001
0000
0000
0010
0100
0000
0001
0000
,  // measure 77
0002
0203
0302
1003
,  // measure 78
0010
0000
1000
0000
1000
0010
0000
0010
,  // measure 79
0100
0000
0100
0010
0000
0000
0100
0000
,  // measure 80
0110
0000
0000
1000
0001
0000
0010
0000
,  // measure 81
0020
0032
0023
0130
,  // measure 82
0010
0000
0100
0000
0100
1000
0000
1000
,  // measure 83
0001
0000
0001
1000
0000
0001
0000
0000
,  // measure 84
0110
0000
1001
0000
,  // measure 85
2020
3030
0202
0303
2002
3003
0220
0000
,  // measure 86
0330
0000
0000
0000
;
