#TITLE:LALISA;
#SUBTITLE:;
#ARTIST:LISA;
#TITLETRANSLIT:;
#SUBTITLETRANSLIT:;
#ARTISTTRANSLIT:;
#CREDIT:;
#BANNER:LALISA.png;
#BACKGROUND:LALISA-bg.png;
#LYRICSPATH:;
#CDTITLE:;
#MUSIC:LALISA.mp3;
#OFFSET:-0.640;
#SAMPLESTART:51.380;
#SAMPLELENGTH:15.000;
#SELECTABLE:YES;
#BPMS:0.000=150.000;
#STOPS:;
#BGCHANGES:-1.440=LALISA.avi=1.000=0=0=0,
99999=-nosongbg-=1.000=0=0=0 // don't automatically add -songbackground-
;

//---------------dance-single - ----------------
#NOTES:
     dance-single:
     :
     Easy:
     5:
     0.278,0.302,0.147,0.027,0.000:
0000
0000
0000
0000
,
1000
0000
0000
0000
,
0010
0000
0000
0000
,
1000
0000
0000
0000
,
0001
0000
0000
0000
,
0100
0000
0000
0000
,
0010
0010
0010
0000
,
1000
0000
0000
0000
,
0001
0100
0001
0000
,
1000
0010
0100
0000
,
0001
0001
0100
0000
,
0010
0001
0100
0000
,
0100
0010
1000
0000
,
0010
1000
0001
0000
,
0100
0001
1000
0000
,
0010
0001
0010
0000
,
1000
0000
0010
0000
,
0100
1000
0010
0100
,
0001
0000
0100
0000
,
0001
0100
1000
0100
,
0001
0000
0010
0000
,
0001
0100
0010
1000
,
0001
0000
0100
0000
,
1000
0010
0100
0001
,
1000
0000
0010
0000
,
0100
0010
0001
0100
,
0010
0000
0100
0000
,
0001
0100
0010
0010
,
1000
0000
1010
0000
,
0001
0000
0101
0000
,
0100
0000
0110
0000
,
0010
0000
1001
0000
,
1000
0010
0100
0000
,
1000
0010
0100
0000
,
0001
0100
0010
0000
,
0001
0100
0010
0000
,
0001
0100
1001
0000
,
0100
0010
0100
0000
1001
0000
0000
0000
,
0010
1000
1100
0000
,
0001
0100
0010
0000
0101
0000
0000
0000
,
0100
1000
0001
0000
,
0100
1000
0001
0000
,
0010
0001
1000
0000
,
0010
0001
1000
0000
,
0010
0001
0110
0000
,
0001
1000
0001
0000
0110
0000
0000
0000
,
1000
0100
0101
0000
,
0010
0001
1000
0000
0011
0000
0000
0000
,
0010
0100
0000
0000
1000
0001
0000
0000
,
1000
0001
0000
0000
0001
0000
0100
0000
,
0001
0000
1000
0010
,
0001
0100
0002
0003
,
0010
0100
0000
0000
0001
1000
0000
0000
,
1000
0001
0000
0000
0100
0000
0010
0000
,
1000
0000
0010
1000
,
0010
0100
0020
0000
,
0000
0000
0000
0000
,
0000
0000
0000
0130
,
1001
0000
0001
0100
,
0001
0100
0010
1000
,
0010
0000
1000
0100
,
0010
0001
0100
0010
,
1000
0000
0100
0010
,
0001
0010
0100
0010
,
1000
0000
1000
0010
,
0100
0001
0100
0001
,
1000
0000
0001
0010
,
0100
1000
0010
1000
,
0001
0000
0100
0010
,
1000
0001
0100
0010
,
1000
0000
0001
0100
,
0001
1000
0010
0100
,
0010
0000
1000
0100
,
0010
0100
1000
0001
,
2002
0000
0000
3003
,
0001
0100
0010
0000
,
0001
0100
0010
0000
,
1000
0010
0100
0000
,
1000
0010
0100
0000
,
1000
0010
1001
0000
,
0010
0100
0010
0000
1001
0000
0000
0000
,
0100
0001
0011
0000
,
1000
0010
0100
0000
1010
0000
0000
0000
,
0010
0001
1000
0000
,
0010
0001
1000
0000
,
0100
1000
0001
0000
,
0100
1000
0001
0000
,
0100
1000
0110
0000
,
1000
0001
1000
0000
0110
0000
0000
0000
,
0001
0010
1010
0000
,
0100
1001
0000
0000
;

//---------------dance-single - ----------------
#NOTES:
     dance-single:
     :
     Beginner:
     3:
     0.238,0.422,0.321,0.020,0.000:
0000
0000
0000
0000
,
0000
0000
0000
0000
,
0000
0000
0000
0000
,
0000
0000
0000
0000
,
0000
0000
0000
0000
,
0000
0000
0000
0000
,
0000
0000
0000
0000
,
0000
0000
0000
0000
,
0000
0000
0010
0000
,
0000
0000
1000
0000
,
0000
0000
0001
0000
,
0000
0000
0100
0000
,
0001
0000
0010
0000
,
0001
0000
1000
0000
,
0010
0000
0001
0000
,
0010
0000
0100
0000
,
0001
0000
1000
0000
,
0100
0000
1000
1000
,
1000
0000
0010
0000
,
0100
0000
0010
0010
,
0010
0000
0100
0000
,
0001
0000
0001
0001
,
0001
0000
0100
0000
,
0010
0000
0100
0100
,
0100
0000
0001
0000
,
0010
0000
0001
0001
,
0001
0000
0100
0000
,
0010
0000
0100
0100
,
0100
0000
0010
0000
,
1000
0000
1000
1000
,
1000
0000
0010
0000
,
0100
0000
0010
0010
,
0010
0000
1000
0000
,
0001
1000
0001
0000
,
0100
0000
0010
0000
,
0100
0010
0100
0000
,
1001
0110
1001
0000
,
0110
1001
0110
0000
,
0101
1010
0101
0000
,
1010
0101
1010
0000
,
1000
0000
0100
0000
,
0001
0100
0001
0000
,
0010
0000
1000
0000
,
0010
1000
0010
0000
,
0101
1010
0101
0000
,
1010
0101
1010
0000
,
0011
1100
0011
0000
,
1100
0011
1100
0000
,
0010
0000
0100
0000
,
1000
0000
0001
0000
,
0100
0000
0001
0000
,
1000
0000
0010
0000
,
0100
0000
0001
0000
,
1000
0000
0010
0000
,
0100
0000
0010
0000
,
1000
1000
2000
0000
,
0000
0000
0000
0000
,
0000
0000
0000
3000
,
1000
0000
0010
0000
,
1000
1000
1000
0000
,
0001
0000
0100
0000
,
0001
0001
0001
0000
,
0100
0000
0001
0001
,
0001
0000
0100
0000
,
0010
0010
0010
0000
,
0100
0000
1000
1000
,
1000
0000
0010
0000
,
0100
0100
0100
0000
,
0010
0000
1000
0000
,
1000
1000
1000
0000
,
0001
0000
1000
0000
,
0001
0001
0001
0000
,
1000
0000
0010
0000
,
0010
0010
0010
0000
,
2002
0000
3003
0000
,
0100
0000
0001
0000
,
1000
0001
1000
0000
,
0010
0000
0100
0000
,
0010
0100
0010
0000
,
1001
0110
1001
0000
,
0110
1001
0110
0000
,
1010
0101
1010
0000
,
0101
1010
0101
0000
,
0001
0000
0010
0000
,
1000
0010
1000
0000
,
0100
0000
0001
0000
,
0100
0001
0100
0000
,
1010
0101
1010
0000
,
0101
1010
0101
0000
,
1100
0011
1100
0000
,
0011
1100
0000
0000
;

//---------------dance-single - ----------------
#NOTES:
     dance-single:
     :
     Medium:
     9:
     0.424,0.453,0.268,0.027,0.000:
0000
0000
0000
0000
,
1000
0010
1000
0000
,
0010
0000
0000
0100
0010
0000
0000
0000
,
0100
0010
0001
0000
,
1000
0000
0000
0100
1000
0000
0000
0000
,
0001
0100
0010
0000
,
0010
0010
1001
0000
,
0010
0100
1000
0000
,
0100
0000
0100
0010
0100
0000
0000
0000
,
0001
0000
0100
0010
1000
0000
0000
0000
,
1000
0000
0010
0100
1000
0000
1000
0010
,
0001
0000
1000
0010
0001
0000
1001
0000
,
0010
0000
0010
0100
0010
0000
0000
0000
,
1000
0000
0010
0100
0001
0000
0000
0000
,
0001
0000
0100
0010
0001
0000
0001
0100
,
1000
0000
0001
0100
1000
0000
0000
0000
,
0001
0100
0001
1000
,
0010
0100
0010
1000
,
0001
0100
0010
1000
,
0001
0100
0001
0100
,
0010
1000
0010
2000
,
0000
0000
3000
0000
,
1000
0100
0010
0001
,
0100
0010
1000
0001
,
1000
0010
1000
0001
,
0100
0010
0100
0001
,
1000
0010
0100
0001
,
1000
0010
1000
0010
,
0100
0001
0100
0001
,
1000
0010
0100
0010
,
0001
0010
0100
1000
,
1010
0000
1000
0100
,
1010
0000
0010
0100
1000
0000
1000
0000
,
0010
0100
0001
0000
0001
0000
0100
0000
,
0010
0000
0010
0001
1000
0000
0010
0000
,
0100
0010
1000
0000
0001
0000
0100
0000
,
0101
0000
0110
0000
1010
0000
1000
0010
,
1000
0000
0010
0100
,
0110
0000
1001
0000
0110
0000
0001
1000
,
0001
0100
0100
1000
,
1100
0000
1000
0001
0100
0000
0100
0000
,
1000
0001
0010
0000
0010
0000
0001
0000
,
1000
0000
1000
0010
0100
0000
1000
0000
,
0001
1000
0100
0000
0010
0000
0001
0000
,
0011
0000
1001
0000
1100
0000
0100
1000
,
0100
0000
1000
0001
,
1001
0000
0110
0000
1001
0000
0010
0100
,
0010
0001
0001
0000
,
0010
0100
0010
0000
0100
0010
0100
0000
,
0010
1000
0001
0000
0100
0001
1000
0000
,
0010
0010
0000
0000
,
0100
0010
0100
0000
0010
0100
0010
0000
,
0100
0010
0100
0000
0010
0100
0010
0000
,
0100
0001
1000
0000
0010
1000
0001
0000
,
0100
0100
0000
0000
,
0010
0100
0010
1000
0001
2000
0000
0000
,
0000
0000
0000
0000
,
0000
0000
3000
1000
,
1001
0000
0000
0000
0100
0010
1000
0010
,
0100
0001
0100
0001
1000
0010
0100
0000
,
1001
0000
0000
0000
0001
0010
0100
1000
,
0100
0010
0001
0010
0100
1000
0100
0000
,
1001
0000
0000
0000
0010
0100
0001
0100
,
0010
1000
0010
1000
0001
0100
0010
0000
,
1001
0000
0000
0000
1000
0100
0010
0001
,
0010
0100
1000
0100
0010
0001
0010
0000
,
1001
0000
0000
0000
1000
0010
0001
0010
,
1000
0100
1000
0100
0001
0010
1000
0000
,
1001
0000
0000
0000
0100
0010
1000
0001
,
1000
0010
0100
0010
1000
0001
1000
0000
,
1001
0000
0000
0000
0001
1000
0100
1000
,
0001
0010
0001
0010
0100
1000
0001
0000
,
1001
0000
0000
0000
0010
1000
0001
0100
,
0001
1000
0010
1000
0001
0100
0001
0000
,
2002
0000
0000
3003
,
0101
0000
0100
0010
0001
0000
0001
0000
,
0100
0010
1000
0000
1000
0000
0010
0000
,
0100
0000
0100
1000
0001
0000
0100
0000
,
0010
0100
0001
0000
1000
0000
0010
0000
,
1010
0000
0110
0000
0101
0000
0001
0100
,
0001
0000
0100
0010
,
0110
0000
1001
0000
0110
0000
1000
0001
,
1000
0010
0010
0001
,
0011
0000
0001
1000
0010
0000
0010
0000
,
0001
1000
0100
0000
0100
0000
1000
0000
,
0001
0000
0001
0100
0010
0000
0001
0000
,
1000
0001
0010
0000
0100
0000
1000
0000
,
1100
0000
1001
0000
0011
0000
0010
0001
,
0010
0000
0001
1000
,
1001
0000
0110
0000
1001
0000
0100
0010
,
0100
1000
0000
0000
;

//---------------dance-single - ----------------
#NOTES:
     dance-single:
     :
     Hard:
     14:
     0.559,0.604,0.314,0.047,0.261: // measure 1
0000
0000
0000
0000
,  // measure 2
0001
0100
0010
1000
0010
0000
0000
1000
,  // measure 3
0010
0000
0000
0010
1000
0000
0000
0010
,  // measure 4
0001
0100
1000
0010
1000
0000
0000
0010
,  // measure 5
0100
0000
0000
0100
0010
0000
0000
1000
,  // measure 6
0100
0010
0001
0100
0010
0000
0000
0001
,  // measure 7
0100
0000
0010
0000
1001
0000
0000
0001
,  // measure 8
0100
0001
1000
0010
0100
0000
1001
0000
,  // measure 9
0010
0000
0100
0010
1000
0000
0001
0000
,  // measure 10
0100
0010
0001
0000
0100
0000
0010
0000
,  // measure 11
0001
0000
1000
0010
0001
0000
0100
0010
,  // measure 12
0100
0000
1000
0001
0100
0000
1001
0000
,  // measure 13
0100
0000
0010
0100
0001
0000
1000
0000
,  // measure 14
0010
0100
1000
0000
0010
0000
0100
0000
,  // measure 15
1000
0000
0001
0100
1000
0000
0010
0100
,  // measure 16
0010
0000
0001
1000
0010
0000
0000
0000
,  // measure 17
1000
1000
0010
0100
,  // measure 18
0001
0000
0010
0001
0100
0010
1000
0000
,  // measure 19
0010
0100
0010
1000
,  // measure 20
0010
0000
0010
0100
1000
0100
0010
0000
,  // measure 21
0001
0101
0000
2002
,  // measure 22
0000
0000
3003
0000
,  // measure 23
0100
0000
0000
0001
0100
0000
0000
0010
1000
0000
0000
1000
0001
0000
0000
0001
,  // measure 24
1000
0000
0000
0001
1000
0000
0000
0010
0100
0000
0000
0100
0010
0000
0000
0000
,  // measure 25
1001
0000
0110
0000
1000
0000
0010
0100
,  // measure 26
0010
0000
0010
1000
0000
0001
0010
0100
,  // measure 27
1000
0000
1000
0010
0000
0100
0010
0100
,  // measure 28
0001
0000
0010
0001
0000
0001
0010
0100
,  // measure 29
1000
0000
0010
1000
0001
0000
0100
0001
,  // measure 30
1000
0000
1000
0010
1000
0000
0010
1000
,  // measure 31
0010
0100
0001
0100
0010
0000
0100
0000
,  // measure 32
1001
0000
0000
0000
0220
0330
0010
0000
,  // measure 33
0110
0000
0010
1000
0010
1000
0001
0000
,  // measure 34
0100
0001
0010
0100
1000
0000
1000
0010
,  // measure 35
0001
0000
0100
0001
1000
0010
1000
0000
,  // measure 36
0100
1000
0001
0100
0010
0000
0100
0000
,  // measure 37
0101
0000
0001
0000
1001
0010
1000
0010
,  // measure 38
0100
0010
0100
0000
0100
0010
0001
0010
,  // measure 39
0100
0000
1010
0000
0110
0001
1000
0010
,  // measure 40
1000
0010
1000
0000
1100
0000
0001
0000
,  // measure 41
0101
0000
0100
0001
0100
1000
0100
0000
,  // measure 42
0010
1000
0001
0100
0001
0000
1000
0010
,  // measure 43
0001
0000
1000
0010
0001
0010
1000
0000
,  // measure 44
0001
0100
1000
0100
0001
0000
0100
0000
,  // measure 45
0101
0000
0010
0000
1010
0100
0010
0001
,  // measure 46
1000
0010
1000
0000
0010
1000
0010
0001
,  // measure 47
0010
0000
0101
0000
0110
0001
1000
0010
,  // measure 48
1001
0110
1001
0010
,  // measure 49
1000
0010
1000
0000
0000
0000
0100
0000
0001
0100
0001
0000
0000
0000
0010
0000
,  // measure 50
0001
0010
0100
0000
0000
0000
0100
0000
1000
0000
0010
0000
1000
0000
0010
0000
,  // measure 51
0100
0000
0100
0000
0000
0001
0100
0010
,  // measure 52
0100
1000
0100
0010
0001
0100
0000
0000
,  // measure 53
0001
0100
0001
0000
0000
0000
0010
0000
1000
0010
1000
0000
0000
0000
0100
0000
,  // measure 54
1000
0100
0010
0000
0000
0000
0010
0000
0001
0000
0100
0000
0001
0000
0100
0000
,  // measure 55
0010
0000
0010
0000
0000
1000
0010
0100
,  // measure 56
0010
0001
0010
0100
1000
0020
0000
0000
,  // measure 57
0000
0000
0000
0000
,  // measure 58
0000
0000
0030
0110
,  // measure 59
1001
0000
0000
0000
0000
0000
0010
1000
0010
0100
0001
0010
,  // measure 60
0100
1000
0010
1000
0001
0100
0001
1000
0010
1000
0000
0000
,  // measure 61
1001
0000
0000
0000
0000
0000
1000
0100
0010
0001
0100
0010
,  // measure 62
1000
0001
0010
0100
1000
0010
0100
0001
1000
0001
0000
0000
,  // measure 63
0110
0000
0000
0000
0000
0000
0010
0000
0100
0010
0100
0001
,  // measure 64
1000
0000
0000
0010
0000
0000
0001
0000
0100
0000
0000
0010
0000
0000
0100
0000
,  // measure 65
1010
0000
0000
0000
0000
0000
0001
0100
0010
1000
0001
0100
,  // measure 66
0010
0000
0000
1000
0000
0000
0001
0000
0100
0000
0000
0010
0000
0000
0010
0000
,  // measure 67
0101
0000
0000
0000
0000
0000
0100
0001
0100
0010
1000
0100
,  // measure 68
0010
0000
0000
0000
0001
0000
0000
0000
0100
0000
0000
0000
0001
0000
0000
0000
1000
0000
0000
0000
0010
0000
0000
0000
1000
0000
0000
0000
0000
0000
0000
0000
0000
0010
0000
0000
0000
0000
0000
0000
0000
0000
0100
0000
0000
0000
0000
0000
,  // measure 69
1001
0000
0000
0000
0000
0000
0001
0010
0100
1000
0010
0100
,  // measure 70
0001
0000
0000
0000
1000
0000
0000
0000
0010
0000
0000
0000
1000
0000
0000
0001
0000
0000
1000
0000
0000
0001
0000
0000
1000
0000
0000
0000
0000
0000
0000
0000
0000
0010
0000
0000
0000
0000
0000
0000
0000
0000
1000
0000
0000
0000
0000
0000
,  // measure 71
0110
0000
0000
0000
0000
0000
0100
0010
0100
0010
1000
0001
,  // measure 72
1000
0000
0000
0000
0001
0000
0000
0000
0100
0000
0000
0000
0010
0000
0000
0000
0000
0000
1000
0000
0000
0000
0000
0000
0010
0000
0000
0000
0000
0000
0000
0000
0000
0100
0000
0000
0000
0000
0000
0000
0000
0000
0010
0000
0000
0000
0000
0000
,  // measure 73
0101
0000
0000
0000
0000
0000
1000
0010
0100
0001
1000
0010
,  // measure 74
0100
0000
0000
0000
0010
0000
0000
0000
1000
0000
0000
0000
0001
0000
0000
0000
0010
0000
0000
0000
0100
0000
0000
0000
1000
0000
0000
0000
0000
0000
0000
0000
0000
0100
0000
0000
0000
0000
0000
0000
0000
0000
0100
0000
0000
0000
0000
0000
,  // measure 75
2020
0000
3030
1010
,  // measure 76
0110
0000
0100
0001
0100
0001
1000
0000
,  // measure 77
0010
1000
0100
0010
0001
0000
0001
0100
,  // measure 78
1000
0000
0010
1000
0001
0100
0001
0000
,  // measure 79
0010
0001
1000
0010
0100
0000
0010
0000
,  // measure 80
1010
0000
1000
0000
1001
0100
0001
0100
,  // measure 81
0010
0100
0010
0000
0010
0100
1000
0100
,  // measure 82
0010
0000
0101
0000
0110
1000
0001
0100
,  // measure 83
0001
0100
0001
0000
0011
0000
1000
0000
,  // measure 84
1010
0000
0010
1000
0010
0001
0010
0000
,  // measure 85
0100
0001
1000
0010
1000
0000
0001
0100
,  // measure 86
1000
0000
0001
0100
1000
0100
0001
0000
,  // measure 87
1000
0010
0001
0010
1000
0000
0010
0000
,  // measure 88
1010
0000
0100
0000
0101
0010
0100
1000
,  // measure 89
0001
0100
0001
0000
0100
0001
0100
1000
,  // measure 90
0100
0000
1010
0000
0110
1000
0001
0100
,  // measure 91
1001
0110
0000
0000
;
