#TITLE:LA DI DA;
#SUBTITLE:;
#ARTIST:EVERGLOW;
#TITLETRANSLIT:;
#SUBTITLETRANSLIT:;
#ARTISTTRANSLIT:;
#CREDIT:;
#BANNER:LA DI DA.png;
#BACKGROUND:LA DI DA-bg.png;
#LYRICSPATH:;
#CDTITLE:;
#MUSIC:LA DI DA.mp3;
#OFFSET:-0.480;
#SAMPLESTART:61.900;
#SAMPLELENGTH:15.000;
#SELECTABLE:YES;
#BPMS:0.000=164.000;
#STOPS:;
#BGCHANGES:-1.080=LA DI DA.avi=1.000=0=0=0,
99999=-nosongbg-=1.000=0=0=0 // don't automatically add -songbackground-
;

//---------------dance-single - ----------------
#NOTES:
     dance-single:
     :
     Beginner:
     2:
     0.191,0.332,0.081,0.095,0.000:
0000
0000
0000
0000
,
0000
0000
0000
0000
,
0000
0000
0000
0000
,
0000
0000
0000
0000
,
0000
0000
0000
0000
,
0000
0000
0000
0000
,
0000
0000
0000
0000
,
0000
0000
0000
0000
,
0010
0000
0000
0000
,
0000
0000
0000
0000
,
0100
0000
0000
0000
,
0000
0000
0000
0000
,
0001
0000
0000
0000
,
1000
0000
0000
0000
,
0010
0000
0000
0000
,
0100
0000
0000
0000
,
0001
0000
1000
0000
,
0001
0000
1000
0000
,
0010
0000
0100
0000
,
0010
0000
1000
0000
,
1000
0000
0001
0000
,
0100
0000
0001
0000
,
1000
0000
0010
0000
,
0100
0000
0010
0000
,
0100
0100
0100
0000
,
1000
1000
1000
0000
,
0001
0001
0001
0000
,
0010
0010
0010
0000
,
1000
0000
0001
0000
,
0100
0000
0010
0000
,
1000
0000
0001
0000
,
0100
0000
0001
0000
,
2002
0000
3003
0000
,
1000
0000
0010
0000
,
0100
0000
0010
0000
,
1000
0000
0001
0000
,
0101
0000
0100
0000
,
1010
0000
0010
0000
,
0110
0000
0100
0000
,
2000
0000
3001
0000
,
0010
0010
0010
0010
,
0010
0010
0010
0010
,
0110
0000
1000
0000
,
1000
0000
0001
0000
,
0001
0000
0100
0000
,
0100
0000
0010
0000
,
0010
0000
1000
0000
,
1000
0000
0001
0000
,
0001
0000
0100
0100
,
0100
0000
0010
0010
,
0010
0000
1000
0000
,
0001
0000
0100
0000
,
0001
0000
0010
0000
,
0001
0000
0100
0000
,
0001
0000
1000
0000
,
0010
0000
1000
0000
,
0100
0000
1000
1000
,
1000
0000
0001
0001
,
0001
0000
0100
0000
,
0010
0000
0000
0100
,
0000
0001
0000
0000
,
0001
0000
1000
0000
,
0010
0000
0100
0000
,
0010
0000
1000
0000
,
0001
0000
0100
0000
,
0101
0000
0000
0000
,
2000
0000
3000
0000
,
1000
0000
0100
0000
,
0200
0000
0300
0000
,
0100
0000
0010
0000
,
0020
0000
0030
0000
,
0010
0000
0001
0000
,
2002
0000
0000
0000
,
3003
0000
0000
0000
,
0220
0000
0000
0000
,
0330
0000
0000
0000
,
2002
0000
0000
0000
,
3003
0000
0000
0000
,
1000
0000
0100
0000
,
0010
0000
0001
0000
,
0010
0000
0100
0000
,
1000
0000
0000
1001
,
0110
0000
0001
0000
,
0001
0000
1000
0000
,
1000
0000
0010
0000
,
0010
0000
0100
0000
,
0100
0000
0001
0000
,
0001
0000
1000
0000
,
1000
0000
0010
0010
,
0010
0000
0100
0100
,
0100
0000
0001
0000
,
1000
0000
0010
0000
,
1000
0000
0100
0000
,
1000
0000
0010
0000
,
1000
0000
0001
0000
,
0100
0000
0001
0000
,
0010
0000
0001
0001
,
0001
1000
0001
2002
,
0000
3003
0000
0000
;

//---------------dance-single - ----------------
#NOTES:
     dance-single:
     :
     Easy:
     4:
     0.282,0.333,0.115,0.155,0.000:
0020
0000
0000
0000
,
0030
0000
0000
0000
,
2000
0000
0000
0000
,
3000
0000
0000
0000
,
0200
0000
0000
0000
,
0300
0000
0000
0000
,
0002
0000
0000
0000
,
0003
0000
0000
0110
,
1000
0010
0000
0001
,
0100
0001
0000
0100
,
0010
0100
0000
1000
,
1000
1000
0000
1000
,
0010
0100
0000
0001
,
0100
0001
0000
0010
,
0100
1000
0010
1010
,
0000
0001
0100
0101
,
0001
0010
0000
1000
,
0010
1000
0000
0010
,
0100
0010
0000
0001
,
0001
0001
0000
0001
,
0100
0010
0000
1000
,
0010
1000
0000
0100
,
0010
0001
0100
0101
,
0000
1000
0010
1010
,
0000
0010
0000
1000
,
0000
0001
0100
0001
,
0000
0100
0000
0010
,
0000
1000
0100
1000
,
0000
0010
0000
0100
,
0000
0001
0000
1000
,
0000
0001
0000
0100
,
0000
0001
1000
0010
,
2000
0000
0000
0000
,
3001
0000
0100
0000
,
0001
1000
0001
1000
,
1000
0010
0100
0010
,
0020
0000
1000
0000
,
0130
0000
0001
0000
,
2000
0000
3001
0000
,
0002
0000
0103
0000
,
0001
0001
1000
1000
,
0100
0100
0010
0110
,
0010
1000
0010
0000
,
0100
0001
0010
0000
,
1000
0001
1000
0000
,
0001
0100
0002
0103
,
0001
1000
0001
0000
,
0100
0010
0100
0010
,
1000
0000
0010
0000
,
0001
0000
1000
0000
,
1000
0100
1000
0000
,
0001
0010
1000
0000
,
0100
0010
0100
0000
,
0010
0001
0020
0031
,
0010
0100
0010
0000
,
0001
1000
0001
1000
,
0100
0000
1000
0000
,
0010
0000
0100
0000
,
0010
0100
0110
0000
,
1000
0010
1100
0000
,
0001
0100
0110
0000
,
1000
0001
1001
0000
,
0001
0100
0101
0000
,
1000
0001
1001
0000
,
0001
0100
0101
0000
,
1000
0010
1010
0000
,
2000
0000
3001
0000
,
0020
0000
0130
0000
,
0002
0000
0013
0000
,
1000
0001
0100
0000
,
0002
0000
1003
0000
,
0200
0000
0310
0000
,
2002
0000
0000
0000
,
0000
0000
0000
3003
,
1001
0000
0000
0000
0000
0000
0000
0100
,
0100
0000
0000
0000
0000
0010
0000
0010
,
0000
0000
0000
0000
,
0000
0000
0020
0130
,
0010
0100
0010
0000
,
0001
0100
0001
0000
,
2000
0000
0000
0000
,
0000
0000
0000
3001
,
0100
0001
0100
0000
,
0010
1000
0100
0000
,
0001
1000
0001
0000
,
1000
0010
2000
3010
,
1000
0001
1000
0000
,
0010
0100
0010
0100
,
0001
0000
0100
0000
,
1000
0000
0001
0000
,
0001
0010
0001
0000
,
1000
0100
0001
0000
,
0010
0100
0010
0000
,
0100
1000
0200
1300
,
0100
0010
0100
0000
,
1000
0001
1000
0001
,
0010
0000
0001
0000
,
0100
0010
0100
0220
,
0000
0000
0000
0330
;

//---------------dance-single - ----------------
#NOTES:
     dance-single:
     :
     Medium:
     8:
     0.384,0.432,0.182,0.176,0.000:
0002
0000
0000
0000
,
0000
0000
0000
0000
0003
0001
0000
2000
,
0000
0000
0000
0000
,
0000
0000
0000
0000
3000
1000
0000
0020
,
0000
0000
0000
0000
0000
0000
0000
0030
,
0200
0000
0000
0000
,
0320
0000
0000
0000
,
0000
0000
0030
1001
,
1000
0010
0100
0010
,
1000
0000
0001
0100
0000
0010
0000
1001
,
0000
0001
1000
0010
,
0100
0000
0010
1000
0000
0010
0000
1010
,
0000
0001
1000
0010
,
0100
0010
1000
0001
,
0000
0001
0010
0100
,
0000
1000
0010
0110
,
0001
0100
0010
0100
,
0001
0000
1000
0010
0000
0100
0000
1001
,
0000
1000
0001
0100
,
0010
0000
0100
0001
0000
0100
0000
0101
,
0000
0000
0000
0001
0100
0001
0000
1000
,
0010
0100
0000
0001
0001
0100
0010
1000
,
1010
1000
0001
0010
,
0000
0001
0100
0110
,
0020
0130
0002
1003
,
2000
3010
0010
1010
,
0200
0310
2000
3100
,
0200
0301
0001
0101
,
0000
0001
0100
0000
0100
0001
0000
0001
,
0000
1000
0010
0000
0010
1000
0000
0010
,
0000
0001
0001
0001
,
0000
1000
0010
1000
,
2000
0000
3010
0000
,
0110
0000
0001
0000
,
0011
0001
1000
0100
,
0100
0001
1000
0100
,
1001
0000
0001
0000
,
0101
0000
0010
0000
,
0200
0000
0310
0000
,
0002
0000
0103
0000
,
1000
1000
0010
0010
,
0100
0100
0001
1001
,
0001
0100
0010
0100
,
0001
0000
1000
0000
0010
1000
0010
0000
,
0100
0001
0010
0001
,
1000
0000
0010
0000
0100
0010
0100
0000
,
0010
1000
0001
0100
,
0001
0000
1000
0000
0010
0100
0010
0000
,
1000
0001
0100
0001
,
1000
0010
1000
1001
,
0100
1000
0001
1000
,
0100
0000
0010
0000
0001
0010
0001
0000
,
1000
0100
0001
0100
,
0010
0000
0001
0000
1000
0001
1000
0000
,
0001
0010
0100
1000
,
0100
0000
0010
0000
0001
1000
0001
0000
,
0010
0100
1000
0100
,
0010
0001
0010
0110
,
0001
0001
1000
1000
,
0010
0010
0100
0100
,
0001
0010
1000
0100
,
1000
0001
0100
0001
,
1000
0010
0100
0010
,
1000
0001
0100
0001
,
0010
0100
0000
0000
0010
0100
0000
0000
,
0110
0000
0010
0000
1000
0010
1000
0000
,
0102
0000
0103
0010
,
0001
1000
0001
0100
,
0210
0000
0310
0010
,
1000
0001
0100
0001
,
2001
0000
3001
1000
,
0010
1000
0010
0100
,
0220
0000
0000
0000
,
0000
0000
0330
0000
,
2002
0000
0000
0000
0000
0000
3003
1000
,
0001
0000
0000
0000
0000
0101
0000
2020
,
0000
0000
3030
0000
,
0000
0000
0010
0100
,
0010
0001
0100
0010
,
1000
0010
0100
0001
,
0020
0000
0000
0000
,
0000
0000
0000
0130
,
1000
0010
0100
0010
,
1000
0000
0001
0000
0100
0001
0100
0000
,
0010
1000
0100
1000
,
0001
0000
0100
0000
0010
0100
0010
0000
,
0100
0001
1000
0010
,
1000
0000
0001
0000
0100
0010
0100
0000
,
0001
1000
0010
1000
,
0001
0100
0001
1001
,
0010
0001
1000
0001
,
0010
0000
0100
0000
1000
0100
1000
0000
,
0001
0010
1000
0010
,
0100
0000
1000
0000
0001
1000
0001
0000
,
1000
0100
0010
0001
,
0010
0000
0100
0000
1000
0001
1000
0000
,
0100
0010
0001
0010
,
0100
1000
0100
2002
,
0000
0000
3003
0000
;

//---------------dance-single - ----------------
#NOTES:
     dance-single:
     :
     Hard:
     12:
     0.499,0.567,0.196,0.142,0.020: // measure 1
1000
0000
0010
0000
1000
0010
1000
0020
,  // measure 2
0000
0000
0000
0000
0000
1030
0001
0100
,  // measure 3
0010
0000
0100
0000
0001
0100
0010
0200
,  // measure 4
0000
0000
0000
0000
0000
0301
1000
0010
,  // measure 5
1000
0000
0001
0000
0001
1000
0010
1000
,  // measure 6
0000
0010
0000
1000
0100
0010
0001
2000
,  // measure 7
0000
0000
0000
0000
3001
1000
0002
0000
,  // measure 8
0000
0000
0003
0101
,  // measure 9
0001
0100
0001
0000
1000
0010
0100
0010
,  // measure 10
1000
0000
0001
0100
0000
0010
0000
0101
,  // measure 11
0000
1000
0010
0000
1000
0010
0100
0010
,  // measure 12
1000
0000
0100
0001
0000
0100
0000
1010
,  // measure 13
0000
0100
0010
0000
1000
0001
0100
0001
,  // measure 14
1000
0000
0010
1000
0000
0010
1000
0000
,  // measure 15
0001
0000
0001
0010
0100
1000
1000
0000
,  // measure 16
0000
0000
1000
0100
0010
0001
0001
0000
,  // measure 17
1000
0010
1000
0000
0001
0100
0010
0100
,  // measure 18
0001
0000
1000
0010
0000
0100
0000
1010
,  // measure 19
0000
0001
0100
0000
0001
0100
0010
0100
,  // measure 20
0001
0000
0010
1000
0000
0010
0000
0101
,  // measure 21
0001
0100
0000
1000
0001
1000
0000
0001
,  // measure 22
0100
0010
0000
1000
0010
0100
0010
1000
,  // measure 23
1010
0000
1000
0100
0010
0001
0001
0000
,  // measure 24
0000
0000
0001
0010
0100
1000
1000
0000
,  // measure 25
0001
0000
0000
0100
0000
0000
0010
0000
0100
0000
0000
0010
0000
0000
1000
0000
,  // measure 26
0010
0000
0000
0100
0000
0000
0010
0000
0010
0000
0000
0000
1001
0000
0000
0000
,  // measure 27
1000
0000
0000
0010
0000
0000
1000
0000
0001
0000
0000
0100
0000
0000
0010
0000
,  // measure 28
0100
0000
0000
0001
0000
0000
0100
0000
0001
0000
0000
0000
0101
0000
0000
0000
,  // measure 29
0000
0010
0010
0000
0100
0100
0000
0010
,  // measure 30
0000
1000
0001
0000
0001
1000
0000
0001
,  // measure 31
0000
1000
0010
0100
0010
1000
0001
0000
,  // measure 32
0001
0010
1000
0000
1000
0000
1000
0000
,  // measure 33
2000
0000
0000
0000
3001
1000
0010
1000
,  // measure 34
0001
0000
0000
0000
1000
0010
0100
0010
,  // measure 35
1000
0000
0001
0000
0100
0001
0100
0000
,  // measure 36
0100
0000
0010
0000
0100
0001
0100
0000
,  // measure 37
1010
1000
0110
1000
,  // measure 38
1001
0100
0101
0010
,  // measure 39
0012
0000
1003
0000
,  // measure 40
2000
0000
3010
0000
,  // measure 41
1000
0001
1000
0001
,  // measure 42
1000
0001
1000
1001
,  // measure 43
0001
0000
0100
0000
0001
0000
1000
0010
,  // measure 44
0000
1000
0010
0000
0100
0010
0100
0000
,  // measure 45
0001
0000
1000
0000
0010
0000
1000
0010
,  // measure 46
0000
1000
0010
0000
0100
0000
0110
0000
,  // measure 47
2000
0000
3010
0000
1000
0010
1000
0010
,  // measure 48
0000
0100
0000
0001
0100
0001
0100
0000
,  // measure 49
0010
0000
1000
0000
0100
0010
0100
0010
,  // measure 50
0000
0000
0100
0000
0010
0100
0010
1000
,  // measure 51
0010
0000
0001
0000
0010
0000
0100
1000
,  // measure 52
0000
0100
1000
0000
0001
1000
0001
0000
,  // measure 53
0010
0000
0100
0000
1000
0000
0100
1000
,  // measure 54
0000
0100
1000
0000
0001
0000
1001
0000
,  // measure 55
0002
0000
1003
0000
0100
1000
0100
1000
,  // measure 56
0000
0001
0000
0010
0001
0010
0001
0000
,  // measure 57
1000
0000
0100
0000
0001
1000
0001
1000
,  // measure 58
0000
0001
1000
1010
,  // measure 59
1000
0100
1000
0100
1000
0100
0010
0100
,  // measure 60
0010
0100
0010
0100
0001
0010
0001
0010
,  // measure 61
0002
1003
1000
0001
,  // measure 62
0100
0000
0010
0000
0100
0010
0100
0000
,  // measure 63
0001
1000
0010
1000
,  // measure 64
0001
0000
0100
0000
0001
0100
0001
0000
,  // measure 65
1000
0010
0000
0000
0010
1000
0000
0000
,  // measure 66
1001
0000
0000
0000
0010
0100
0010
0000
,  // measure 67
0102
0000
0103
0001
0100
0000
0010
0000
,  // measure 68
1000
0100
0010
0001
0100
0000
0101
0000
,  // measure 69
0001
0000
0001
1000
0001
0000
1000
0000
,  // measure 70
0001
0010
0100
1000
0010
0000
1010
0000
,  // measure 71
0100
0000
0010
0100
0010
0000
0100
0000
,  // measure 72
1000
0001
0100
0010
0100
0000
0110
0000
,  // measure 73
0220
0000
0000
0000
,  // measure 74
0330
0000
0000
0000
,  // measure 75
2001
0000
0010
0000
3001
0000
0000
1000
,  // measure 76
0010
0000
0000
0000
0000
1010
0000
0202
,  // measure 77
0000
0000
0000
0303
,  // measure 78
0000
0000
0100
0010
,  // measure 79
1000
0000
0010
0000
1000
0010
1000
0010
,  // measure 80
0000
0100
0000
0001
0100
0010
1000
0020
,  // measure 81
0000
0000
0000
0000
,  // measure 82
0000
0000
0000
0130
,  // measure 83
1000
0000
0010
0000
1000
0000
0001
0100
,  // measure 84
0000
0001
0100
0000
0010
0100
0010
0000
,  // measure 85
1000
0000
0001
0000
0100
0000
0001
0100
,  // measure 86
0000
0001
0100
0000
0010
0000
0110
0000
,  // measure 87
0002
0000
0103
0000
0001
0100
0001
0100
,  // measure 88
0000
0010
0000
1000
0010
1000
0010
0000
,  // measure 89
0100
0000
0001
0000
0010
0100
0010
0100
,  // measure 90
0000
0000
0010
0000
0100
0010
0100
0001
,  // measure 91
0100
0000
1000
0000
0100
0000
0010
0001
,  // measure 92
0000
0010
0001
0000
1000
0001
1000
0000
,  // measure 93
0100
0000
0010
0000
0001
0000
0010
0001
,  // measure 94
0000
0010
0001
0000
1000
0000
1001
0000
,  // measure 95
2000
0000
3001
0000
0010
0001
0010
0001
,  // measure 96
0000
1000
0000
0100
1000
0100
1000
0000
,  // measure 97
0001
0000
0010
0000
1000
0001
1000
0001
,  // measure 98
0000
1000
0001
2002
,  // measure 99
0000
0000
0000
3003
;
