#TITLE:Kiss Later;
#SUBTITLE:;
#ARTIST:LOONA;
#TITLETRANSLIT:;
#SUBTITLETRANSLIT:;
#ARTISTTRANSLIT:;
#CREDIT:;
#BANNER:Kiss Later.png;
#BACKGROUND:Kiss Later-bg.png;
#LYRICSPATH:;
#CDTITLE:;
#MUSIC:Kiss Later.mp3;
#OFFSET:0.280;
#SAMPLESTART:63.180;
#SAMPLELENGTH:15.000;
#SELECTABLE:YES;
#BPMS:0.000=104.000,52.000=208.000;
#STOPS:;
#BGCHANGES:0.280=Kiss Later.avi=1.000=0=0=0,
99999=-nosongbg-=1.000=0=0=0 // don't automatically add -songbackground-
;

//---------------dance-single - ----------------
#NOTES:
     dance-single:
     :
     Easy:
     5:
     0.236,0.381,0.151,0.206,0.000:
0000
0000
0000
0000
,
0000
0000
0000
0000
,
0000
0000
0000
0000
,
0000
0000
0000
0000
,
0000
0000
0000
0000
,
0000
0001
0000
0001
,
1000
1000
0000
1000
,
0010
0010
0000
0100
,
0010
0100
0000
0100
,
0010
0001
0000
0010
,
0001
1000
0000
0010
,
1000
0001
0000
1000
,
0001
1000
2002
0000
,
3003
1000
0001
1000
,
0001
0000
0000
0000
0000
0110
0000
0110
,
0000
0000
0000
0000
,
1000
0000
0010
0000
,
1000
0010
0100
0001
,
0100
0000
0000
0000
0000
0101
0000
1010
,
0000
0000
0000
0000
,
2000
0000
0000
0000
0000
0100
0000
0200
,
3000
0000
0000
0000
0000
0010
0000
0320
,
0000
0000
0000
0000
0000
0001
0000
0032
,
0000
0000
0000
0000
0000
0010
0000
0023
,
0000
0000
0000
0000
,
0000
0000
0030
0000
,
1001
0000
1000
0000
,
0010
0000
0100
0000
,
0010
0000
1000
0000
,
0001
0000
0100
0000
,
0010
0000
1000
0000
,
0010
0000
0100
0000
,
0001
0000
0010
0000
,
0001
0000
1000
0000
,
1000
0000
0010
0000
,
1000
0000
0000
0000
,
0001
0000
0001
0000
,
0100
0000
0000
0000
,
2002
0000
3003
0000
,
1000
0000
0000
1000
0000
1000
0000
0000
,
1000
0000
1000
0000
0000
1000
0000
0000
,
1000
0000
2020
3030
,
1000
0000
0010
0000
,
1000
0000
0010
0000
,
0001
0000
0100
0000
,
0001
0000
0000
0000
,
0001
0000
0100
0000
,
0010
0000
1000
0000
,
0010
0000
0100
0000
,
0001
0000
0000
0000
,
2000
0000
0000
0000
,
3000
0000
0000
0000
,
0020
0000
0000
0000
,
0030
0000
0000
0000
,
1000
0000
0100
0000
,
0010
0000
0001
0000
,
0010
0000
0000
0000
0100
0000
0000
1000
,
0000
0000
0000
0000
,
1000
0000
1000
0000
,
0010
0000
0100
0000
,
2000
0000
3200
0000
,
0320
0000
0032
0000
,
1003
0000
0001
0000
,
0100
0000
0010
0000
,
1000
0000
0010
0000
,
0001
0000
0000
0000
0010
0000
0000
2000
,
0000
0000
0000
0000
3000
0000
0000
2002
,
0000
0000
0000
0000
3003
0000
0000
0202
,
0000
0000
0000
0000
0303
0000
0000
2200
,
0000
0000
0000
0000
,
0000
0000
3300
0000
,
2002
0000
0000
0000
,
0000
0000
3003
0000
,
0001
0000
0100
0000
,
0001
0000
0100
0000
,
1000
0000
0010
0000
,
1000
0000
0000
0000
,
1000
0000
0010
0000
,
0100
0000
0001
0000
,
0100
0000
0010
0000
,
1000
0000
0000
0000
,
0002
0000
0000
0000
,
0003
0000
0000
0000
,
0200
0000
0000
0000
,
0300
0000
0000
0000
,
0001
0000
0010
0000
,
0100
0000
1000
0000
,
0100
0000
0010
0000
,
0001
0000
0100
0000
,
0001
0000
0010
0000
,
0100
0000
0010
0000
,
0001
0000
1000
0000
,
0010
0000
0001
0000
,
0010
0000
0100
0000
,
0010
0000
1000
0000
,
0200
0000
0000
0000
,
0300
0000
0000
0000
,
0020
0000
0000
0000
,
0030
0000
0000
0000
,
1000
0000
0010
0000
,
1000
0000
0001
0000
,
0100
0000
0000
0000
0001
0000
0000
1001
,
0000
0000
0000
0000
,
0000
1001
0000
0110
,
0000
0010
0010
0010
,
0000
0110
0000
1001
,
0000
1000
1000
1000
,
0000
0101
0000
1010
,
0000
0100
0100
0100
,
0000
1100
0000
0011
,
0000
0001
0001
0001
,
1001
0000
0000
0000
;

//---------------dance-single - ----------------
#NOTES:
     dance-single:
     :
     Beginner:
     2:
     0.150,0.267,0.082,0.158,0.000:
0000
0000
0000
0000
,
0000
0000
0000
0000
,
0000
0000
0000
0000
,
0000
0000
0000
0000
,
0000
0000
0000
0000
,
0000
0100
0000
0100
,
0000
0100
0000
0010
,
0000
0010
0000
0010
,
0000
1000
0000
0001
,
0000
0001
0000
1000
,
0000
0001
0000
1000
,
0000
0001
0000
1000
,
2000
0000
3000
0000
,
1001
0000
0000
0000
,
0000
0000
0000
0000
,
0000
0000
0000
0000
,
0000
0000
0000
0000
,
0110
0000
0000
0000
,
0000
0000
0000
0000
,
0000
0000
0000
0000
,
1000
0000
0000
0000
0000
0000
0000
0200
,
0000
0000
0000
0000
0300
0000
0000
0200
,
0000
0000
0000
0000
0300
0000
0000
0200
,
0000
0000
0000
0000
0300
0000
0000
0200
,
0000
0000
0000
0000
,
0300
0000
0000
0000
,
0010
0000
0010
0000
,
0010
0000
0000
0000
,
1000
0000
1000
0000
,
1000
0000
0000
0000
,
0001
0000
0001
0000
,
0001
0000
0000
0000
,
0100
0000
0100
0000
,
0100
0000
0000
0000
,
0010
0000
0000
0000
,
1000
0000
0000
0000
,
0001
0000
0000
0000
,
0100
0000
0000
0000
,
0001
0000
0000
0000
,
1000
0000
0000
0000
,
2002
0000
0000
0000
,
3003
0000
0110
0000
,
0010
0000
0100
0000
,
0010
0000
0000
0000
,
1000
0000
0001
0000
,
1000
0000
0000
0000
,
0001
0000
1000
0000
,
0001
0000
0000
0000
,
0100
0000
0010
0000
,
0100
0000
0000
0000
,
0002
0000
0000
0000
,
0003
0000
0000
0000
,
2000
0000
0000
0000
,
3000
0000
0000
0000
,
0010
0000
0000
0000
,
1000
0000
0000
0000
,
0010
0000
0000
0000
0000
0000
0000
0110
,
0000
0000
0000
0000
,
0001
0000
0001
0000
,
0001
0000
0000
0000
,
1000
0000
1000
0000
,
1000
0000
0000
0000
,
0010
0000
0010
0000
,
0010
0000
0000
0000
,
0100
0000
0100
0000
,
0100
0000
0000
0000
0000
0000
0000
2002
,
0000
0000
0000
0000
3003
0000
0000
0220
,
0000
0000
0000
0000
0330
0000
0000
2002
,
0000
0000
0000
0000
3003
0000
0000
0220
,
0000
0000
0000
0000
,
0000
0000
0330
0000
,
2002
0000
0000
0000
,
0000
0000
3003
0000
,
0100
0000
0010
0000
,
0100
0000
0000
0000
,
0001
0000
1000
0000
,
0001
0000
0000
0000
,
1000
0000
0001
0000
,
1000
0000
0000
0000
,
0010
0000
0100
0000
,
0010
0000
0000
0000
,
2000
0000
0000
0000
,
3000
0000
0000
0000
,
0002
0000
0000
0000
,
0003
0000
0000
0000
,
0100
0000
0000
0000
,
0001
0000
0000
0000
,
0100
0000
0000
0000
,
0010
0000
0000
0000
,
1000
0000
0000
0000
,
0010
0000
0000
0000
,
1000
0000
0000
0000
,
0001
0000
0000
0000
,
0100
0000
0000
0000
,
0001
0000
0000
0000
,
0002
0000
0000
0000
,
0003
0000
0000
0000
,
2000
0000
0000
0000
,
3000
0000
0000
0000
,
0010
0000
0010
0000
,
0010
0000
0000
0000
,
1000
0000
1000
0000
,
1000
0000
0000
0000
,
1001
0000
0000
0000
,
1000
0000
0000
0000
,
0001
0000
0000
0000
,
1000
0000
0000
0000
,
0010
0000
0000
0000
,
0100
0000
0000
0000
,
0001
0000
0000
0000
,
1000
0000
0000
0000
,
1001
0000
0000
0000
;

//---------------dance-single - ----------------
#NOTES:
     dance-single:
     :
     Medium:
     8:
     0.267,0.381,0.089,0.124,0.000:
0000
0000
0000
0000
,
0000
0000
0000
0000
,
0000
0000
0000
0000
,
0000
0000
0000
0000
,
0000
0000
0000
0000
,
1000
0010
0100
0010
,
0001
0100
0010
1000
,
0001
0010
0001
0100
,
0010
0100
1000
0010
,
1000
0010
0100
0001
,
0100
0001
1000
1000
,
0010
0100
0010
1000
,
2002
0000
0000
0000
,
3003
0001
0100
0001
,
0100
0000
0010
1000
0000
0010
0000
1000
,
0000
0000
0000
0000
,
0000
0000
0000
0000
0000
0010
0000
0000
,
1000
0100
0010
0001
,
0100
0000
0001
1000
0000
0010
0000
0200
,
0000
0000
0000
0000
,
0302
0000
0000
0000
0000
0000
0000
2003
,
0000
0000
0000
0000
3000
0000
0000
0020
,
0000
0000
0000
0000
0030
0000
0000
0200
,
0000
0000
0000
0000
0300
0000
0000
0002
,
0000
0000
0000
0000
,
0000
0000
0000
0000
,
1003
0000
0010
0000
,
1000
0000
0010
0000
0000
1000
0000
0000
,
0001
0000
0100
0000
,
0010
0000
0010
0000
0000
0100
0000
0000
,
0001
0000
1000
0000
,
0010
0000
1000
0000
0000
1000
0000
0000
,
0010
0000
1000
0000
,
0010
0000
0100
0000
0000
0001
0000
0000
,
1000
0000
0010
0010
,
0010
0000
1000
0010
,
0100
0000
0001
0100
,
0010
0000
0100
1000
,
0100
0000
0010
0100
,
0001
0000
1000
0000
0000
0010
0000
0000
,
2002
0000
0000
0000
,
3003
0000
0220
0330
,
0010
0100
0010
0000
,
0100
0010
1000
0000
,
0001
0000
0000
0000
0100
0000
0000
0002
,
0000
0000
0003
0000
,
0001
0010
0100
0000
,
0100
0010
1000
0000
,
0010
0000
0000
0000
1000
0000
0000
2000
,
0000
0000
3000
0000
,
1000
0000
0000
0000
0010
0000
0000
1000
,
0000
0010
0000
0000
0000
0000
0000
0000
,
0001
0000
0000
0000
0100
0000
0000
0001
,
0000
0000
0100
0000
,
0001
0010
0001
0000
,
0010
0001
0010
0000
,
0100
0000
0000
0000
0010
0000
0000
0010
,
0000
0000
0000
0000
,
1000
0010
1000
0010
,
1000
0000
0001
0000
,
0100
0000
0010
0000
,
1000
0000
0010
0000
,
0100
0010
0001
0010
,
0100
0000
1000
0000
,
0010
0000
1000
0000
,
0001
0000
0000
0000
0000
0001
0000
0001
,
0000
0000
0000
0000
0000
0010
0000
0010
,
0000
0000
0000
0000
0000
1000
0000
1000
,
0000
0000
0000
0000
0000
0100
0000
0200
,
0000
0000
0000
0000
,
0000
0000
0000
0000
,
0320
0000
0000
0000
,
0000
0000
0030
0000
,
0100
0010
0100
0000
,
0010
0100
0001
0000
,
1000
0000
0000
0000
0010
0000
0000
2000
,
0000
0000
3000
0000
,
1000
0100
0010
0000
,
0010
0100
0001
0000
,
0100
0000
0000
0000
0001
0000
0000
0002
,
0000
0000
0003
0000
,
0001
0000
0000
0000
0100
0000
0000
0001
,
0000
0100
0000
0000
0000
0000
0000
0000
,
1000
0000
0000
0000
0010
0000
0000
1000
,
0000
0000
0010
0000
,
1000
0100
1000
0000
,
0100
1000
0100
0000
,
0010
0000
0100
0000
,
0100
0000
0010
0000
,
1001
0000
0100
0000
,
0010
0000
1000
0000
,
0001
0000
0100
0000
,
0010
0000
1000
0000
,
0010
0000
0100
0000
,
0001
0000
0100
0000
,
0010
0000
0000
0000
0010
0000
0000
1000
,
0000
0010
0000
0000
0100
0000
0000
0000
,
0001
0000
0000
0000
1000
0000
0000
1000
,
0000
0000
0000
0000
,
0010
0100
1000
0000
,
0001
0010
0100
0000
,
1000
0000
0000
0000
0010
0000
0000
1001
,
0000
0000
0000
0000
,
0000
1010
0000
0101
,
0000
0001
0010
0001
,
0000
1001
0000
0110
,
0000
0010
0100
0010
,
0000
0110
0000
1001
,
0000
1000
0100
0010
,
0000
0101
0000
1010
,
0000
1000
0001
1000
,
0010
0000
0000
0000
;

//---------------dance-single - ----------------
#NOTES:
     dance-single:
     :
     Hard:
     13:
     0.393,0.572,0.179,0.165,0.027: // measure 1
0000
0000
0000
0000
,  // measure 2
0000
0000
0000
0000
,  // measure 3
0000
0000
0000
0000
,  // measure 4
0000
0000
0000
0000
,  // measure 5
0000
0000
0000
0000
,  // measure 6
0000
0001
0100
0001
0100
0010
1000
0010
,  // measure 7
1000
0000
0100
1000
0000
0000
0010
0000
0100
0000
0000
0000
1010
0000
0000
0000
,  // measure 8
0000
0000
1000
0000
0100
0000
0010
0000
0001
0000
0100
0010
0000
0000
1000
0000
,  // measure 9
0001
0000
0100
0001
0000
0000
1000
0000
0010
0000
0000
0000
1001
0000
0000
0000
,  // measure 10
0000
0000
1000
0000
0010
0000
0100
0000
0001
0000
0100
0010
0000
0000
0000
0000
,  // measure 11
0000
0000
0001
0000
0100
0000
1000
0000
0100
0000
0001
0100
0000
0100
0001
0000
,  // measure 12
0000
0000
0000
0000
0000
0000
0000
0000
0010
0000
0100
0010
0000
0100
0010
0000
,  // measure 13
1000
0010
1000
0001
0200
0000
0000
0000
,  // measure 14
0301
1000
0010
1000
,  // measure 15
0001
0000
1000
0010
0000
0110
0000
1001
,  // measure 16
0000
0000
0000
0000
0000
0000
0100
0010
,  // measure 17
0100
0000
0010
0100
0010
1000
0000
0000
,  // measure 18
1010
0100
0010
0100
,  // measure 19
0010
0000
1000
0001
0000
0101
0000
1010
,  // measure 20
0000
0000
0000
0000
,  // measure 21
0020
0000
0000
0000
0000
0100
0000
0230
,  // measure 22
0000
0000
0000
0000
0000
0001
0000
0302
,  // measure 23
0000
0000
0000
0000
0000
1000
0000
2003
,  // measure 24
0000
0000
0000
0000
0000
0010
0000
3020
,  // measure 25
0000
0000
0000
0000
,  // measure 26
0000
0000
0000
0000
,  // measure 27
1030
0010
1000
0010
,  // measure 28
0100
0001
0100
0001
,  // measure 29
1000
0000
0010
1000
0000
0000
0010
0000
,  // measure 30
1000
0000
1001
0000
,  // measure 31
0001
0100
0001
1000
,  // measure 32
0010
0000
1000
0010
0000
0000
1000
0000
,  // measure 33
0100
0000
0010
0001
0000
0000
0010
0000
,  // measure 34
0100
0000
1001
0000
,  // measure 35
0001
0001
0010
0010
,  // measure 36
0001
0000
0100
0001
0000
0000
0000
0000
,  // measure 37
0000
0001
0010
0100
,  // measure 38
1000
0000
0010
1000
0000
0000
0010
0000
,  // measure 39
1000
0000
0000
0000
0000
0000
0000
0100
,  // measure 40
0010
0000
0010
0100
0000
0010
0000
0000
,  // measure 41
2002
0000
0000
0000
,  // measure 42
3003
0000
0220
0330
,  // measure 43
0010
0000
1000
0000
0010
0000
1000
0010
,  // measure 44
0000
0100
0000
0000
0001
0000
0100
0000
,  // measure 45
0001
0000
0000
0000
0100
0000
0000
2002
,  // measure 46
0000
0000
3003
0000
,  // measure 47
0001
0000
0010
0000
0001
0000
0010
0001
,  // measure 48
0000
1000
0000
0000
0100
0000
1000
0000
,  // measure 49
0100
0000
0000
0000
1000
0000
0000
0220
,  // measure 50
0000
0000
0330
0100
,  // measure 51
0001
0000
1000
0000
0010
0000
1000
0010
,  // measure 52
0000
1000
0000
0000
0010
0000
1000
0000
,  // measure 53
0001
0000
0100
0000
0001
0000
1000
0001
,  // measure 54
0000
0001
0000
0001
,  // measure 55
0100
0000
0001
0000
0100
0000
0010
1000
,  // measure 56
0000
0010
1000
0100
,  // measure 57
1000
0000
0000
0000
0110
0000
0000
2002
,  // measure 58
0000
0000
3003
0000
,  // measure 59
0100
0010
0001
0010
,  // measure 60
0100
0000
0001
0100
0000
0001
0000
1000
,  // measure 61
0000
0000
0010
0000
,  // measure 62
1000
0000
0001
0000
,  // measure 63
0100
1000
0010
1000
,  // measure 64
0010
0000
0100
0010
0000
0100
0000
0020
,  // measure 65
0000
0000
0000
0000
,  // measure 66
2030
0000
0000
0000
3001
1000
0000
0010
,  // measure 67
0000
0000
0000
0000
0010
1000
0000
0100
,  // measure 68
0000
0000
0000
0000
1000
0001
0000
1000
,  // measure 69
0000
0000
0000
0000
0001
0100
0000
0002
,  // measure 70
0000
0000
0000
0000
,  // measure 71
0000
0000
0000
0000
,  // measure 72
2003
0000
0000
0000
,  // measure 73
0000
0000
3000
0000
,  // measure 74
0100
0000
0001
0000
0100
0000
0001
0100
,  // measure 75
0000
0010
0000
0000
1000
0000
0010
0000
,  // measure 76
1000
0000
0000
0000
0010
0000
0000
2002
,  // measure 77
0000
0000
3003
0000
,  // measure 78
1000
0000
0100
0000
1000
0000
0100
1000
,  // measure 79
0000
0001
0000
1000
0010
0000
0001
0000
,  // measure 80
0010
0000
0000
0000
0001
0000
0000
0220
,  // measure 81
0000
0000
0330
0010
,  // measure 82
1000
0000
0001
0000
0100
0000
0001
0100
,  // measure 83
0000
0001
0000
0000
0100
0000
0001
0000
,  // measure 84
1000
0000
0010
0000
1000
0000
0000
1000
,  // measure 85
0000
1000
0000
1000
,  // measure 86
0010
0000
1000
0000
0010
0000
0100
0001
,  // measure 87
0000
0100
0001
0010
,  // measure 88
0001
0000
0110
0000
,  // measure 89
0010
0000
1000
0000
,  // measure 90
0001
0000
1000
0100
,  // measure 91
0001
0100
1000
0010
,  // measure 92
1000
0001
0100
0001
,  // measure 93
1000
0010
1000
0010
,  // measure 94
0100
0001
0100
0001
,  // measure 95
0100
1000
0100
1000
,  // measure 96
0001
0000
0000
0000
1000
0000
0000
0010
,  // measure 97
0000
1000
0000
0000
1000
0000
0001
0000
,  // measure 98
1000
0000
0010
0000
1000
0000
0000
0010
,  // measure 99
0000
1000
0000
1000
,  // measure 100
0010
0000
0100
0000
0010
0000
1000
0001
,  // measure 101
0000
0100
0001
1000
,  // measure 102
0010
0000
0100
0000
0010
0000
0000
1000
,  // measure 103
0000
0001
1000
0001
,  // measure 104
1000
1001
0000
0110
,  // measure 105
0000
0100
0010
0100
0010
0000
1000
0000
,  // measure 106
0001
0101
0000
1010
,  // measure 107
0000
0010
0100
0001
1000
0000
0001
0000
,  // measure 108
0001
0101
0000
1010
,  // measure 109
0000
1000
0100
0010
0001
0000
0100
0000
,  // measure 110
0010
1001
0000
0110
,  // measure 111
0000
0001
0010
0100
1000
0000
0010
0000
,  // measure 112
1000
0000
0000
0000
;
