#TITLE:Kill This Love;
#SUBTITLE:;
#ARTIST:BLACKPINK;
#TITLETRANSLIT:;
#SUBTITLETRANSLIT:;
#ARTISTTRANSLIT:;
#CREDIT:;
#BANNER:Kill This Love.png;
#BACKGROUND:Kill This Love-bg.png;
#LYRICSPATH:;
#CDTITLE:;
#MUSIC:Kill This Love.mp3;
#OFFSET:-0.360;
#SAMPLESTART:71.700;
#SAMPLELENGTH:15.000;
#SELECTABLE:YES;
#BPMS:0.000=132.000;
#STOPS:;
#BGCHANGES:;

//---------------dance-single - ----------------
#NOTES:
     dance-single:
     :
     Hard:
     15:
     0.492,0.672,0.047,0.063,0.679: // measure 1
0000
0000
0000
0000
,  // measure 2
0000
0000
0000
0000
,  // measure 3
0000
0000
0000
0000
,  // measure 4
0000
0000
0000
0000
,  // measure 5
1000
0000
0000
0010
0000
1000
0010
0000
0000
0100
0000
0001
,  // measure 6
0100
0000
0000
0001
0000
0100
0001
1000
0010
0100
0010
1000
,  // measure 7
0001
0010
0100
1000
0100
0010
0001
0100
0010
1000
0001
0100
,  // measure 8
0001
1000
0010
1000
0010
0100
0001
0100
0010
0100
0010
1000
,  // measure 9
0001
0000
1000
0100
0000
1000
0100
0000
0000
0100
0000
0010
,  // measure 10
1000
0000
1000
0010
0000
0001
0100
0000
0000
0010
0000
0100
,  // measure 11
0001
0000
0001
0100
0000
0010
1000
0000
0000
0010
0000
1000
,  // measure 12
0100
0000
0010
0001
0000
0001
0010
0000
0000
1000
0000
0001
,  // measure 13
1000
0000
1000
0001
0000
0010
0100
0000
0000
0100
0000
0100
,  // measure 14
0010
0000
0010
0100
0000
0001
1000
0000
0000
0010
0000
0001
,  // measure 15
0010
0000
0100
1000
0000
0010
1000
0000
0000
0100
0000
0100
,  // measure 16
0010
0000
1000
0100
0000
0010
0001
1000
0001
1000
0010
0100
,  // measure 17
0010
1000
0001
0100
0001
0100
0010
0000
0000
0001
0000
0000
,  // measure 18
0100
0001
1000
0001
0100
0010
0100
0000
0000
1000
0000
0000
,  // measure 19
1000
0100
0010
0001
0100
0010
1000
0000
0000
0001
0000
0000
,  // measure 20
0001
0100
0001
1000
0001
1000
0010
0000
0000
1000
0010
0100
,  // measure 21
0001
0100
0010
1000
0001
0100
0001
0000
0000
1000
0010
0100
,  // measure 22
0001
0000
0000
0001
1000
0001
1000
0000
0000
1000
0010
0100
,  // measure 23
0010
0100
0001
0010
0100
1000
0010
0100
0001
1000
0100
0010
,  // measure 24
0001
0100
0010
1000
0001
0100
0001
1000
0001
1000
0010
0000
,  // measure 25
0100
0010
0100
0000
0000
0000
0000
0000
0010
0100
0010
0000
0000
0000
0000
0000
,  // measure 26
1000
0001
1000
0000
0000
0000
0000
0000
0001
1000
0001
0000
0000
0000
0100
0000
,  // measure 27
0002
0000
0000
0000
1003
0000
0000
0010
,  // measure 28
1000
0000
0000
0100
0001
0000
0000
0000
,  // measure 29
0010
0100
0010
0000
0000
0000
0000
0000
0100
0010
0100
0000
0000
0000
0000
0000
,  // measure 30
0001
1000
0001
0000
0000
0000
0000
0000
1000
0001
1000
0000
0000
0000
0010
0000
,  // measure 31
2000
0000
0000
0000
3001
0000
0000
0100
,  // measure 32
0001
0000
0000
0010
1000
0010
0000
0010
,  // measure 33
1000
0000
0010
0000
1000
0100
0001
0100
,  // measure 34
1000
0010
0100
0001
,  // measure 35
0020
0000
0000
0031
0100
0000
0010
0000
,  // measure 36
1000
0001
0010
0001
1000
0000
0001
2000
,  // measure 37
0000
3020
0000
0030
0000
0010
1000
0010
,  // measure 38
0001
0001
1000
0010
,  // measure 39
1010
0010
0001
0100
,  // measure 40
1001
0001
1000
0010
,  // measure 41
0110
0000
0000
0100
0000
0010
1000
0000
0000
0001
0000
0100
,  // measure 42
0001
0000
0000
0001
0000
0001
0100
0010
0100
0010
1000
0010
,  // measure 43
0100
0000
0000
0001
0000
0100
0001
0000
0000
1000
0000
1000
,  // measure 44
0010
0000
0000
0100
0000
0010
0100
0000
0100
0010
0000
1000
,  // measure 45
0001
0000
0000
0001
0000
0001
0010
0000
0000
0010
0000
0010
,  // measure 46
0100
1000
0001
1000
,  // measure 47
1001
0000
0000
1000
0000
0010
1000
0000
0000
0001
0000
0001
,  // measure 48
0100
0000
0000
0010
0000
0100
0010
0000
0010
0100
0000
0001
,  // measure 49
1000
0000
0000
1000
0000
1000
0100
0000
0000
0100
0000
0100
,  // measure 50
0010
0000
0000
0001
0000
0001
1000
0100
0010
0001
0010
0100
,  // measure 51
2002
0000
0000
0000
,  // measure 52
0000
0000
0000
0000
0000
0000
3003
0010
0100
0010
1000
0001
,  // measure 53
0100
0000
0000
0001
0000
1000
0001
0000
0001
1000
0000
0010
,  // measure 54
0100
0000
0000
0010
0000
0000
1000
0000
0010
0100
0000
0100
,  // measure 55
0010
0000
0000
0010
0000
0000
1000
0000
0000
0000
0000
1000
,  // measure 56
0100
0000
0100
0010
0000
0010
0001
0000
0001
1000
0000
0000
,  // measure 57
1100
0000
0000
1000
0000
0001
1000
0000
1000
0001
0000
0100
,  // measure 58
0010
0000
0000
0100
0000
0000
0001
0000
0100
0010
0000
0010
,  // measure 59
0100
0000
0000
0100
0000
0000
0001
0000
0000
0000
0000
0001
,  // measure 60
0010
0000
0000
0000
0000
0000
0000
0000
1000
0001
0000
0000
,  // measure 61
0100
0000
0000
0001
0000
0100
0001
0000
0000
1000
0000
1000
,  // measure 62
0010
0000
0000
0010
0000
0100
0010
0000
0100
0010
0000
1000
,  // measure 63
0001
0000
0000
0010
0000
0001
0010
0000
0010
0100
0000
0100
,  // measure 64
1000
0000
0000
1000
0000
0001
1000
0010
0100
0010
0100
0001
,  // measure 65
0010
0000
0000
1000
0000
0010
1000
0000
0000
0001
0000
0001
,  // measure 66
0100
0000
0000
0100
0000
0010
0100
0000
0010
0100
0000
0001
,  // measure 67
1000
0000
0000
0100
0000
1000
0100
0000
0100
0010
0000
0010
,  // measure 68
0001
0000
0000
0001
0000
1000
0001
0100
0010
0100
0010
1000
,  // measure 69
0002
0000
0003
0000
;

//---------------dance-single - ----------------
#NOTES:
     dance-single:
     :
     Medium:
     6:
     0.290,0.376,0.133,0.094,0.008:
0000
0000
0000
0000
,
0000
0000
0000
0000
,
0000
0000
0000
0000
,
0000
0000
0000
0000
,
0000
0000
0000
0000
,
0000
0000
0000
0000
,
0000
0000
0000
0000
,
0000
0000
0000
0000
,
0001
0100
0010
1000
,
0010
1000
0010
0100
,
0010
1000
0001
0100
,
0010
1000
0010
0100
,
0001
0100
0001
1000
,
0010
1000
0010
0100
,
0010
1000
0001
0100
,
0001
1000
0010
0100
,
0010
1000
0010
1000
0010
0000
0100
0000
,
0001
0010
0100
1000
0010
0000
0100
0000
,
1000
0010
0100
0001
0010
0000
0001
0000
,
0100
0001
0010
0100
0010
0000
0100
0000
,
0100
0001
0100
0001
0100
0000
0010
0000
,
1000
0100
0010
0001
0100
0000
0010
0000
,
0001
0100
0010
1000
0100
0000
1000
0000
,
0010
1000
0100
0010
0100
0000
0010
0000
,
1000
0010
0100
0000
0001
0010
1000
0000
,
1000
0010
0100
0000
0001
1000
0001
1000
,
0020
0000
0130
0000
,
0010
0000
1000
0000
,
0001
0100
0010
0000
1000
0100
0001
0000
,
0001
0100
0010
0000
1000
0001
1000
0001
,
0200
0000
0310
0000
,
0100
0000
0001
0000
,
0010
0000
0100
0010
,
1000
0000
0010
1000
,
0001
0000
0100
0010
,
0001
0000
0010
0001
,
0010
0000
0100
1000
,
0100
0000
1000
0001
,
1000
0000
0010
0100
,
0010
0010
1001
0110
,
0220
0000
0330
0000
,
0000
0000
0000
0010
0000
0100
0010
0000
0010
0100
0000
0000
,
1001
0010
1010
0100
,
0010
0001
0101
0010
,
1000
0010
1001
0100
,
0100
0100
1001
0110
,
0220
0000
0330
0000
,
1001
0100
0101
0010
,
0100
1000
1010
0100
,
0001
0100
1001
0010
,
0200
0000
0000
0000
,
0000
0000
0300
0000
,
0010
1000
0010
0000
,
0010
0100
1000
0000
,
0100
0010
0100
0000
,
0001
1000
0010
0000
,
1000
0001
0100
0000
,
0010
0100
0001
0000
,
0001
0100
0010
0000
,
2002
0000
3003
0000
,
0001
0100
0010
0100
,
0010
1000
0010
0100
,
1000
0001
0010
1000
,
0010
0100
0120
0100
,
1030
0010
0100
0010
,
0100
0001
0100
0010
,
0001
1000
0100
0001
,
0100
0010
0210
0010
,
0320
0000
0030
0000
;

//---------------dance-single - ----------------
#NOTES:
     dance-single:
     :
     Easy:
     4:
     0.223,0.322,0.094,0.086,0.000:
0000
0000
0000
0000
,
0000
0000
0000
0000
,
0000
0000
0000
0000
,
0000
0000
0000
0000
,
0000
0000
0000
0000
,
0000
0000
0000
0000
,
0000
0000
0000
0000
,
0000
0000
0000
0000
,
0010
0001
0001
0000
,
0100
0010
1000
0000
,
0001
1000
0010
0000
,
0100
0001
1000
0000
,
0001
0010
0100
0000
,
0010
0100
1000
0000
,
1000
0010
0001
0000
,
0100
0010
1000
0000
,
1000
0010
0010
0000
,
0001
1000
0100
0000
,
0010
0100
1000
0000
,
0001
0010
0100
0000
,
0010
1000
0001
0000
,
1000
0001
0100
0000
,
0100
1000
0010
0000
,
0001
1000
0100
0000
,
0100
0000
0011
0000
,
0100
0000
1010
0000
,
2000
0000
0000
0000
3010
0000
0000
0100
,
0100
0000
0000
0010
0010
0000
0000
0000
,
0010
0000
1100
0000
,
0010
0000
0101
0000
,
0002
0000
0000
0000
0103
0000
0000
0010
,
0010
0000
0000
0100
0100
0000
0000
0000
,
1000
0000
0010
0100
,
0100
0000
0010
1000
,
0001
0000
0100
0001
,
0001
0000
0100
0010
,
0001
0000
1000
0010
,
1000
0000
0100
0001
,
1000
0000
0010
0001
,
0010
0100
0010
1000
,
2002
0000
3003
0000
,
0000
0010
0100
0010
,
1000
0010
0100
0000
,
0001
0100
0010
0000
,
0100
0010
1000
0000
,
0001
0101
1010
0101
,
0220
0000
0330
0000
,
0001
0100
0010
0000
,
1000
0010
0100
0000
,
0010
0100
0001
0000
,
2002
0000
0000
0000
,
0000
0000
3003
0000
,
0010
0010
0010
0000
,
1000
0001
1000
0000
,
0010
0001
0100
0000
,
0001
0010
0100
0000
,
0010
0100
0010
0000
,
1000
0100
0010
0000
,
0100
1000
0010
0000
,
0110
0000
0000
0010
,
0100
0001
0100
0010
,
1000
0010
1000
0100
,
0100
0010
1000
0001
,
0100
0001
2000
0000
,
3010
1000
0010
0100
,
0001
0100
0001
0010
,
0010
0100
0001
1000
,
0010
1000
0001
0100
,
2002
0000
3003
0000
;

//---------------dance-single - ----------------
#NOTES:
     dance-single:
     :
     Beginner:
     2:
     0.183,0.269,0.102,0.102,0.000:
0000
0000
0000
0000
,
0000
0000
0000
0000
,
0000
0000
0000
0000
,
0000
0000
0000
0000
,
1001
0000
0000
0000
,
0010
0000
0000
0000
,
0110
0000
0000
0000
,
1000
0000
0000
0000
,
1000
0000
1000
1000
,
1000
0000
0001
0000
,
0100
0000
0001
0001
,
0001
0000
0100
0000
,
0010
0000
0100
0100
,
0100
0000
1000
0000
,
0010
0000
0010
0010
,
0010
0000
1000
0000
,
0001
0000
0100
0000
,
0001
0000
0100
0000
,
0010
0000
1000
0000
,
0010
0000
1000
0000
,
0001
0000
1000
0000
,
0010
0000
0100
0000
,
0001
0000
1000
0000
,
0010
0000
2002
0000
,
3003
0000
0010
0000
,
0010
0000
1000
0000
,
2000
0000
3000
0000
,
0001
0000
0100
0000
,
0100
0000
0010
0000
,
1000
0000
0001
0000
,
0200
0000
0300
0000
,
0010
0000
1000
0000
,
1001
0000
0001
0001
,
0001
0000
1000
0000
,
0010
0000
1000
1000
,
1000
0000
0010
0000
,
1000
0000
0010
0010
,
0010
0000
0100
0000
,
0001
0000
0100
0100
,
0100
0000
1001
0110
,
2002
0000
3003
0000
,
0000
0010
0000
0000
,
0220
0000
0330
0000
,
0010
0100
0010
0000
,
1000
0001
1000
0000
,
0010
0000
1001
0110
,
2002
0000
3003
0000
,
0100
0010
0100
0000
,
0001
1000
0001
0000
,
0100
0010
0100
0000
,
2002
0000
0000
0000
,
0000
0000
3003
0000
,
0100
0000
0100
0000
,
0010
0000
1000
0000
,
0001
0000
0100
0000
,
0001
0000
1000
0000
,
0010
0000
0001
0000
,
0010
0000
1000
0000
,
0001
0000
1000
0000
,
1001
0000
0000
0000
,
0010
0001
0010
0000
,
0100
1000
0100
0000
,
0001
1000
0001
0000
,
1000
0001
1000
0000
,
1000
0100
1000
0000
,
0001
0010
0001
0000
,
0100
0001
0100
0000
,
0010
1000
0010
0000
,
0020
0000
0030
0000
;
