#TITLE:Kaikai Kitan;
#SUBTITLE:;
#ARTIST:Eve;
#TITLETRANSLIT:;
#SUBTITLETRANSLIT:;
#ARTISTTRANSLIT:;
#CREDIT:;
#BANNER:Kaikai Kitan.png;
#BACKGROUND:Kaikai Kitan-bg.png;
#LYRICSPATH:;
#CDTITLE:;
#MUSIC:Kaikai Kitan.mp3;
#OFFSET:0.200;
#SAMPLESTART:48.229;
#SAMPLELENGTH:15.000;
#SELECTABLE:YES;
#BPMS:0.000=185.020;
#STOPS:;
#BGCHANGES:;

//---------------dance-single - ----------------
#NOTES:
     dance-single:
     :
     Hard:
     14:
     0.624,0.689,0.247,0.107,0.113: // measure 1
0000
0000
0000
0000
,  // measure 2
0000
0000
0000
0000
,  // measure 3
0101
0000
0001
0100
0000
0100
0010
0000
,  // measure 4
1000
0000
0010
0000
0000
0000
0100
0000
0010
0000
0000
1000
0000
0000
0010
0000
,  // measure 5
0000
0000
0000
0000
1001
0000
0001
0100
,  // measure 6
0010
1000
0000
0010
0000
0100
0000
0010
,  // measure 7
0100
0001
1000
0010
0000
1000
0010
0100
,  // measure 8
0010
0000
1000
0010
0000
0100
0001
0100
,  // measure 9
0001
1000
0001
1000
0001
1000
0001
0000
1000
0000
0010
0000
1000
0000
0010
0000
,  // measure 10
0100
0001
0000
0100
0000
0010
0000
0100
,  // measure 11
0010
1000
0001
0100
0000
0001
0100
0010
,  // measure 12
0100
0000
0001
0100
0000
0010
1000
0010
,  // measure 13
1000
0001
1000
0000
0010
0000
2000
0000
0002
0000
0000
0000
0000
0000
0000
0000
,  // measure 14
0000
0000
0000
0000
0000
0000
0000
3000
,  // measure 15
1003
0010
1000
0000
0010
0000
0100
0010
,  // measure 16
0000
0010
0100
0000
0010
0001
0000
0010
,  // measure 17
1000
0000
1000
0010
0000
0010
0001
0010
,  // measure 18
0000
0100
1000
0000
1000
0000
1001
0000
,  // measure 19
0000
0100
0001
0000
0100
0010
0000
0010
,  // measure 20
1000
0000
1000
0100
0000
0100
0001
0000
,  // measure 21
1000
0000
0000
0001
0000
0000
0100
0000
0001
0000
0000
0000
0001
0000
0011
0000
,  // measure 22
0000
0001
0010
0100
1000
0010
0000
0000
,  // measure 23
1000
0001
0100
0000
0100
0010
0000
0100
,  // measure 24
0010
0000
0000
0100
0000
0000
0010
0000
0100
0000
1000
0000
0000
0000
0100
0000
,  // measure 25
0000
1000
0100
0010
0001
0100
0000
0010
,  // measure 26
1000
0001
1000
0000
0001
0000
1001
0000
,  // measure 27
0000
0010
1000
0000
0010
0100
0000
0100
,  // measure 28
0001
0000
0001
0010
0000
0010
1000
0000
,  // measure 29
1000
0100
0000
0010
0001
0000
1000
1100
,  // measure 30
0000
1000
0100
0010
0001
0000
0100
0010
,  // measure 31
1000
0000
0010
1000
0010
0000
0100
0000
0010
0000
1000
0000
0001
0000
0100
0000
,  // measure 32
0001
0010
0001
0010
0001
1000
0100
1000
,  // measure 33
0100
0000
1000
0001
0010
0000
0001
0000
0100
0000
0010
0000
0100
0000
0001
0000
,  // measure 34
0100
0010
1000
0010
0001
0010
1000
0001
,  // measure 35
2001
0001
3001
0000
,  // measure 36
0120
0100
0130
0010
,  // measure 37
0100
0000
0000
0110
0000
0000
1001
0000
,  // measure 38
0001
0000
0100
0000
0001
1000
0001
0000
0010
0000
0100
0000
1000
0000
0010
0000
,  // measure 39
0000
1010
0000
1000
0010
0100
0001
0100
,  // measure 40
0000
1001
0000
0010
0001
0010
1000
0010
,  // measure 41
0000
1000
0010
0000
0001
0010
0100
0010
,  // measure 42
0000
0000
0001
0000
1000
0000
0000
0000
1000
0010
1000
0010
1000
0000
0010
0000
,  // measure 43
0000
0000
0100
0000
0010
0000
0000
0000
0100
0001
0100
0001
0100
0000
0010
0000
,  // measure 44
0000
1000
0100
0010
0001
0100
0010
1000
,  // measure 45
0000
0001
0100
0000
0100
0000
0010
1001
,  // measure 46
0000
0000
0010
0000
0010
0000
0100
0010
0100
0000
0010
0000
0001
0000
0100
0000
,  // measure 47
0000
0101
0000
0001
0100
0010
1000
0010
,  // measure 48
0000
1001
0000
0100
1000
0100
0001
0100
,  // measure 49
0000
0000
0001
0000
0100
0000
0000
0000
1000
0010
1000
0000
0010
1000
0000
0000
,  // measure 50
1000
0010
0000
0000
0010
0100
0000
0000
0100
0001
0100
0000
0001
0000
0010
0000
,  // measure 51
0000
0100
0010
1000
0010
1000
0001
1000
,  // measure 52
0010
0100
0000
0001
0001
0100
0001
0100
,  // measure 53
0010
1000
0010
1000
0100
0010
0001
0100
,  // measure 54
0000
0110
0000
0010
0000
1010
0000
2002
,  // measure 55
0000
0000
3003
0000
0100
0010
0000
0010
,  // measure 56
0000
0100
0000
0000
0001
0100
0000
0001
,  // measure 57
0000
0000
0010
0100
0010
0000
1000
0010
,  // measure 58
0000
1000
0100
0010
0001
0000
0000
0001
,  // measure 59
0101
0000
0100
0110
0000
0010
1010
0000
,  // measure 60
0000
1000
0001
1000
0000
0010
0000
0220
,  // measure 61
0000
0000
0000
0030
0000
0000
0000
0000
,  // measure 62
0300
0100
0010
0000
0010
0100
0000
0100
,  // measure 63
0001
0100
0001
0100
0010
1000
0000
0010
,  // measure 64
0000
0100
0000
0010
0100
0001
1000
0010
,  // measure 65
0000
1000
0010
0100
0010
0000
1000
0010
,  // measure 66
0000
0000
0100
0000
0001
0000
0100
0000
0001
1000
0001
0000
0100
0000
2002
0000
,  // measure 67
0000
0000
0000
0000
,  // measure 68
0000
0000
3003
0000
;

//---------------dance-single - ----------------
#NOTES:
     dance-single:
     :
     Medium:
     10:
     0.486,0.507,0.097,0.064,0.016:
0000
0000
0000
0000
,
0000
0000
0000
0000
,
1010
0000
0000
1000
0000
0000
1010
0000
,
0000
0000
0110
0000
0000
0000
0000
0000
0010
0000
0000
0100
0000
0000
0001
0000
,
0000
0000
0000
0000
0001
0000
0100
0010
,
0100
0010
0000
1000
0000
0010
1000
0010
,
1000
0001
0000
0100
0000
0010
0100
0010
,
0100
0001
0000
1000
0000
1000
0010
1000
,
0010
0100
0001
0100
1000
0000
0010
0100
,
0010
0100
0000
0001
0000
0100
0001
0100
,
0001
1000
0000
0010
0000
0100
0010
0100
,
0010
1000
0000
0001
0000
0001
0100
0001
,
0100
0010
0100
2002
0000
0000
0000
0000
,
0000
0000
0000
3003
,
1000
1000
0010
0001
,
0010
0001
1000
1000
,
0001
0100
0010
1000
,
0010
0100
0001
1000
,
0010
0100
0001
1000
,
0010
0100
0010
1000
,
0001
0000
0100
0000
0001
0000
0100
0010
,
0000
0000
0010
0100
0010
0100
0000
0000
,
1000
0010
1000
0001
,
0100
0001
0100
0010
,
1000
0010
0100
0001
,
1000
0010
0001
1001
,
0001
0100
0001
1000
,
0010
1000
0010
0100
,
0001
0100
0010
1000
,
0001
0000
0100
0000
1000
0000
1000
0001
,
1000
0010
0100
0000
0010
0100
0001
0000
,
0001
0100
0010
0000
1000
0010
0001
0000
,
0001
0010
1000
0000
1000
0010
0100
0000
,
0010
0100
0010
0000
1000
0000
0010
0000
,
1000
1000
1000
0000
,
0010
0010
0010
0000
,
0100
0000
0000
0010
0000
0000
0110
0000
,
0100
0010
0100
0000
0000
0100
0001
0100
,
0000
0010
0000
0000
0000
1000
0010
0100
,
0000
0100
0000
0000
0000
0010
0100
0010
,
0000
0100
0010
0000
0001
0010
0100
1000
,
0000
0000
1000
0000
0001
0000
0000
0000
0001
0000
0000
0001
0000
0000
0001
0000
,
0000
0000
1000
0000
0010
0000
0000
0000
1000
0000
0000
1000
0000
0000
1000
0000
,
0000
1000
0100
0010
0001
0100
0010
1000
,
0000
0001
0100
0000
0001
0000
0100
0010
,
0000
0001
1000
0001
1000
0010
1000
0010
,
0000
0100
0000
0000
0000
0001
0100
0010
,
0000
0010
0000
0000
0000
0100
0010
0100
,
0000
0010
0100
0000
0010
0000
1000
0000
,
0010
0000
0100
0000
0001
0100
0010
0100
,
0000
0001
0010
0100
0010
0001
0100
0001
,
0100
0010
0000
0000
1000
0010
0100
0000
,
0010
0000
1000
0000
0001
0100
0010
0100
,
0000
0010
0000
0100
0000
1000
0000
1001
,
0000
0000
0000
0000
0001
0100
0001
0000
,
0000
0100
0000
0000
0010
0100
0000
0010
,
0000
0000
1000
0010
1000
0000
0010
1000
,
0000
0010
1000
0010
0100
0000
0000
0010
,
0100
0000
0100
0010
0000
1000
0001
0000
,
0000
0001
0010
0001
0000
0001
0000
0202
,
0000
0000
0000
0300
0000
0000
0000
0000
,
0003
0001
1000
0000
1000
0001
0000
0001
,
0100
0010
1000
0010
0001
1000
0000
0100
,
0000
0010
1000
0010
1000
0001
0000
0100
,
0000
0010
0100
0010
0100
0001
0000
1000
,
0000
1000
0010
1000
0010
0100
0010
2002
,
0000
0000
0000
0000
,
0000
0000
3003
0000
;

//---------------dance-single - ----------------
#NOTES:
     dance-single:
     :
     Easy:
     5:
     0.318,0.471,0.064,0.129,0.011:
0000
0000
0000
0000
,
0000
0000
0000
0000
,
0101
0000
0000
0010
0000
0000
1000
0000
,
0000
0000
1000
0000
0000
0000
0000
0000
0010
0000
0000
0100
0000
0000
0010
0000
,
0000
0000
1000
0010
,
0100
0010
1000
0001
,
0100
0001
1000
0010
,
0100
0001
0100
0010
,
0100
0001
1000
0010
,
1000
0001
1000
0010
,
0100
0010
1000
0001
,
1000
0010
0001
0010
,
1000
0000
2002
0000
,
0000
0000
0000
3003
,
0001
0001
0010
0010
,
0100
0100
1000
1000
,
0001
1000
0010
1000
,
2000
3002
2003
3002
,
1003
0010
0100
0010
,
1000
0001
0001
0100
,
0001
0000
0100
0000
0010
0000
0000
0100
,
0000
0000
0001
0000
,
0101
0000
0001
0000
,
0100
0000
0001
0000
,
1000
0000
0010
0000
,
0001
0000
0010
0000
,
1000
0000
0010
0000
,
1000
0000
0010
0000
,
1000
0000
0001
0000
,
0100
0010
1000
0010
,
0000
0010
0100
0010
,
0000
1000
1000
0100
,
0000
0001
0001
0100
,
0000
0001
0000
0001
,
0000
1000
0010
0001
,
0000
0100
0000
0010
,
0000
0010
0100
1000
,
0000
0010
0000
0100
,
0010
0100
0000
0010
,
1000
0001
0000
1000
,
0100
0001
0000
0001
,
0010
1000
0000
0001
,
1000
0001
0000
1000
,
0010
1000
0000
0010
,
0100
0000
0010
0000
0001
0000
1000
0002
,
0000
0003
0000
0010
,
0100
0010
0000
0100
,
0001
1000
0000
0001
,
0010
1000
0000
1000
,
0100
0001
0000
1000
,
0001
1000
0000
0001
,
0100
0001
0000
0100
,
0010
0000
0100
0000
1000
0000
0001
1000
,
0000
0010
0000
1000
0000
0001
0000
0100
,
0000
0000
0000
0000
0000
0000
0000
0100
,
0000
1001
0000
0000
0200
0000
0000
0000
,
0310
0000
0100
0000
,
0001
0000
1000
0000
,
0010
0000
0000
0010
0000
0000
0010
0000
,
0000
0000
0000
0000
0000
0000
0100
0000
0000
0000
0010
0000
0000
0000
0000
0220
,
0000
0000
0330
0000
,
0000
1000
0001
0000
1000
0001
0000
0000
,
0000
0001
0100
0001
,
0100
0001
1000
0010
,
1000
0010
0100
0010
,
0000
0000
0010
0000
1000
0000
0000
2002
,
0000
0000
0000
0000
,
0000
0000
3003
0000
;

//---------------dance-single - ----------------
#NOTES:
     dance-single:
     :
     Beginner:
     3:
     0.235,0.326,0.107,0.086,0.000:
0000
0000
0000
0000
,
0000
0000
0000
0000
,
0000
0000
0000
0000
,
0000
0000
0000
0000
,
0000
0000
0000
0010
,
0000
0010
0000
1000
,
0000
1000
0000
0001
,
0000
0001
0000
0100
,
0000
0100
0000
0001
,
0000
0001
0000
0010
,
0000
0010
0000
1000
,
0000
1000
0000
0010
,
0000
0000
0220
0000
,
0000
0000
0000
0000
,
0330
0000
1000
0000
,
1000
0000
0010
0000
,
0100
0000
0010
0000
,
1000
0000
0001
0000
,
0100
0000
0001
0000
,
0100
0000
0010
0000
,
1000
0000
0010
0000
,
1000
0000
1000
0000
,
0010
0010
0010
0000
,
1000
1000
1000
0000
,
0100
0100
0100
0000
,
0001
0001
0001
0000
,
0010
0010
0010
0000
,
1000
1000
1000
0000
,
0010
0010
0010
0000
,
0100
0100
0100
0000
,
0000
0001
0000
0001
,
0000
0100
0000
0010
,
0000
1000
0000
1000
,
0000
0010
0000
1000
,
2000
0000
3000
0000
,
0002
0000
0003
0000
,
1001
0000
0000
0220
,
0000
0330
0000
0000
,
0000
0100
0010
0100
,
0000
0010
1000
0010
,
0000
0100
0001
0100
,
0000
0001
0010
0001
,
0000
1000
0010
1000
,
0000
1000
0001
1000
,
0000
0100
0010
0100
,
0000
0110
1001
0110
,
0000
0001
0100
0001
,
0000
1000
0010
1000
,
0000
0010
0100
0010
,
0000
0100
0010
0100
,
0000
0001
0010
0001
,
0000
1000
0100
1000
,
0000
0010
0000
1000
,
0000
0000
0000
0000
,
0110
0000
0000
0000
,
1001
0000
0000
0000
,
0110
0000
0000
0010
,
0000
0000
1000
0000
,
0001
0000
0000
0100
,
0000
0000
1000
0001
,
2000
0000
3000
0000
,
0000
0010
0000
0000
0110
0000
0000
0000
,
0000
0010
0010
0010
,
0000
0001
0001
0001
,
0000
0010
0010
0010
,
0000
0000
1000
0000
1000
0000
0000
2000
,
0000
0000
0000
0000
,
0000
0000
3000
0000
;
