#TITLE:Inside Out;
#SUBTITLE:;
#ARTIST:NU'EST;
#TITLETRANSLIT:;
#SUBTITLETRANSLIT:;
#ARTISTTRANSLIT:;
#CREDIT:;
#BANNER:Inside Out.png;
#BACKGROUND:Inside Out-bg.png;
#LYRICSPATH:;
#CDTITLE:;
#MUSIC:Inside Out.mp3;
#OFFSET:0.600;
#SAMPLESTART:59.080;
#SAMPLELENGTH:15.000;
#SELECTABLE:YES;
#BPMS:0.000=114.000;
#STOPS:;
#BGCHANGES:;

//---------------dance-single - ----------------
#NOTES:
     dance-single:
     :
     Easy:
     4:
     0.189,0.257,0.087,0.043,0.014:
0000
0000
0000
0000
,
0000
0000
0000
0000
,
0000
0000
0000
0000
,
0000
0000
0000
0000
,
0000
0000
0000
0000
,
0000
0000
0000
0000
,
0000
0000
0000
0000
,
0000
0000
0000
0000
,
0000
0000
0000
0000
,
1000
0010
1000
1001
,
0100
0001
0100
0010
,
0100
0010
0001
0101
,
0001
0000
0010
0100
,
0010
0000
0001
1000
,
0100
0000
1000
0010
,
0001
0000
1000
0001
,
2000
3200
0320
0030
,
0110
0000
1001
0000
,
0001
0100
0010
1000
,
0010
0000
0001
0100
,
1000
0010
0100
0010
,
0100
0001
0100
0010
,
1000
0000
0100
0000
,
0001
0001
0101
0000
,
1000
1000
1010
0000
,
0002
0000
0013
0000
,
2000
0000
3100
0000
,
0020
0000
0130
0000
,
0110
0000
1000
0010
,
1010
1000
0001
0000
,
0001
0100
0010
0000
,
0001
0010
0100
1000
,
1000
0000
0010
0000
,
0100
0100
0010
0000
,
0001
0001
0010
0000
,
1000
1000
0010
0000
,
0100
0001
1000
0000
,
0001
0001
0001
0000
,
0010
0010
0010
0000
,
1000
1000
1000
0000
,
0100
0100
0100
0000
,
0010
0100
1000
0000
,
1000
0010
0001
0000
,
0001
0010
0100
0000
,
0001
1000
0001
0110
,
1001
0001
0000
0010
,
0000
0001
0000
1000
,
0000
0010
0000
0100
,
0000
0010
0100
1000
,
0000
1000
0000
0001
,
0000
0001
0000
0100
,
0000
0010
0000
0100
,
0000
0000
0001
0100
,
0101
0001
1000
0000
,
1000
0010
0100
0000
,
1000
0100
0010
0001
,
0001
0000
0100
0000
,
0010
0010
0100
0000
,
1000
1000
0100
0000
,
0001
0001
0100
0000
,
0010
1000
0001
0000
,
0000
0000
0001
0000
0000
0001
0000
0000
0001
0000
0000
0000
0000
0000
0000
0000
,
0000
0000
0010
0000
0000
0010
0000
0000
0010
0000
0000
0000
0000
0000
0000
0000
,
0000
0000
0100
0000
0000
0100
0000
0000
0100
0000
0000
0000
0000
0000
0000
0000
,
0000
0000
1000
0000
0000
1000
0000
0000
1000
0000
0000
0000
1001
0000
0000
0000
;

//---------------dance-single - ----------------
#NOTES:
     dance-single:
     :
     Beginner:
     1:
     0.152,0.234,0.043,0.058,0.000:
0000
0000
0000
0000
,
0000
0000
0000
0000
,
0000
0000
0000
0000
,
0000
0000
0000
0000
,
0000
0000
0000
0000
,
0000
0000
0000
0000
,
0000
0000
0000
0000
,
0000
0000
0000
0000
,
0000
0000
0000
0000
,
0000
0010
0000
0010
,
0000
1000
0000
1000
,
0000
0010
0000
0010
,
0000
0100
0000
0100
,
0000
0001
0000
0001
,
0000
0100
0000
0100
,
0000
0001
0000
0001
,
0000
1000
1000
1000
,
0000
1001
0000
1000
,
0000
0010
0000
1000
,
0000
0001
0000
0100
,
0000
0001
0000
0100
,
0000
0010
0000
0100
,
0000
0010
0000
1000
,
0000
0001
0000
0100
,
0000
0010
0000
0010
,
0220
0000
0330
0000
,
2002
0000
3003
0000
,
0220
0000
0330
0000
,
1001
0000
0000
0000
,
0000
1000
0010
1000
,
0000
0001
0010
0001
,
0000
1000
0001
1000
,
0000
0010
0100
0010
,
0000
0100
0001
0100
,
0000
0010
1000
0010
,
0000
0001
0010
0001
,
0000
1000
0010
1000
,
0000
0010
0000
0100
,
0000
0001
0000
0100
,
0000
0010
0000
1000
,
0000
0010
0000
0100
,
0000
0010
0000
1000
,
0000
0100
0000
1000
,
0000
0001
0000
0001
,
0000
0100
0000
0010
,
0000
1000
0001
1000
,
0000
0001
0010
0001
,
0000
1000
0100
1000
,
0000
0010
0100
0010
,
0000
1000
0001
1000
,
0000
0001
1000
0001
,
0000
1000
0010
1000
,
0000
0010
0220
0000
,
0330
0001
0100
0001
,
0000
1000
0100
1000
,
0000
0001
1000
0001
,
0000
0100
0010
0100
,
0000
0010
1000
0010
,
0000
0100
0001
0100
,
0000
1000
0100
1000
,
0000
0001
0100
0001
,
0000
0100
0000
0010
,
0000
1000
0000
0001
,
0000
0100
0000
0010
,
0000
0100
0010
0100
;

//---------------dance-single - ----------------
#NOTES:
     dance-single:
     :
     Medium:
     7:
     0.281,0.374,0.101,0.079,0.069:
0000
0000
0000
0000
,
0000
0000
0000
0000
,
0000
0000
0000
0000
,
0000
0000
0000
0000
,
0000
0000
0000
0000
,
0000
0000
1000
0000
0000
1000
0000
0000
1000
0000
0000
0000
0000
0000
0000
0000
,
0000
0000
0001
0000
0000
0001
0000
0000
0001
0000
0000
0000
0000
0000
0000
0000
,
0000
0000
1000
0000
0000
1000
0000
0000
1000
0000
0000
0000
0000
0000
0000
0000
,
0000
1001
0000
0000
,
0001
0100
0010
0101
,
0001
0010
0000
0100
,
0010
0100
0010
1001
,
0010
0100
0000
0010
,
0100
0001
1000
1010
,
0010
0100
0000
1000
,
0100
0010
0001
0011
,
0001
0000
0010
0000
0100
0000
1000
0010
,
1010
0010
0100
0010
,
1000
0100
0010
0100
,
1001
0000
0000
0010
0100
0001
0000
0000
,
0100
0010
0100
0000
,
0110
0000
0010
1000
,
0010
0000
0100
0001
,
0000
1000
0001
1000
0001
0000
0000
0100
,
0010
0100
0010
0000
0001
0100
0001
0000
,
2002
0000
3003
0000
,
0022
0000
0033
0000
,
2020
0000
3030
0000
,
0220
0330
0000
0010
1000
0010
1000
0010
,
0100
0000
0000
0100
0010
0100
0001
0100
,
0001
0000
0000
0010
0100
0001
1000
0001
,
0000
0000
1000
0000
0100
0000
0010
0000
0001
0000
0000
0000
0100
0000
0000
0001
,
0000
0000
0000
1000
0010
0001
0010
1000
,
0010
0000
0000
0001
1000
0010
1000
0001
,
0100
0000
0000
0100
0010
1000
0010
1000
,
0000
0000
1000
0000
0010
0000
1000
0000
0010
0000
0100
0000
0010
0000
0000
0100
,
0000
0000
0000
0000
0000
0100
0010
0100
,
0010
0000
0010
0000
0000
0010
0000
0000
0010
0000
0000
0000
0000
0000
0000
0000
,
0000
0000
1000
0000
0000
0010
0000
0000
0001
0000
0000
0000
0000
0000
0000
0000
,
0000
0000
0010
0000
0000
1000
0000
0000
0001
0000
0000
0000
0000
0000
0000
0000
,
0001
0000
0100
0000
0001
1000
0010
1000
,
0010
0000
1000
0000
0000
1000
0000
0000
0001
0000
0000
0000
0000
0000
0000
0000
,
0000
0000
0010
0000
0000
0010
0000
0000
0100
0000
0000
0000
0000
0000
0000
0000
,
0000
0000
0001
0000
0000
1000
0000
0000
0010
0000
0000
0000
0000
0000
0000
0000
,
2010
3020
0230
0301
,
0001
0100
0001
1000
,
0010
1000
0010
0100
,
0010
0100
0001
0100
,
0001
1000
0010
0100
,
0000
0000
0100
0000
0000
0100
0000
0000
0100
0000
0000
0000
0000
0000
0000
0000
,
0000
0000
0001
0000
0000
0001
0000
0000
0001
0000
0000
0000
0000
0000
0000
0000
,
0000
0000
1000
0000
0000
1000
0000
0000
1000
0000
0000
0000
0000
0000
0000
0000
,
0000
0000
0000
0100
0001
0100
0001
0100
,
0010
0000
0000
0010
0100
0010
1000
0010
,
1000
0000
0000
0100
0010
1000
0001
1000
,
0000
0000
0001
0000
0010
0000
0100
0000
1000
0000
0000
0000
0010
0000
0000
1000
,
0000
0000
0000
0001
0100
1000
0100
0001
,
0100
0000
0000
1000
0001
0100
0001
1000
,
0010
0000
0000
0010
0100
0001
0100
0001
,
0000
0000
0001
0000
0100
0000
0001
0000
0100
0000
0010
0000
0100
0000
0000
0010
,
0000
0000
0000
0000
0000
0010
0100
0010
,
0100
0000
0100
0000
0000
0100
0000
0000
0100
0000
0000
0000
0000
0000
0000
0000
,
0000
0000
0001
0000
0000
0100
0000
0000
1000
0000
0000
0000
0000
0000
0000
0000
,
0000
0000
0100
0000
0000
0001
0000
0000
1000
0000
0000
0000
0000
0000
0000
0000
,
1000
0100
0010
0001
0100
0000
1001
0000
;

//---------------dance-single - ----------------
#NOTES:
     dance-single:
     :
     Hard:
     12:
     0.438,0.468,0.195,0.079,0.282: // measure 1
0000
0000
0000
0000
,  // measure 2
0000
0000
0000
0000
,  // measure 3
0000
0000
0000
0000
,  // measure 4
0000
0000
0000
0000
,  // measure 5
0000
0000
0010
0000
0000
0010
0000
0000
0010
0000
0100
0010
0100
0001
1000
0001
,  // measure 6
0000
0000
0100
0000
0000
0100
0000
0000
0001
0000
0000
0010
1000
0001
0100
0001
,  // measure 7
0000
0000
0001
0000
0000
0010
0000
0000
1000
0000
0000
1000
0010
1000
0010
0100
,  // measure 8
0000
0000
0010
0000
0000
0100
0000
0000
0010
0000
0000
0000
0000
0000
0010
0000
,  // measure 9
0000
1001
0000
0000
,  // measure 10
0001
1000
0001
0010
0000
0000
1000
0010
,  // measure 11
1000
0001
0000
0000
0000
0000
1000
0100
,  // measure 12
0001
0100
1000
0100
0000
0000
0010
0100
,  // measure 13
0000
0000
0000
0000
0000
0000
0001
0000
0010
0000
0100
0000
1000
0000
0010
1000
,  // measure 14
0000
0000
0000
0000
0000
0000
1000
0000
0010
0000
0100
0000
0010
0000
1000
0001
,  // measure 15
0000
0000
0000
0000
0000
0000
0202
0000
0000
0000
0303
0000
0001
0100
0001
0100
,  // measure 16
0000
0000
1000
0010
0100
0001
0000
0100
,  // measure 17
0000
0100
0010
0100
0110
0000
1000
0010
,  // measure 18
1010
0000
0000
1000
0010
0100
0000
0001
,  // measure 19
0100
0010
0100
0001
0010
0000
0001
0100
,  // measure 20
0101
0000
0000
0001
0010
0100
0000
0001
,  // measure 21
0010
0100
0010
0001
0001
0000
1000
0010
,  // measure 22
0100
0000
0000
0010
0100
0010
0100
0001
,  // measure 23
0000
0000
0000
1001
0000
1000
0001
1000
,  // measure 24
0000
0001
0010
0100
1000
0000
0000
1000
,  // measure 25
0100
0010
0001
0000
0010
0100
0010
0000
,  // measure 26
2002
3003
0001
0100
0001
0100
0010
0000
,  // measure 27
2002
3003
1000
0100
0010
0100
1000
0000
,  // measure 28
0220
0000
0330
0000
0010
0000
0001
0000
0100
0000
1000
0000
0010
0000
0000
0110
,  // measure 29
0000
0000
0000
0000
0000
0000
1000
0000
0010
0000
0100
0000
0010
0000
1000
0010
,  // measure 30
0000
0100
0000
0000
0000
0000
0010
0000
1000
0000
0001
0000
0100
0000
0010
0100
,  // measure 31
0000
0010
0000
0000
0000
0000
0001
0000
0101
0000
0010
0000
0110
0000
0100
0000
,  // measure 32
0000
0000
0010
0000
0100
0000
0001
0000
1000
0000
0010
0000
0100
0000
0000
0010
,  // measure 33
0000
0000
0000
0000
0000
0000
1000
0000
0100
0000
0010
0000
0100
0000
1000
0010
,  // measure 34
0000
1000
0000
0000
0000
0000
0001
0000
0010
0000
1000
0000
0010
0000
0001
0100
,  // measure 35
0000
0001
0000
0000
0000
0000
0100
0000
0110
0000
0010
0000
1010
0000
1000
0000
,  // measure 36
0000
0000
1000
0000
0001
0000
0100
0000
0001
0000
1000
0000
0010
0000
0000
0100
,  // measure 37
0000
0000
0000
0000
0001
0000
0000
0000
1000
0000
0010
1000
0001
1000
0010
0100
,  // measure 38
0000
0000
0010
0000
0000
0100
0000
0000
0010
0000
0100
0001
1000
0010
1000
0001
,  // measure 39
0000
0000
0100
0000
0000
0001
0000
0000
0010
0000
0001
1000
0010
1000
0001
0100
,  // measure 40
0000
0000
0010
0000
0000
0100
0000
0000
1000
0000
0000
0000
0000
0000
1000
0000
,  // measure 41
0100
0010
0001
0001
0102
0000
0013
0000
,  // measure 42
0000
0000
0100
0000
0000
0010
0000
0000
0100
0000
0010
0100
0010
1000
0001
0100
,  // measure 43
0000
0000
0001
0000
0000
0001
0000
0000
0001
0000
1000
0010
0100
0010
1000
0010
,  // measure 44
0000
0000
0100
0000
0000
0010
0000
0000
0100
0000
0000
0000
0000
0000
0010
0000
,  // measure 45
1000
0001
0100
0010
0210
0000
0310
0000
,  // measure 46
1010
0000
0000
0000
0010
1000
0000
0000
1010
0000
0000
0000
0100
0010
0000
0000
,  // measure 47
0110
0000
0000
0000
0010
0001
0000
0000
0101
0000
0000
0000
0110
0000
0000
0000
,  // measure 48
1001
0000
0001
0000
0100
0000
0010
1000
,  // measure 49
0010
1000
0001
0100
0010
0100
0010
1000
,  // measure 50
0100
0010
0100
1000
0001
0100
0010
0100
,  // measure 51
0000
0100
0001
0000
0000
0000
0010
0000
0000
0010
1000
0000
0000
0000
0000
0000
,  // measure 52
0000
0000
0001
1000
0001
1000
0001
0000
0100
0000
0000
0000
0010
0000
0000
0000
,  // measure 53
0001
0000
0010
0000
0100
0000
0001
0000
0100
0000
0010
0000
0100
0000
0001
0100
,  // measure 54
0000
0010
0000
0000
0000
0000
0100
0000
0001
0000
1000
0000
0010
0000
0100
0010
,  // measure 55
0000
0100
0000
0000
0000
0000
1000
0000
1010
0000
0100
0000
0110
0000
0010
0000
,  // measure 56
0000
0000
0100
0000
0010
0000
1000
0000
0001
0000
0100
0000
0010
0000
0000
0100
,  // measure 57
0000
0000
0000
0000
0000
0000
0001
0000
0010
0000
0100
0000
0010
0000
0001
0100
,  // measure 58
0000
0001
0000
0000
0000
0000
1000
0000
0100
0000
0001
0000
0100
0000
1000
0010
,  // measure 59
0000
1000
0000
0000
0000
0000
0010
0000
0110
0000
0100
0000
0101
0000
0001
0000
,  // measure 60
0000
0000
0001
0000
1000
0000
0010
0000
1000
0000
0001
0000
0100
0000
0000
0010
,  // measure 61
0000
0000
0000
0000
1000
0000
0000
0000
0001
0000
0000
0001
1000
0001
0100
0010
,  // measure 62
0000
0000
0100
0000
0000
0010
0000
0000
0100
0000
0000
1000
0001
0100
0001
1000
,  // measure 63
0000
0000
0010
0000
0000
1000
0000
0000
0100
0000
0000
0001
0100
0001
1000
0010
,  // measure 64
0000
0000
0100
0000
0000
0010
0000
0000
0001
0000
0000
0000
0000
0000
0001
0000
,  // measure 65
0010
0100
1000
1000
2010
0000
3100
0001
;
