#TITLE:In the morning;
#SUBTITLE:;
#ARTIST:ITZY;
#TITLETRANSLIT:;
#SUBTITLETRANSLIT:;
#ARTISTTRANSLIT:;
#CREDIT:;
#BANNER:In the morning.png;
#BACKGROUND:In the morning-bg.png;
#LYRICSPATH:;
#CDTITLE:;
#MUSIC:In the morning.mp3;
#OFFSET:3.140;
#SAMPLESTART:47.780;
#SAMPLELENGTH:15.000;
#SELECTABLE:YES;
#BPMS:0.000=140.000;
#STOPS:;
#BGCHANGES:;

//---------------dance-single - ----------------
#NOTES:
     dance-single:
     :
     Easy:
     4:
     0.311,0.327,0.144,0.077,0.000:
0000
0000
0000
0000
,
0000
0000
0000
0000
,
0010
0100
0010
0100
,
0010
0100
0000
0000
,
1000
0001
1000
0001
,
1000
0001
0000
0000
,
0001
0100
0001
0100
,
0001
1000
0000
0000
,
1000
0010
1000
0001
,
1000
0010
0000
0000
,
0001
0010
0100
1000
,
0100
0010
0000
0000
,
1000
0001
0100
0001
,
1000
0001
1001
0000
,
0001
0100
0001
0100
,
0010
2000
3010
0000
,
1000
0010
1000
0010
,
0001
0020
1030
0000
,
0001
0100
0101
0000
,
0100
0010
0110
0000
,
0010
1000
1010
0000
,
1000
0001
1001
0000
,
0000
0100
0100
0000
0100
0100
0000
0100
,
0100
0010
1000
0010
,
0000
0010
0010
0000
0010
0010
0000
0010
,
0010
0010
1000
0001
,
0100
0001
1000
0010
,
1000
0001
0100
0010
,
0100
0001
1000
0001
,
1000
2000
3010
1000
,
0010
1000
0010
1000
,
0001
0100
0001
0100
,
0001
1000
0010
1000
,
1010
0000
0010
0000
,
0001
0010
0001
0010
,
0100
1000
0100
1000
,
0001
1000
0001
1000
,
1001
0001
1000
0001
,
2000
0000
0010
0000
,
3020
0000
0100
0000
,
0230
0000
0001
0000
,
0302
0000
1000
0000
,
1003
0001
1000
0000
,
0010
0100
1000
0000
,
0100
0001
0100
0000
,
0020
0100
0100
0100
,
0130
0001
0100
0001
,
1000
0010
1000
0010
,
1000
0001
0100
0001
,
0101
0000
0100
0000
,
1000
0100
1000
0100
,
0010
0001
0010
0001
,
1000
0001
1000
0001
,
1001
1000
0001
1000
,
0001
0100
0101
1000
,
0010
1010
0000
0110
,
0010
0000
0100
0000
,
0010
0100
0010
0000
,
1000
0010
1010
0001
,
0100
0101
0000
0110
,
0100
0000
0010
0000
,
0100
0010
0100
0010
;

//---------------dance-single - ----------------
#NOTES:
     dance-single:
     :
     Beginner:
     2:
     0.224,0.267,0.106,0.010,0.000:
0000
0000
0000
0000
,
0000
0000
0000
0000
,
0010
0000
0010
0000
,
0010
0010
0000
0000
,
1000
0000
1000
0000
,
1000
1000
0000
0000
,
1001
0000
0001
0000
,
0110
0000
0100
0000
,
1010
0000
1000
0000
,
0011
0000
0001
0000
,
0110
0000
0010
0000
,
1100
0000
0100
0000
,
1001
0000
0001
0000
,
0001
0001
0001
0000
,
1000
0000
0001
0000
,
0100
0100
0100
0000
,
0010
0000
1000
0000
,
0010
0010
0010
0000
,
0001
0001
0001
0000
,
1000
1000
1000
0000
,
1000
0000
0010
0000
,
1000
0010
1000
0000
,
0001
0000
0001
0000
,
0100
0000
0100
0000
,
0010
0000
0010
0000
,
1000
0000
1000
0000
,
0010
0000
0010
0000
,
0100
0000
0100
0000
,
0001
0000
1000
0000
,
0001
1000
0001
0000
,
1001
0001
0001
0000
,
1000
0100
1000
0000
,
0010
0100
0010
0000
,
0100
0001
0100
0000
,
0001
0010
0001
0000
,
1000
0001
1000
0000
,
0001
0000
0100
0000
,
0010
0010
0010
0000
,
1000
0000
0010
0000
,
1000
0000
1000
0000
,
0001
0000
0001
0000
,
0010
0000
0010
0000
,
0100
0000
0100
0000
,
0001
0000
0001
0000
,
1000
0000
0010
0000
,
2000
0000
3000
0000
,
1001
1000
1000
0000
,
0001
0010
0001
0000
,
0100
0010
0100
0000
,
0010
1000
0010
0000
,
1000
0100
1000
0000
,
0001
1000
0001
0000
,
1000
0000
0010
0000
,
0100
0100
0100
0000
,
0001
0001
0001
0001
,
0001
0001
0000
0110
,
0010
0100
0010
0000
,
1000
0001
1000
0000
,
0100
0100
0100
0100
,
0100
0100
0000
1001
,
0001
1000
0001
0000
,
0100
0010
0100
0010
;

//---------------dance-single - ----------------
#NOTES:
     dance-single:
     :
     Medium:
     7:
     0.407,0.447,0.164,0.077,0.000:
0000
0000
0000
0000
,
0000
0000
0000
0000
,
1000
0100
0010
0001
,
1000
0001
0002
0003
,
0001
0010
0100
1000
,
0010
1000
0000
0000
,
0010
0010
0000
0000
1000
1000
0000
0000
,
0001
0001
0000
0000
0101
0000
0000
0000
,
0001
0001
0000
0000
1000
1000
0000
0000
,
0010
0010
0000
0000
0110
0000
0000
0000
,
1000
0010
0000
0000
0001
0100
0000
0000
,
0010
0100
0000
0000
1001
0000
0000
0000
,
1000
0010
1000
0001
,
0100
0001
1001
0000
,
0001
1000
0010
1000
,
0001
1000
0020
0000
1030
0000
0000
0000
,
1000
0001
0100
0001
,
1000
0001
0200
0000
0301
0000
0000
0000
,
0001
0100
0001
0100
0001
0000
0000
0000
,
1000
0100
0010
0001
0010
0000
0000
0000
,
1000
0010
1000
0010
1000
0100
0000
0000
,
0001
0000
0100
0010
0100
0000
0110
0000
,
0000
0010
1000
0000
0010
1000
0000
1000
,
0010
0100
0001
0100
,
0000
0001
0100
0000
0100
0001
0000
0100
,
0001
0001
1000
0010
,
1000
0010
0100
0010
,
1000
0001
0100
0001
,
1000
0001
1000
0010
,
2000
0000
3010
0000
1010
0000
1000
0010
,
1000
0010
1000
0010
1000
0001
0100
0100
,
0000
0001
0100
0000
0010
0100
0001
0100
,
0010
1000
0010
1000
,
0001
0000
0100
0000
0001
0000
0001
0100
,
0001
0100
0001
0100
0001
1000
0010
0010
,
0000
1000
0010
0000
0100
0010
1000
0001
,
0100
0010
1000
0010
,
1001
0110
1001
0000
,
2010
0100
3010
0000
,
0120
0100
0130
0000
,
0102
0010
0103
0000
,
0201
0010
0301
0000
,
1000
0010
1000
0001
,
0100
0001
1000
0001
,
0100
0010
0100
0010
,
1000
0001
1000
0001
1000
0001
1000
0000
,
0001
0100
0001
0100
0001
1000
0010
0010
,
0000
1000
0010
0000
0100
0010
1000
0010
,
0100
0001
0100
0001
,
1000
0000
0010
0000
1000
0000
1000
0010
,
1000
0010
1000
0010
1000
0001
0100
0100
,
0000
0001
0100
0000
0010
0100
0001
1000
,
0010
0100
0001
0100
,
1001
0010
0001
0010
,
0100
1000
0010
0100
,
1000
0010
0100
1001
,
1000
0000
0001
0000
0100
0001
1000
0010
,
1000
1000
0010
1010
,
0010
0001
0100
0010
,
0001
0100
0010
1001
,
0001
0000
1000
0000
0010
1000
0001
0100
,
0001
0000
0001
0000
0100
0010
0100
0010
;

//---------------dance-single - ----------------
#NOTES:
     dance-single:
     :
     Hard:
     13:
     0.505,0.566,0.154,0.038,0.231: // measure 1
0000
0000
0000
0000
,  // measure 2
0000
0000
0000
0000
,  // measure 3
1000
1000
1000
0010
,  // measure 4
1000
0010
2020
3030
,  // measure 5
0010
0100
0010
0100
,  // measure 6
0001
1000
0000
0000
,  // measure 7
1000
0010
0000
0000
1000
0010
0000
0000
,  // measure 8
1000
0010
0000
0000
1001
0000
0000
0000
,  // measure 9
0010
0100
0000
0000
0010
0100
0000
0000
,  // measure 10
0010
0100
0000
0000
0110
0000
0000
0000
,  // measure 11
0001
0100
0000
0000
0001
0100
0000
0000
,  // measure 12
0001
0100
0000
0000
0101
0000
0000
0000
,  // measure 13
0001
0001
1000
0010
1000
0001
0100
0001
,  // measure 14
1000
0010
1000
0001
0100
0010
0101
0000
0000
0001
0000
0000
,  // measure 15
0001
1000
0010
0000
0001
1000
0010
0000
,  // measure 16
0100
0010
0120
0000
0130
0000
0010
0000
,  // measure 17
1000
0001
0100
0000
1000
0001
0100
0000
,  // measure 18
0010
0100
0210
0000
0310
0000
0100
0000
,  // measure 19
0010
1000
0010
1000
0001
0100
0001
0000
0000
1000
0000
0000
,  // measure 20
0100
0001
0100
0001
1000
0010
1000
0000
0000
0001
0000
0000
,  // measure 21
0001
0100
0010
1000
0010
0100
0001
1000
0010
0100
0001
0100
,  // measure 22
0010
0000
0000
0100
0010
0100
0010
0000
0000
1000
0000
0000
,  // measure 23
1000
0010
0001
0000
0001
0010
1000
0000
,  // measure 24
0001
0100
0001
0000
0010
0100
0010
0000
,  // measure 25
1000
0010
1000
0000
0100
0001
0100
0000
,  // measure 26
0001
0010
0001
0000
1000
0000
0001
0000
,  // measure 27
1000
0010
1000
0010
,  // measure 28
1000
0001
0100
0001
,  // measure 29
0100
0001
0100
0001
0100
0010
1000
0010
,  // measure 30
1000
0001
1000
1001
,  // measure 31
0001
0100
0001
0100
0010
1000
0010
1000
,  // measure 32
0000
1000
0100
0010
0001
0100
0001
0100
,  // measure 33
0101
0001
1000
0010
,  // measure 34
1000
0000
0000
0010
0000
0000
0100
0000
0010
0000
0000
0100
0000
0000
0000
0000
,  // measure 35
0010
1000
0010
0100
0001
0100
0010
1000
,  // measure 36
0000
0001
1000
0010
1000
0001
0100
0001
,  // measure 37
0101
0000
0000
0000
0001
0001
0100
0010
,  // measure 38
1000
0000
0010
0000
1010
0010
1000
0010
,  // measure 39
1000
0000
0010
1000
0010
0000
0100
0000
,  // measure 40
0010
0000
0100
0001
0010
0000
1000
0000
,  // measure 41
0010
0000
1000
0001
1000
0000
0001
0000
,  // measure 42
0001
0000
0001
1000
0100
0000
0010
0000
,  // measure 43
0100
0000
0010
0100
0010
0000
1000
0000
,  // measure 44
0001
0000
0001
0010
0100
0000
1000
0000
,  // measure 45
0010
0000
1000
0010
0100
0000
0010
0000
,  // measure 46
1000
0010
0100
0001
0100
0010
1000
0001
0100
0010
0100
0001
,  // measure 47
1000
0010
1000
0010
0100
0001
0100
0001
,  // measure 48
0000
0001
0010
0100
1000
0010
1000
0010
,  // measure 49
1010
1000
0001
0100
,  // measure 50
0001
0000
0000
0100
0000
0000
0010
0000
0100
0000
0000
0010
0000
0000
0000
0000
,  // measure 51
0100
0001
0100
0010
1000
0010
0100
0001
,  // measure 52
0000
1000
0001
0100
0001
1000
0010
1000
,  // measure 53
1000
0010
0000
0100
0001
0000
1000
0010
0000
0010
0100
0000
,  // measure 54
0001
0000
0100
0000
0101
0100
0001
0100
,  // measure 55
0001
0100
0000
1000
0010
0000
0010
1000
0000
1000
0010
0000
,  // measure 56
0100
0010
0000
0010
0000
0000
0100
0000
0000
1001
0000
0000
,  // measure 57
0001
0000
1000
0000
0010
1000
0100
1000
,  // measure 58
0010
0010
0100
1001
,  // measure 59
1000
0010
0000
0001
0100
0000
0100
0001
0000
0001
0100
0000
,  // measure 60
0010
0100
0000
0100
0000
0000
0010
0000
0000
1001
0000
0000
,  // measure 61
1000
0000
0001
0000
0100
0001
0010
0001
,  // measure 62
0100
0000
0100
0000
1000
0100
0010
0001
;
