#TITLE:Ignis Fatuus(DM Ashura Mix);
#SUBTITLE:;
#ARTIST:BanYa & DM Ashura;
#TITLETRANSLIT:;
#SUBTITLETRANSLIT:;
#ARTISTTRANSLIT:;
#CREDIT:;
#BANNER:Ignis Fatuus(DM Ashura Mix).png;
#BACKGROUND:Ignis Fatuus(DM Ashura Mix)-bg.png;
#LYRICSPATH:;
#CDTITLE:;
#MUSIC:Ignis Fatuus(DM Ashura Mix).mp3;
#OFFSET:-0.060;
#SAMPLESTART:89.540;
#SAMPLELENGTH:15.000;
#SELECTABLE:YES;
#DISPLAYBPM:220.000;
#BPMS:0.000=110.000,32.000=220.000,104.000=110.000,120.000=220.000,216.000=110.000,248.000=329.999,260.000=220.000,338.000=329.999;
#STOPS:;
#BGCHANGES:;

//---------------dance-single - ----------------
#NOTES:
     dance-single:
     :
     Easy:
     7:
     0.378,0.683,0.254,0.220,0.000:
0000
0000
0000
0000
,
0000
0000
0000
0000
,
0000
0000
0000
0000
,
0000
0000
0000
0000
,
0000
0000
0000
0000
,
0000
0000
0000
0000
,
0000
0000
0000
0000
,
0000
0000
0000
0000
,
1001
0000
0000
0010
,
0110
0000
0000
1000
,
1001
0000
0000
0001
,
0101
0000
0000
0100
,
1100
0000
0000
0001
,
1001
0000
0000
0100
,
0101
0000
0000
0010
,
1010
0000
0000
0001
,
1001
0000
0000
0100
,
0110
0000
0000
0001
,
1001
0000
0000
1000
,
1010
0000
0000
0010
,
0011
0000
0000
1000
,
1001
0000
0000
0010
,
1010
0000
0000
0100
,
2002
0000
0000
0000
,
0000
3003
0220
0000
,
0000
0000
0000
0000
,
0330
0010
1000
0010
,
1000
0001
0100
0001
,
2000
3010
0002
0103
,
0200
0310
0010
0100
,
0110
0010
1000
0010
,
0100
0001
0100
0001
,
0001
1000
0010
1000
,
1000
0100
0010
0001
,
0100
0001
0100
0010
,
1000
0001
0100
0001
,
1000
0001
1000
0001
,
1000
0001
1000
0001
,
1001
1000
1000
1000
,
1000
0000
1000
0000
1000
0000
1000
0001
,
0100
0100
0100
0100
,
0100
0000
0100
0000
0100
0000
0100
0001
,
0010
0010
0010
0010
,
0010
0000
0010
0000
0010
0000
0010
1000
,
0001
0001
0001
0001
,
0001
0000
0001
0000
0001
0000
0001
1000
,
0001
0010
0100
0010
,
0001
1000
0100
0010
,
0100
1000
0001
0100
,
1000
0100
0001
0100
,
1000
0010
0001
0010
,
1000
0010
0001
1000
,
0100
0010
0001
0100
,
0010
1000
0001
0100
,
0101
0010
0000
0100
,
0010
1000
0001
1000
,
0110
0100
0000
0100
,
0001
1000
0010
1000
,
2002
3003
0002
0003
,
2000
3000
0020
0030
,
0100
0010
0100
0010
0100
0010
0100
0010
,
0100
0001
1000
0001
1000
0001
1000
0001
,
2002
0000
0000
0000
,
0000
0000
0000
0000
,
0000
0000
0000
3003
,
1001
0001
0001
0001
,
0001
0000
0001
0000
0001
0000
0001
1000
,
0010
0010
0010
0010
,
0010
0000
0010
0000
0010
0000
0010
1000
,
0100
0100
0100
0100
,
0100
0000
0100
0000
0100
0000
0100
0001
,
1000
1000
1000
1000
,
1000
0000
1000
0000
1000
0000
1000
0001
,
1000
0100
0010
0100
,
1000
0001
0010
0100
,
0010
0001
1000
0010
,
0001
0010
1000
0010
,
0001
0100
1000
0100
,
0001
0100
1000
0001
,
0010
0100
1000
0010
,
0100
0001
2002
0000
,
3003
0010
0220
0000
,
0330
0220
0330
2002
,
3003
0001
1000
2002
,
3003
0000
0220
0000
,
0000
0000
0000
0000
,
0000
0000
0000
0000
,
0000
0000
0000
0000
,
0000
0000
0000
0000
,
0000
0000
0000
0330
;

//---------------dance-single - ----------------
#NOTES:
     dance-single:
     :
     Beginner:
     4:
     0.251,0.531,0.228,0.101,0.000:
0000
0000
0000
0000
,
0000
0000
0000
0000
,
0000
0000
0000
0000
,
0000
0000
0000
0000
,
0000
0000
0000
0000
,
0000
0000
0000
0000
,
0000
0000
0000
0000
,
2002
0000
0000
3003
,
1001
0000
0000
0000
,
0001
0000
0000
0000
,
0100
0000
0000
0000
,
0010
0000
0000
0000
,
1000
0000
0000
0000
,
1000
0000
0000
0000
,
0001
0000
0000
0000
,
0010
0000
0000
0000
,
0110
0000
0000
0000
,
0100
0000
0000
0000
,
0010
0000
0000
0000
,
1000
0000
0000
0000
,
0001
0000
0100
0000
,
0001
0000
0100
0000
,
0001
0000
1000
0000
,
0010
0000
1000
0000
,
0010
0000
2002
0000
,
0000
0000
0000
0000
,
3003
0010
0010
0010
,
0000
1000
1000
1000
,
0000
0001
0001
0001
,
0000
1000
1000
1000
,
0110
0000
0000
0000
,
0010
0000
0000
0000
,
1000
0000
0000
0000
,
0001
0000
0000
0000
,
0100
0000
0000
0000
,
0001
0000
0000
0000
,
1000
0000
0000
0000
,
0010
0000
0000
0000
,
0100
0010
0100
0000
,
0001
1000
0001
0000
,
1000
0001
1000
0000
,
0010
0100
0010
0000
,
1000
0100
1000
0000
,
0001
0100
0001
0000
,
0010
0001
0010
0000
,
0100
0001
0100
0000
,
1000
0001
1000
0000
,
0001
0100
0001
0000
,
0001
0001
0001
0000
,
0010
0010
0010
0000
,
0100
0100
0100
0000
,
1000
1000
1000
0000
,
0001
0001
0001
0000
,
1000
1000
1000
0000
,
1000
0000
0001
0000
,
1001
0110
1001
0000
,
0100
0000
0010
0000
,
0110
1001
0110
0000
,
0002
0000
0003
0000
,
0200
0000
0300
0000
,
0010
0100
0010
0100
,
0020
0000
0230
0300
,
2002
0000
0000
0000
,
0000
0000
0000
0000
,
0000
0000
0000
3003
,
1001
0001
1000
0000
,
1000
0001
1000
0000
,
0001
1000
0001
0000
,
0100
0010
0100
0000
,
0001
0010
0001
0000
,
1000
0010
1000
0000
,
0100
1000
0100
0000
,
0010
1000
0010
0000
,
0001
1000
0001
0000
,
1000
0010
1000
0000
,
1000
0100
1000
0000
,
0010
0100
0010
0000
,
0010
1000
0010
0000
,
0001
0100
0001
0000
,
1000
0001
1000
0000
,
0110
0110
0110
0000
,
1001
1001
1001
0000
,
0110
0110
0110
0000
,
1001
0110
1001
0110
,
0000
0000
2002
0000
,
0000
0000
0000
0000
,
0000
0000
0000
0000
,
0000
0000
0000
0000
,
0000
0000
0000
0000
,
0000
0000
0000
3003
;

//---------------dance-single - ----------------
#NOTES:
     dance-single:
     :
     Hard:
     15:
     0.696,1.000,0.567,0.584,0.266:
0000
0000
0000
0000
,
0000
0000
0000
0000
,
0000
0000
0000
0000
,
0000
0000
0000
0000
,
0000
0000
0000
0000
,
0000
0000
0000
0000
,
0000
0000
0000
0000
,
0000
0000
0000
0000
,
2000
0000
0000
3010
0000
0000
1010
0000
,
0002
0000
0000
0103
0000
0000
0101
0000
,
2000
0000
0000
3010
0000
0000
1010
0000
,
0002
0000
0000
0103
0000
0000
0101
0000
,
0200
0000
0000
0310
0000
0000
0110
0000
,
0002
0000
0000
1003
0000
0000
1001
0000
,
0200
0000
0000
0310
0000
0000
0110
0000
,
0002
0000
0000
1003
0000
0000
0100
0010
,
1001
0101
1010
0110
,
1001
0011
1100
1001
,
1001
1010
0101
0110
,
1001
1100
0011
1001
,
0001
0100
0010
0000
1000
0010
0100
0000
,
0010
0100
0010
0000
1000
0001
1000
0000
,
0010
0100
0001
1000
0010
0100
0001
1000
,
0002
1003
0020
0130
0002
1003
0020
0130
,
0000
0002
2000
0000
,
0000
0000
0000
0000
0000
0000
0000
3003
,
1001
0000
1000
0001
0000
0001
1000
0000
0010
0100
0000
0100
0010
0100
0002
0000
,
1003
0000
0001
1000
0000
1000
0001
0000
0100
0010
0000
0010
0100
0010
2000
0000
,
3001
1000
0001
0200
0000
0300
0100
0000
0100
0001
1000
0020
0000
0030
0010
0000
,
0001
1000
0001
2000
0000
3000
0001
0000
0100
0001
1000
0010
1000
0001
1000
0000
,
0101
0000
0001
0100
0000
0100
0001
0000
,
1000
0010
0000
0010
1000
0000
1001
0000
,
1010
0000
1000
0010
0000
0010
0100
0000
,
0100
0010
0000
0100
0001
0000
0101
0000
,
0001
1000
0010
2000
0000
3000
1000
0000
,
0010
1000
0001
0200
0000
0300
0100
0000
,
0001
0010
0100
1000
0010
1000
0010
0100
,
2002
0000
0000
3003
,
2000
3000
0020
0030
0002
0003
0020
0030
,
2000
3000
0200
0300
0020
0030
0002
0003
,
0002
0003
0200
0300
2000
3000
0200
0300
,
0002
0003
2000
3000
0002
0003
1000
0001
,
2000
3000
0002
0003
0200
0300
0002
0003
,
2000
3000
0002
0003
0200
0300
0020
0030
,
2000
3000
0002
0003
0020
0030
0200
0300
,
2000
3000
0002
0003
2000
3000
0001
0100
,
1001
1001
1001
1001
,
0101
0101
0101
0101
,
1010
1010
1010
1010
,
0110
0110
0110
0110
,
0101
1010
1001
1100
,
0110
0011
0101
0110
,
1010
1001
0101
1010
,
1001
0110
1001
0110
,
1000
0010
0000
1000
0010
0000
1000
0010
1000
0010
0000
1000
0010
1000
0010
0000
,
1000
0010
0000
1000
0010
0000
1000
0010
1000
0010
0000
1000
0010
1000
0010
0000
,
0001
0100
0000
0001
0100
0000
0001
0100
0001
0100
0000
0001
0100
0001
0100
0000
,
0001
0100
0000
0001
0100
0000
0001
0100
0001
0100
0000
0001
0100
0001
0100
0000
,
1000
0010
1000
0010
0000
1000
0010
0000
1000
0010
1000
0010
0000
1000
0010
0000
,
0001
0100
0001
0100
0000
0001
0100
0000
0001
0100
0001
0100
0000
0001
0100
0000
,
0001
1000
0020
0030
1000
0001
0200
0300
0010
1000
0002
0003
1000
0001
2000
3000
,
0001
1000
0001
1000
0001
1000
0001
1000
0220
0000
0000
0000
0000
0000
0000
0330
,
2002
0000
0000
0000
,
0000
0000
0000
0000
,
0000
0000
0000
3003
,
1000
0010
1000
0010
1000
0001
0100
0001
,
0100
0001
1000
0001
1000
0001
1000
0000
,
0001
0100
0010
1000
0010
0100
0001
1000
,
0010
0100
0001
0100
0010
1000
0001
0000
,
1000
0001
0100
0001
1000
0001
1000
0010
,
1000
0001
1000
0001
1000
0001
0100
0000
,
0001
0010
0100
1000
0001
1000
0001
1000
,
0010
1000
0001
1000
0100
0010
0001
0000
,
1000
0001
1000
0001
1000
0001
1000
0010
,
0100
0010
0100
0010
0100
0010
1000
0001
,
1000
0001
1000
0100
0010
0001
0100
0001
,
1000
0010
1000
0001
0100
0001
1000
0010
,
1000
0000
0000
0100
0001
0000
0000
0100
,
0001
0000
0000
0001
1000
0000
0000
1000
,
0001
1001
1000
1001
,
0001
1000
0001
1000
0002
0000
0003
0000
,
1000
0001
1000
0001
2000
0000
3000
0000
,
0001
0100
0002
0003
1000
0010
2000
3000
,
0010
0100
0010
0100
2002
0000
0000
0000
,
3003
0000
2002
0000
,
0000
0000
0000
0000
,
0000
0000
0000
0000
,
0000
0000
0000
0000
,
0000
0000
0000
0000
,
0000
0000
0000
3003
;

//---------------dance-single - ----------------
#NOTES:
     dance-single:
     :
     Medium:
     12:
     0.477,0.835,0.677,0.161,0.042: // measure 1
0000
0000
0000
0000
,  // measure 2
0000
0000
0000
0000
,  // measure 3
0000
0000
0000
0000
,  // measure 4
0000
0000
0000
0000
,  // measure 5
0000
0000
0000
0000
,  // measure 6
0000
0000
0000
0000
,  // measure 7
0000
0000
0000
0000
,  // measure 8
0000
0000
0000
0000
,  // measure 9
0101
0000
0000
0101
0000
0000
0010
0000
,  // measure 10
0110
0000
0000
0110
0000
0000
1000
0000
,  // measure 11
1010
0000
0000
1010
0000
0000
0100
0000
,  // measure 12
1001
0000
0000
1001
0000
0000
0010
0000
,  // measure 13
1010
0000
0000
1010
0000
0000
0100
0000
,  // measure 14
0110
0000
0000
0110
0000
0000
0001
0000
,  // measure 15
0101
0000
0000
0101
0000
0000
0010
0000
,  // measure 16
1001
0000
0000
1001
0000
0000
0100
0000
,  // measure 17
1010
0000
0000
0101
0000
0000
0001
0000
,  // measure 18
0011
0000
0000
1100
0000
0000
1000
0000
,  // measure 19
0110
0000
0000
1001
0000
0000
0010
0000
,  // measure 20
1010
0000
0000
0101
0000
0000
0010
1000
,  // measure 21
0001
0000
0000
1000
0001
0000
0000
0001
,  // measure 22
0100
0000
0000
0100
0010
0000
0000
0001
,  // measure 23
1000
0001
1000
0001
1000
0001
1000
0001
,  // measure 24
1000
0002
0000
2003
0000
3002
0000
1003
,  // measure 25
0000
0110
2002
0000
,  // measure 26
0000
0000
0000
3003
,  // measure 27
1000
0010
1000
0010
0100
0010
1000
0000
,  // measure 28
0001
0100
0010
0100
0001
1000
0010
0000
,  // measure 29
0000
1000
0001
0010
0000
1000
0001
1000
,  // measure 30
0000
0001
0100
0001
1000
0010
0100
0010
,  // measure 31
0110
0000
0000
0010
0000
0000
0100
0000
,  // measure 32
0101
0000
0000
1000
0000
0000
0010
0000
,  // measure 33
1010
0000
0000
0010
0000
0000
0100
0000
,  // measure 34
1001
0000
0000
0001
0000
0000
0100
0000
,  // measure 35
0101
0000
0000
1000
0000
0000
1000
0000
,  // measure 36
1010
0000
0000
0001
0000
0000
0100
0000
,  // measure 37
0100
0001
1000
0001
,  // measure 38
1000
0100
0010
0001
0100
0001
1000
0010
,  // measure 39
1000
1000
0010
0010
,  // measure 40
1000
0001
1000
0001
,  // measure 41
0100
0001
1000
0010
,  // measure 42
1000
0000
0001
0000
1000
0000
0010
1000
,  // measure 43
0001
0100
0001
1000
,  // measure 44
0010
1000
0001
0100
,  // measure 45
0001
0010
1000
0010
,  // measure 46
0001
0000
0010
0000
1000
0000
0001
0100
,  // measure 47
1001
1001
1001
1001
,  // measure 48
0101
0101
0101
0101
,  // measure 49
1010
1010
1010
1010
,  // measure 50
0110
0110
0110
0110
,  // measure 51
0010
1000
0010
1000
,  // measure 52
0001
0100
0001
0100
,  // measure 53
0001
1000
0001
1000
,  // measure 54
0001
1000
0001
1000
,  // measure 55
0010
1000
0000
0010
0000
0000
1000
0000
0010
0000
0000
1000
0010
0000
1000
0000
,  // measure 56
0000
0000
0000
0000
,  // measure 57
0100
0001
0000
0100
0000
0000
0001
0000
0100
0000
0000
0001
0100
0000
0001
0000
,  // measure 58
0000
0000
0000
0000
,  // measure 59
1000
0001
0000
1000
0000
0000
1001
0000
0000
0000
0000
0000
0000
0000
0000
0000
,  // measure 60
0001
1000
0000
0001
0000
0000
1001
0000
0000
0000
0000
0000
0000
0000
0000
0000
,  // measure 61
1000
1010
1000
1010
0100
0101
0001
0101
,  // measure 62
0001
0010
0100
1000
2002
0000
0000
3003
,  // measure 63
0220
0000
0000
0000
,  // measure 64
0000
0000
0000
0000
,  // measure 65
0000
0000
0000
0330
,  // measure 66
0001
0001
0100
0100
,  // measure 67
0001
1000
0001
1000
,  // measure 68
0010
1000
0001
0100
,  // measure 69
0001
0000
1000
0000
0001
0000
0100
0001
,  // measure 70
1000
0010
1000
0001
,  // measure 71
0100
0001
1000
0010
,  // measure 72
1000
0100
0001
0100
,  // measure 73
1000
0000
0100
0000
0001
0000
1000
0010
,  // measure 74
1001
1001
1001
1001
,  // measure 75
1010
1010
1010
1010
,  // measure 76
0101
0101
0101
0101
,  // measure 77
0110
0110
0110
0110
,  // measure 78
0100
0001
0100
0001
,  // measure 79
1000
0010
1000
0010
,  // measure 80
1000
0001
1000
0001
,  // measure 81
1000
0001
2002
3003
,  // measure 82
0010
0010
0220
0330
,  // measure 83
1000
2020
3030
0202
,  // measure 84
0303
0101
1010
0110
,  // measure 85
0000
0000
2002
0000
,  // measure 86
0000
0000
0000
0000
,  // measure 87
0000
0000
0000
0000
,  // measure 88
0000
0000
0000
0000
,  // measure 89
0000
0000
0000
0000
,  // measure 90
0000
0000
0000
3003
;
