#TITLE:Ice Cream;
#SUBTITLE:;
#ARTIST:BLACKPINK & Selena Gomez;
#TITLETRANSLIT:;
#SUBTITLETRANSLIT:;
#ARTISTTRANSLIT:;
#CREDIT:;
#BANNER:Ice Cream.png;
#BACKGROUND:Ice Cream-bg.png;
#LYRICSPATH:;
#CDTITLE:;
#MUSIC:Ice Cream.mp3;
#OFFSET:-0.320;
#SAMPLESTART:36.320;
#SAMPLELENGTH:15.000;
#SELECTABLE:YES;
#BPMS:0.000=160.000;
#STOPS:;
#BGCHANGES:;

//---------------dance-single - ----------------
#NOTES:
     dance-single:
     :
     Beginner:
     3:
     0.213,0.197,0.000,0.016,0.000:
0000
0000
0000
0000
,
0000
0000
0000
0000
,
0000
0000
0000
0000
,
0000
0000
0000
0000
,
1000
0000
0010
0000
,
1000
0000
0001
0000
,
1000
0000
0001
0000
,
0100
0000
0001
0000
,
0100
0000
0001
0000
,
0100
0000
0001
0001
,
0001
0000
0010
0000
,
1000
0000
0010
0010
,
0010
0000
0001
0000
,
0100
0000
1000
1000
,
1000
0000
0001
0000
,
1000
0000
0010
0010
,
0010
0000
1000
0000
,
0001
0000
0100
0100
,
0100
0000
0001
0000
,
1000
0000
1000
1000
,
1000
0000
1000
0000
,
0010
0000
0100
0100
,
0100
0000
0010
0000
,
1000
0000
0010
0010
,
0010
0000
1000
0000
,
0001
0001
0001
0000
,
1000
0000
0010
0000
,
1000
1000
1000
0000
,
0010
0000
1000
0000
,
0001
0000
0100
0000
,
0001
0000
1000
0000
,
0010
0000
1000
0000
,
1000
1000
1000
0000
,
0010
0000
0100
0000
,
0010
0010
0010
0000
,
1000
0000
0001
0000
,
0100
0000
0001
0000
,
0001
0001
0001
0000
,
1000
0000
0001
0000
,
1000
1000
1000
0000
,
0010
0000
0001
0000
,
1000
0000
0100
0000
,
0010
0000
0001
0000
,
1000
0000
0001
0000
,
1000
0000
0100
0000
,
1000
0000
0100
0000
,
1000
0000
0001
0000
,
0200
0000
0300
0000
,
0010
0000
0010
0000
,
1000
1000
1000
0000
,
0001
0000
1000
0000
,
0001
0001
0001
0000
,
0100
0000
0001
0000
,
0100
0100
0100
0000
,
0010
0000
1000
0000
,
0010
0010
0010
0000
,
0100
0000
0100
0000
,
0001
0001
0001
0000
,
1000
0000
0001
0000
,
1000
1000
1000
0000
,
0010
0000
1000
0000
,
0010
0010
0010
0000
,
0100
0000
0001
0000
,
0100
0100
0100
0000
,
1000
0000
1000
0000
,
0100
1000
0100
0000
,
0010
0000
0100
0000
,
0010
0001
0010
0000
,
0001
0000
0010
0000
,
0001
1000
0001
0000
,
1000
0000
0100
0000
,
1000
0001
1000
0000
,
0001
0000
0001
0000
,
0010
1000
0010
0000
,
0100
0000
0010
0000
,
0100
0001
0100
0000
,
1000
0000
0100
0000
,
1000
0010
1000
0000
,
0001
0000
0010
0000
,
0001
0000
0002
0000
,
0003
0000
0000
0000
;

//---------------dance-single - ----------------
#NOTES:
     dance-single:
     :
     Easy:
     5:
     0.334,0.393,0.115,0.115,0.000:
0000
0000
0000
0000
,
0000
0000
0000
0000
,
0000
0000
0000
0000
,
0000
0000
0000
0000
,
0000
0000
0000
0000
,
0000
0000
0000
0000
,
0000
0000
0000
0000
,
0000
0000
0000
0000
,
1000
0010
0100
0010
,
0002
0000
1003
0000
,
0100
0001
0100
0010
,
2000
0000
3100
0000
,
0010
0010
0100
0001
,
1000
0010
0100
0010
,
0001
0100
0001
1000
,
0010
1000
0010
0000
,
0001
0100
0010
0100
,
2000
0000
3001
0000
,
0010
1000
0010
0100
,
0002
0000
0013
0000
,
0100
0100
0010
1000
,
0001
0100
0010
0100
,
1000
0010
1000
0001
,
0100
0001
0100
0000
,
0001
0010
0100
0010
,
0001
0100
0101
0000
,
1000
0100
0001
0100
,
1000
0010
1010
0000
,
0010
0100
0010
1000
,
0010
0001
0011
0000
,
0001
0100
1000
0010
,
0100
0010
1010
0000
,
1000
0100
0010
0100
,
1000
0010
1010
0000
,
0001
0010
1000
0010
,
0001
0100
0101
0000
,
0100
0010
0100
0001
,
0100
1000
1100
0000
,
1000
0010
0001
0100
,
0010
0100
0101
0000
,
0100
0010
1000
0010
,
0100
1000
1100
0000
,
0001
1000
0100
1000
,
0001
0010
0011
0000
,
0010
1000
0010
0001
,
0010
0100
0110
0000
,
0100
1000
0001
0010
,
2000
0000
3002
0000
,
1003
0010
0100
0001
,
0010
0010
0010
0000
,
1000
0001
0100
0010
,
1000
1000
1000
0000
,
0010
1000
0010
0001
,
0100
0001
0100
1000
,
0100
0010
1000
0001
,
0100
0010
0110
0000
,
0001
0010
0001
0100
,
1000
0100
1000
0010
,
1000
0001
0010
0100
,
1000
0001
1001
0000
,
1000
0010
0100
0001
,
0010
0001
1000
0100
,
1000
0100
0010
0100
,
0010
0010
0101
0000
,
0001
0100
0001
1000
,
0010
0100
0001
1000
,
0010
0100
0010
1000
,
0001
0100
0001
1000
,
0010
0001
0010
1000
,
0010
0100
0001
0010
,
0200
0310
0002
1003
,
2000
3010
0002
0003
,
1000
0010
1000
0001
,
0100
0010
1000
0001
,
0100
0010
0100
0001
,
1000
0010
1000
0001
,
0100
1000
0100
0001
,
0100
0010
1000
0100
,
0020
0130
2000
3001
,
0002
0000
2003
0000
,
3000
0000
0000
0000
;

//---------------dance-single - ----------------
#NOTES:
     dance-single:
     :
     Medium:
     8:
     0.411,0.492,0.246,0.107,0.000:
0000
0000
0000
0000
,
0000
0000
0000
0000
,
0000
0000
0000
0000
,
0000
0000
0000
0000
,
0000
0000
0000
0000
,
0000
0000
0000
0000
,
0000
0000
0000
0000
,
0000
0000
0000
0000
,
0010
0000
0100
0000
0010
0000
0001
1000
,
0002
0000
0000
1003
0001
0000
1000
0000
,
0010
0000
1000
0000
0001
0000
0100
0010
,
0200
0000
0000
0310
0100
0000
0010
0000
,
1000
1100
0010
0110
,
0001
0011
0001
0101
,
1000
1010
0010
1001
,
0100
0110
0010
0101
,
0100
0000
0010
0000
0100
0000
1000
0001
,
2000
0000
0000
3001
1000
0000
0001
0000
,
0100
0000
0001
0000
1000
0000
0010
0100
,
0020
0000
0000
0130
0010
0000
0100
0000
,
0001
0011
0100
0110
,
1000
1100
1000
1010
,
0001
0101
0100
1001
,
0010
0110
0100
1010
,
1000
0010
1000
0010
,
0100
0001
0010
0000
,
0001
0100
0001
1000
,
0010
1000
0010
0000
,
0100
0010
0100
0000
0010
0000
0001
0000
,
0100
0010
1000
0000
0001
0000
0100
0000
,
0001
1000
0100
0000
1000
0000
0010
0000
,
0100
0001
1000
0000
0010
0000
0000
0000
,
0001
0100
0001
0100
,
0010
1000
0100
0000
,
1000
0010
1000
0001
,
0100
0001
0100
0000
,
0010
0100
0010
0000
0100
0000
1000
0000
,
0010
0100
0001
0000
1000
0000
0010
0000
,
1000
0001
0010
0000
0001
0000
0100
0000
,
0010
1000
0001
0000
0100
0000
0000
0000
,
0100
0000
0010
0000
1000
0010
1000
0010
,
1000
0010
0001
0000
,
0001
0000
0100
0000
0010
0100
0010
0100
,
0010
0001
1000
0000
,
0010
0000
0100
0000
0001
0100
0001
0100
,
0001
0100
1000
0000
,
1000
0000
0010
0000
0100
0010
0100
0010
,
0200
0000
0302
0000
,
0103
0000
0001
0000
0010
0001
1000
0000
,
0010
0100
0010
0000
,
1000
0000
0100
0000
0010
1000
0001
0000
,
0100
0001
0100
0000
,
0001
0011
0001
0101
,
0010
0110
0100
1001
,
1000
1010
0100
1100
,
1000
0001
1000
0001
1000
0000
0000
0000
,
0001
0000
0100
0000
0010
0100
0001
0000
,
0100
0000
0001
0000
1000
0100
0010
0000
,
0100
0000
0010
0000
1000
0010
0100
0000
,
0010
0000
0100
0000
0001
0100
1000
0000
,
1000
0000
0010
0000
0100
0010
1000
0000
,
0010
0000
1000
0000
0001
0010
0100
0000
,
0010
0000
0100
0000
0001
0100
0010
0000
,
0100
0000
0010
0000
1000
0010
0001
0000
,
0100
0000
0010
1000
0010
0000
0100
0000
,
0001
0000
0100
0010
0100
0000
0010
0000
,
1000
0010
0100
0001
,
0010
0010
0101
0000
,
0010
0000
0001
1000
0001
0000
1000
0000
,
0100
1000
0001
0010
,
2010
3100
0102
0013
,
2001
0000
3001
0000
0100
0010
0000
0000
,
0010
0000
0100
0001
0100
0000
0010
0000
,
1000
0000
0010
0100
0010
0000
0100
0000
,
0001
0100
0010
1000
,
0100
0100
1010
0000
,
0100
0000
1000
0001
1000
0000
0001
0000
,
0010
0001
1000
0100
,
0102
0013
2010
3100
,
1002
0000
0023
0000
,
0030
0000
0000
0000
;

//---------------dance-single - ----------------
#NOTES:
     dance-single:
     :
     Hard:
     14:
     0.552,0.557,0.115,0.180,0.139: // measure 1
0000
0000
0000
0000
,  // measure 2
0000
0000
0000
0000
,  // measure 3
0000
0000
0000
0000
,  // measure 4
0000
0000
0000
0000
,  // measure 5
0100
0000
0001
0000
0010
0000
1000
0100
,  // measure 6
0010
0001
0100
0001
,  // measure 7
1000
0000
0010
0000
0001
0000
0100
0001
,  // measure 8
1000
0010
0110
0000
,  // measure 9
0001
0100
0010
1000
0010
0100
0001
0100
,  // measure 10
2000
0000
0000
3010
1000
0000
0001
0000
,  // measure 11
0100
0010
1000
0010
0100
0001
1000
0010
,  // measure 12
0200
0000
0000
0310
0100
0000
0010
0000
,  // measure 13
1000
0010
0000
0000
0010
1000
0000
0000
0001
0100
0000
0000
0100
0001
0000
0000
,  // measure 14
0010
0100
0000
0000
0100
0001
0000
0000
0001
1000
0000
0000
1000
0001
0000
0000
,  // measure 15
0100
0010
0000
0000
0100
0010
0000
0000
0010
1000
0000
0000
1000
0000
0010
0000
,  // measure 16
1000
0010
0001
0010
1000
0010
0000
0000
,  // measure 17
1000
0010
0100
0001
0100
0010
1000
0010
,  // measure 18
0002
0000
0000
0103
0001
0000
1000
0000
,  // measure 19
0010
0100
0001
0100
0010
1000
0001
0100
,  // measure 20
0020
0000
0000
0130
0010
0000
0100
0000
,  // measure 21
0001
0100
0000
0000
0100
0001
0000
0000
1000
0010
0000
0000
0010
1000
0000
0000
,  // measure 22
0100
0010
0000
0000
0010
1000
0000
0000
1000
0001
0000
0000
0001
1000
0000
0000
,  // measure 23
0010
0100
0000
0000
0010
0100
0000
0000
0100
0001
0000
0000
0001
0000
0100
0000
,  // measure 24
0001
0100
1000
0100
0001
0100
0000
0000
,  // measure 25
0102
0103
0010
1000
,  // measure 26
0010
0100
0001
0000
,  // measure 27
2010
3010
0100
0001
,  // measure 28
1000
0010
0100
0000
,  // measure 29
0100
0010
0001
0010
0100
0000
0010
1000
,  // measure 30
0001
0100
0010
0000
1001
0000
0000
0000
,  // measure 31
1000
0001
0100
0001
1000
0000
1000
0000
,  // measure 32
0001
0010
0100
0000
0001
0000
0000
0000
,  // measure 33
2010
3010
0100
0001
,  // measure 34
0100
0010
1000
0000
,  // measure 35
0102
0103
0010
1000
,  // measure 36
0001
0100
0010
0000
,  // measure 37
0010
0100
1000
0100
0010
0000
0100
0001
,  // measure 38
1000
0010
0100
0000
1001
0000
0000
0000
,  // measure 39
0001
1000
0010
1000
0001
0000
0001
0100
,  // measure 40
1000
0100
0010
0000
1000
0000
0000
0000
,  // measure 41
0010
0000
0101
0000
0010
0100
0010
0100
,  // measure 42
0010
0000
1000
0000
0010
0100
0000
0000
,  // measure 43
1000
0000
0011
0000
1000
0001
1000
0001
,  // measure 44
1000
0000
0100
0000
1000
0001
0000
0000
,  // measure 45
0100
0000
1010
0000
0100
0010
0100
0010
,  // measure 46
0100
0000
0001
0000
0100
0010
0000
0000
,  // measure 47
0001
0000
1100
0000
0001
1000
0001
1000
,  // measure 48
0002
0000
2003
0000
,  // measure 49
3001
0100
1000
0100
0001
0100
1000
0000
,  // measure 50
0020
0030
2000
3000
0020
0030
0100
0010
,  // measure 51
0100
0010
1000
0100
0010
0001
0100
0010
,  // measure 52
2000
0000
3000
0000
0001
0000
1000
0000
0020
0000
0030
0000
0100
0010
0000
0000
,  // measure 53
0010
0100
0000
0000
0001
1000
0000
0000
0001
1000
0000
0000
0010
1000
0000
0000
,  // measure 54
1000
0010
0000
0000
0100
0001
0000
0000
0100
0001
0000
0000
0001
0010
0000
0000
,  // measure 55
0010
0100
0000
0000
0100
1000
0000
0000
1000
0100
0000
0000
0001
0000
0010
0000
,  // measure 56
1000
0010
0001
0010
0001
0100
0010
1000
,  // measure 57
0010
0100
0001
1000
0010
1000
0100
0010
,  // measure 58
0001
0010
0100
1000
0010
0100
0001
0100
,  // measure 59
0001
1000
0010
0100
0001
0100
0010
0001
,  // measure 60
1000
0100
0010
0100
1000
0010
1000
0010
,  // measure 61
0100
0001
0100
0001
0010
0001
0010
0001
,  // measure 62
0100
0010
1000
0001
1000
0010
1000
0001
,  // measure 63
0100
0001
0100
0010
1000
0010
0100
0001
,  // measure 64
1000
0100
0010
0001
0100
0010
1001
0000
,  // measure 65
0100
0000
0100
0010
0100
0000
0010
0000
,  // measure 66
1000
0000
0001
0100
0001
0000
0100
0000
,  // measure 67
0010
0000
1000
0010
0100
0000
0001
0100
,  // measure 68
0001
1000
0010
0000
1010
0000
1000
0010
,  // measure 69
1000
0000
1000
0010
0001
0000
0100
0010
,  // measure 70
0001
0010
0100
0010
1000
0000
0000
0000
,  // measure 71
0020
1030
0200
0310
,  // measure 72
0200
0000
0301
0000
0001
1000
0000
0000
,  // measure 73
0010
0000
0010
0100
0010
0000
0100
0000
,  // measure 74
0001
0000
1000
0010
1000
0000
0010
0000
,  // measure 75
0100
0000
0001
0100
0010
0000
1000
0010
,  // measure 76
1000
0001
0100
0000
0101
0000
0001
0100
,  // measure 77
0001
0000
0001
0100
1000
0000
0010
0100
,  // measure 78
1000
0100
0010
0100
0001
0000
0000
0000
,  // measure 79
0200
0301
0020
0130
,  // measure 80
0020
0000
2030
0000
,  // measure 81
3000
0000
0000
0000
;
