#TITLE:IXO;
#SUBTITLE:;
#ARTIST:Billkin;
#TITLETRANSLIT:;
#SUBTITLETRANSLIT:;
#ARTISTTRANSLIT:;
#CREDIT:;
#BANNER:IXO.png;
#BACKGROUND:IXO-bg.png;
#LYRICSPATH:;
#CDTITLE:;
#MUSIC:IXO.mp3;
#OFFSET:1.040;
#SAMPLESTART:49.240;
#SAMPLELENGTH:15.000;
#SELECTABLE:YES;
#BPMS:0.000=117.000;
#STOPS:;
#BGCHANGES:1.840=IXO.avi=1.000=0=0=0,
99999=-nosongbg-=1.000=0=0=0 // don't automatically add -songbackground-
;

//---------------dance-single - ----------------
#NOTES:
     dance-single:
     :
     Easy:
     4:
     0.222,0.329,0.124,0.299,0.000:
0000
0000
0000
0000
,
0000
0000
0000
0000
,
0000
0000
0000
0000
,
0000
0000
0000
0000
,
0000
0000
0000
0000
,
0000
0000
0000
0000
,
0000
0000
0000
0000
,
0000
0000
0000
0000
,
0000
0000
0000
0000
,
0010
0100
0000
1000
,
0100
0010
0000
0100
,
0010
0001
0000
1000
,
0001
1000
0000
0001
,
0100
0010
0000
0100
,
1000
0001
0000
0010
,
0010
0100
0000
0001
,
0010
0001
0000
0100
,
0010
0100
0000
1000
,
0010
1000
0000
0100
,
0001
0100
0000
0010
,
0001
0100
0000
1000
,
2000
0000
3020
0000
,
2030
0000
3002
0000
,
1003
0000
0000
0110
0000
0000
2002
0000
,
0000
3003
1001
0000
,
0001
0100
0010
0100
,
0001
0000
0010
0000
,
1000
0010
0001
0010
,
1000
0000
0100
0000
,
0010
1000
0010
1000
,
0001
0000
0100
0000
,
0010
0000
1000
0000
,
0010
0000
0100
0000
,
0001
0100
1000
0100
,
0001
0000
0100
0000
,
0010
1000
0010
0001
,
0010
0000
0100
0000
,
1000
0001
1000
0001
,
0100
0000
0010
0000
,
1001
0000
0000
0110
0000
0000
1001
0000
,
0000
0110
0000
0000
1001
0000
0110
0000
,
0020
0230
0320
0030
,
2000
3002
2003
3000
,
0002
0023
0230
0300
,
2000
3200
0320
0030
,
0200
0320
0032
0003
,
0002
2003
3002
0003
,
0002
0000
0023
0000
,
0230
0000
2300
0000
,
3010
1000
0010
0100
,
0001
0000
0100
0000
,
1000
0010
1000
0010
,
0100
0000
0001
0000
,
0100
0001
0100
0001
,
0010
0000
0100
0000
,
0220
0000
0330
2002
0000
3003
0220
0000
,
0330
2002
0000
3003
0110
0000
1001
0000
;

//---------------dance-single - ----------------
#NOTES:
     dance-single:
     :
     Beginner:
     2:
     0.165,0.306,0.058,0.100,0.000:
0000
0000
0000
0000
,
0000
0000
0000
0000
,
0000
0000
0000
0000
,
0000
0000
0000
0000
,
0000
0000
0000
0000
,
0000
0000
0000
0000
,
0000
0000
0000
0000
,
0000
0000
0000
0000
,
0000
0000
0000
0000
,
0000
0010
0000
0100
,
0000
0010
0000
1000
,
0000
1000
0000
0001
,
0000
0001
0000
0100
,
0000
0100
0000
0010
,
0000
1000
0000
0001
,
0000
0100
0000
0001
,
0000
1000
0000
0010
,
0000
0100
0100
0100
,
0000
0010
0010
0010
,
0000
1000
1000
1000
,
0000
0001
0001
0001
,
0000
0001
0000
0100
,
0000
0010
0000
2002
,
3003
0220
0330
2002
,
3003
1000
0001
1000
,
0000
0010
0000
0100
,
0000
0001
1000
0001
,
0000
1000
0000
0001
,
0000
0100
0000
0010
,
0000
0010
1000
0010
,
0000
0100
0000
0001
,
0000
0100
0001
0100
,
0000
0010
0000
1000
,
0000
0010
0100
0010
,
0000
0100
0000
0010
,
0000
1000
0100
1000
,
0000
0001
0000
0001
,
0000
0001
0010
0001
,
0000
0001
0000
0100
,
0200
0300
0020
0030
,
2000
3000
0110
1001
,
0000
0001
0001
0001
,
0000
1000
1000
1000
,
0000
0010
0010
0010
,
0000
0100
0100
0100
,
0000
0010
0010
0010
,
0000
0100
0100
0100
,
0000
0001
0001
0001
,
0000
1000
1000
1000
,
0000
0010
0100
0010
,
0000
0010
0000
1000
,
0000
0001
1000
0001
,
0000
0100
0000
1000
,
0000
0010
0100
0010
,
0000
1000
0000
1000
,
2000
3000
0002
0003
,
2000
3000
0110
1001
;

//---------------dance-single - ----------------
#NOTES:
     dance-single:
     :
     Medium:
     6:
     0.300,0.329,0.124,0.274,0.000:
0000
0000
0000
0000
,
0000
0000
0000
0000
,
0000
0000
0000
0000
,
0000
0000
0000
0000
,
0000
0000
0000
0000
,
0000
0000
0000
0000
,
0000
0000
0000
0000
,
0000
0000
0000
0000
,
0000
0000
0000
0000
1000
0010
1000
0010
,
0000
0000
1010
0000
0010
0100
0001
0010
,
0000
0000
0101
0000
0001
1000
0001
1000
,
0000
1000
1010
0010
,
0100
0000
0101
0000
0001
0010
0100
1000
,
0000
0000
1010
0000
0010
1000
0001
0100
,
0001
0100
0110
0010
,
1010
0000
1000
0010
1000
0000
0010
0100
,
0000
0010
0000
0000
0100
0000
0010
0000
,
1001
0001
0001
0100
,
0010
0100
0010
1000
,
0010
1000
1000
0010
,
0100
0000
0010
0000
1000
0000
0100
2000
,
0000
3000
0010
0200
0000
0300
0001
0020
,
0000
0030
0000
0002
0000
1003
0001
2000
,
0000
0000
3000
2002
0000
3003
0220
0000
,
0000
0000
0330
0000
0010
0100
0010
0100
,
0020
0100
0100
0130
,
0000
0000
0010
0000
1000
0001
1000
0001
,
2000
0000
0001
0000
0001
0000
3001
0100
,
0000
0220
0000
0330
0010
0100
0010
0000
,
0100
0000
0010
0000
0010
0100
1000
0000
,
1000
0000
0001
0000
0001
0100
0001
0000
,
0100
0010
1000
0000
0010
1000
0010
0000
,
1000
0010
0001
0000
0100
0010
1000
0000
,
1000
0000
0010
0000
1000
0010
0000
1000
,
0000
0001
0100
0001
,
0002
0000
0203
0000
,
0320
0000
2030
0000
,
3010
0000
0100
0000
0010
0100
0000
0010
,
0000
1000
0100
0010
0001
0000
0100
0000
,
0200
0000
0000
0320
0000
0000
2030
0000
,
0000
3002
0000
0003
1001
0000
0110
0000
,
0010
0000
0010
0100
0001
0000
0010
0000
,
0100
0000
1000
0010
1000
0000
0010
0000
,
0100
0000
0100
0010
0100
0000
0010
0000
,
1000
0000
0001
0100
0001
0000
0100
0000
,
0010
0000
0100
0010
1000
0000
1000
0000
,
0001
0000
0001
0100
0001
0000
0001
0000
,
0002
0000
0103
0020
0000
0000
0130
0020
,
0000
0000
1030
0002
0000
0000
0003
0000
,
0001
0000
0100
0000
0001
0100
0000
0001
,
0000
1000
0010
1000
,
2000
0000
3020
0000
,
0230
0000
0302
0000
,
0103
0000
0010
0000
0100
0010
0000
0100
,
0000
0001
0010
0100
1000
0000
0010
0000
,
0020
0000
0000
0230
0000
0000
0302
0000
,
0000
2003
0000
3000
1001
0000
0110
0000
;

//---------------dance-single - ----------------
#NOTES:
     dance-single:
     :
     Hard:
     9:
     0.364,0.377,0.124,0.240,0.058: // measure 1
0000
0000
0000
0000
,  // measure 2
0000
0000
0000
0000
,  // measure 3
0000
0000
0000
0000
,  // measure 4
0000
0000
0000
0000
,  // measure 5
0000
0000
0000
0000
,  // measure 6
1001
0000
0000
0010
,  // measure 7
0100
0010
1000
0001
,  // measure 8
2002
0000
3003
0220
0000
0330
2002
0000
,  // measure 9
3003
0220
0000
0330
1001
0000
0110
0000
,  // measure 10
0100
0000
0010
0000
1000
0010
0100
0001
,  // measure 11
0000
0000
0001
0000
0001
1000
0010
1000
,  // measure 12
0000
0000
1000
0000
0010
0000
0100
0010
,  // measure 13
0000
0110
0000
0000
0010
0100
0010
0100
,  // measure 14
0000
0000
0010
0000
1000
0100
0010
0001
,  // measure 15
0100
0001
0100
0010
,  // measure 16
1000
0000
0000
0000
1000
0000
0000
0010
1000
0000
0000
0010
1000
0000
0010
0000
,  // measure 17
0000
0000
0100
0000
0000
0000
0000
0000
1000
0010
0100
0000
0001
0100
0010
0000
,  // measure 18
1000
1000
0100
0100
0010
0010
0001
0001
,  // measure 19
0100
0000
0000
0001
0000
0000
0100
0000
0010
0000
0000
0000
0000
0000
0100
0000
,  // measure 20
0000
0001
0100
1000
0100
0001
0100
1000
,  // measure 21
0100
0000
0000
1000
0000
0000
0010
0000
0100
0000
0000
0000
0010
0000
0100
0000
,  // measure 22
0000
0000
0010
0100
0000
0000
1000
0001
,  // measure 23
0000
0000
0000
0200
0300
0010
0100
0020
,  // measure 24
0000
0000
0030
2000
0000
3000
0002
0000
,  // measure 25
0000
0000
0003
0000
0001
0100
0001
0100
,  // measure 26
0010
0000
0100
0000
1010
0000
1000
0010
,  // measure 27
0000
2000
0000
3000
1000
0010
1000
0010
,  // measure 28
0100
0000
0010
0000
0101
0000
0001
0100
,  // measure 29
0000
0002
0000
0003
0001
0010
0100
1000
,  // measure 30
0010
0000
1010
0000
1000
0100
0010
0001
,  // measure 31
0100
0000
0001
0000
0010
0100
0001
0100
,  // measure 32
0000
0000
0100
0010
0100
0000
1000
0010
,  // measure 33
0000
1000
0000
0000
2000
0000
0000
0010
,  // measure 34
3010
0000
0100
0010
0000
0010
0100
0000
0001
0000
1000
0000
0000
0000
0010
0000
,  // measure 35
1000
0000
0010
1000
0000
1000
0001
0000
0200
0000
0000
0000
0010
0000
0000
0000
,  // measure 36
0310
0100
0010
0000
0100
0001
1000
0010
,  // measure 37
0000
0000
1000
0010
0000
0000
0010
0100
,  // measure 38
0000
0000
0001
0000
0100
0001
0100
0001
,  // measure 39
0000
0010
0001
0100
1000
0000
1000
2000
,  // measure 40
0000
0000
3000
0020
0000
0030
0200
0000
,  // measure 41
0300
0020
0000
0030
0110
0000
1001
0000
,  // measure 42
1000
0100
0010
0100
1000
0000
0001
0000
,  // measure 43
0001
0010
0100
0010
0001
0000
0100
0000
,  // measure 44
0010
1000
0010
0100
0001
0000
0100
0000
,  // measure 45
0001
0100
0010
1000
0010
0000
0100
0000
,  // measure 46
0010
0100
0010
1000
0001
0000
0100
0000
,  // measure 47
0100
0010
0100
0001
1000
0000
0010
0000
,  // measure 48
2000
0000
3010
2000
0000
0000
3010
0200
,  // measure 49
0000
0000
0301
0020
0000
0000
0031
0000
,  // measure 50
0100
0000
0010
0100
0000
0100
0010
0000
1000
0000
0001
0000
0000
0000
0100
0000
,  // measure 51
0001
0000
0100
0001
0000
0001
1000
0000
0020
0000
0000
0000
0100
0000
0000
0000
,  // measure 52
0130
0010
0100
0000
0010
1000
0001
0100
,  // measure 53
0000
0000
0001
0100
0000
0000
0100
0010
,  // measure 54
0000
0000
1000
0000
0010
1000
0010
1000
,  // measure 55
0000
0100
1000
0010
0001
0000
0001
0002
,  // measure 56
0000
0000
0003
0200
0000
0300
0020
0000
,  // measure 57
0030
0200
0000
0300
0110
0000
1001
0000
;
