#TITLE:I LOVE YOU;
#SUBTITLE:;
#ARTIST:TREASURE;
#TITLETRANSLIT:;
#SUBTITLETRANSLIT:;
#ARTISTTRANSLIT:;
#CREDIT:;
#BANNER:I LOVE YOU.png;
#BACKGROUND:I LOVE YOU-bg.png;
#LYRICSPATH:;
#CDTITLE:;
#MUSIC:I LOVE YOU.mp3;
#OFFSET:-0.120;
#SAMPLESTART:54.820;
#SAMPLELENGTH:15.000;
#SELECTABLE:YES;
#BPMS:0.000=130.000;
#STOPS:;
#BGCHANGES:-0.420=I LOVE YOU.avi=1.000=0=0=0,
99999=-nosongbg-=1.000=0=0=0 // don't automatically add -songbackground-
;

//---------------dance-single - ----------------
#NOTES:
     dance-single:
     :
     Hard:
     14:
     0.561,0.633,0.150,0.093,0.318: // measure 1
0000
0000
0000
0000
,  // measure 2
0000
0000
0000
0000
0000
0000
1000
0001
,  // measure 3
2000
0000
0000
0000
0000
3010
0000
0000
,  // measure 4
0100
0000
0000
0010
0000
0000
1000
0001
,  // measure 5
0002
0000
0000
0000
0000
0103
0000
0000
,  // measure 6
0001
0000
0000
0100
0000
0000
0000
0000
,  // measure 7
0101
0001
0100
0010
1000
0010
0100
0001
,  // measure 8
0000
1000
0010
0100
0010
1000
0001
0100
,  // measure 9
0000
0000
0010
0000
0100
0000
0010
0000
1000
0000
0000
0010
0000
0000
1010
0000
,  // measure 10
0000
0000
0010
0000
0000
0010
0100
0000
,  // measure 11
1010
0000
1000
0000
0010
0000
0100
0000
0001
0000
0000
1000
0000
0000
1000
0000
,  // measure 12
0000
0000
0001
0000
0100
0000
0010
0000
0100
0000
0000
0010
0000
0000
0010
0000
,  // measure 13
0000
0000
0100
0000
0010
0000
0100
0000
0001
0000
0000
0100
0000
0000
0101
0000
,  // measure 14
0000
0000
0100
0000
0000
0100
0010
0100
,  // measure 15
0020
0000
0130
0010
2000
0000
3001
0100
,  // measure 16
0002
0000
0103
0001
0000
0001
0010
0100
,  // measure 17
2000
0000
3010
0100
0010
0001
0100
0001
,  // measure 18
2000
0000
3001
1000
0000
1000
0001
1000
,  // measure 19
0020
0000
0130
0010
0200
0000
0310
1000
,  // measure 20
0020
0000
1030
0010
0000
1000
0010
0001
,  // measure 21
0010
0000
0000
0000
1000
0000
0000
0000
0000
0000
0100
0000
0001
0000
0100
0002
,  // measure 22
0000
0000
0000
0003
0000
0100
0001
0100
,  // measure 23
0101
0000
0001
0100
1000
0100
0001
1000
,  // measure 24
0000
0001
0100
0001
0010
1000
0001
1000
,  // measure 25
0010
0000
1000
0100
0010
0001
1000
0002
,  // measure 26
0000
0000
0000
1003
0000
1000
0001
1000
,  // measure 27
1001
0000
1000
0100
0001
0100
1000
0001
,  // measure 28
0000
0001
1000
0010
1000
0010
0100
0010
,  // measure 29
1000
0000
0100
0001
0100
0010
1000
0010
,  // measure 30
0110
0000
1001
0000
0110
0010
0100
1000
,  // measure 31
1010
0000
0000
0000
1000
0000
0010
1000
0100
0000
0000
0000
0010
0000
0010
1000
,  // measure 32
0100
0000
0000
0000
0001
0000
0001
0100
0001
0000
0001
0000
0010
0000
0100
0000
,  // measure 33
1000
0000
0000
0001
1000
0010
1000
0000
0000
0010
0100
0010
,  // measure 34
0100
0000
0000
0000
0010
0000
1000
0010
0100
0000
0010
0000
0001
0000
0010
0000
,  // measure 35
1000
0000
0000
0000
0100
0000
0001
0100
0010
0000
0000
0000
0100
0000
0100
0001
,  // measure 36
0010
0000
0000
0000
1000
0000
0010
1000
0010
0000
1000
0000
0010
0000
0001
0000
,  // measure 37
0010
0000
0000
0000
1000
0000
0001
1000
0100
0000
0000
0000
0001
0000
0001
1000
,  // measure 38
0010
1000
0010
0000
0100
0000
0001
0100
0001
0100
0001
0000
0010
0000
1000
0000
,  // measure 39
0010
0000
0000
0000
1000
0000
0100
1000
0100
0000
1000
0010
0100
0001
0100
0000
,  // measure 40
0001
0000
0000
0000
0001
0000
0001
0100
0010
0000
0001
0100
0010
0100
0001
0000
,  // measure 41
0100
0000
0000
0000
0010
0000
1000
0010
0100
0000
0010
0100
0001
0000
0001
1000
,  // measure 42
0001
0000
0000
0000
0000
0000
1000
0000
0000
0010
0000
0000
0100
0000
0000
0000
0000
0000
0010
0000
0000
0100
0000
0000
0001
0000
0000
0100
0000
0000
0010
0000
0000
1000
0000
0000
0001
0000
0000
0000
1000
0000
0000
0000
0001
0000
0000
0000
,  // measure 43
1000
0000
0000
0010
0100
0010
0100
0001
0100
0001
0100
0010
,  // measure 44
1000
0000
0000
0100
0010
1000
0010
0100
0001
0100
0001
1000
,  // measure 45
0001
0000
0000
0010
0100
0010
1000
0001
1000
0010
1000
0001
,  // measure 46
1000
0000
0000
0001
1000
0001
1000
0001
1000
0001
1000
0001
,  // measure 47
1000
0000
0010
1000
0000
1000
0010
0000
1000
0000
0001
0100
0000
0100
0001
0000
,  // measure 48
1000
0000
0010
0100
0000
0100
0010
0000
0001
0000
0000
0000
0001
0000
0100
0000
,  // measure 49
1000
0010
0000
1000
0010
0000
0100
0001
0100
0000
0000
0000
1000
0000
0000
0000
,  // measure 50
0001
0100
0000
0001
0100
0000
0010
1000
0010
0000
0010
0000
1000
0000
0010
0000
,  // measure 51
1010
0000
1000
0010
0001
0010
1000
0001
,  // measure 52
0000
1000
0010
1000
0100
0001
1000
0001
,  // measure 53
0100
0000
0001
0010
0100
1000
0001
2000
,  // measure 54
0000
0000
0000
3001
0000
0001
1000
0001
,  // measure 55
1001
0000
0001
0010
1000
0010
0001
1000
,  // measure 56
0000
1000
0001
0100
0001
0100
0010
0100
,  // measure 57
0001
0000
0010
1000
0010
0100
0001
0100
,  // measure 58
0110
0000
1001
0000
0110
0100
0010
0100
,  // measure 59
0010
0000
0010
0100
0001
0000
0101
0000
,  // measure 60
0001
0100
1000
0100
0001
1000
0010
1000
,  // measure 61
0100
0000
0100
1000
0010
0000
1001
0000
,  // measure 62
1000
0100
0010
0100
1000
0100
0001
0100
,  // measure 63
0001
0000
0100
0010
1000
0000
0101
0000
,  // measure 64
0001
0010
0100
0010
0001
1000
0001
0000
,  // measure 65
1001
0000
0000
0010
0100
0010
0100
0000
,  // measure 66
0100
0010
1000
0000
1000
0000
0100
0001
1000
0010
0100
0000
0010
0000
0001
0000
,  // measure 67
0101
0000
0000
0000
0001
0000
0100
0001
0010
0000
0000
0000
0100
0000
0100
0001
,  // measure 68
0010
0000
0000
0000
1000
0000
1000
0010
1000
0000
1000
0000
0100
0000
0010
0000
,  // measure 69
0001
0000
0000
0000
1000
0000
0001
1000
0001
0000
0000
0000
0100
0000
0010
0100
,  // measure 70
0010
0000
0000
0000
0100
0000
0001
0100
0010
0000
0100
0000
1000
0000
0100
0000
,  // measure 71
0001
0000
0000
0000
0010
0000
1000
0010
0100
0000
0000
0000
0010
0000
0010
1000
,  // measure 72
0100
0000
0000
0000
0001
0000
0100
0001
0100
0000
0001
0000
0100
0000
1000
0000
,  // measure 73
0100
0000
0000
0000
0001
0000
1000
0001
0010
0000
0000
0000
1000
0000
1000
0001
,  // measure 74
0100
0001
0100
0000
0010
0000
1000
0010
1000
0010
1000
0000
0100
0000
1001
0000
;

//---------------dance-single - ----------------
#NOTES:
     dance-single:
     :
     Medium:
     8:
     0.341,0.369,0.150,0.029,0.000:
0000
0000
0000
0000
,
0000
0000
0000
0000
,
0011
0000
0000
0000
0000
1000
0000
0000
,
0010
0000
0000
0100
0000
0000
0000
0000
,
1010
0000
0000
0000
0000
1000
0000
0000
,
0010
0000
0000
0100
0000
0000
0000
0000
,
0010
0010
0000
0100
,
0001
0100
0000
0100
,
0010
0100
0000
0010
,
1000
0001
0000
1000
,
0010
0100
0000
0010
,
0100
0001
0000
1000
,
0001
1000
0000
1000
,
0100
0000
0010
0000
0000
0000
1000
0010
,
0100
0000
1000
0001
0010
0000
0100
0010
,
0100
0000
0010
0000
0000
0000
0001
0100
,
0010
0000
0100
0010
1000
0000
0001
1000
,
0001
0000
0001
0000
0000
0000
0100
0010
,
1000
0000
0010
0100
0010
0000
0100
0010
,
0001
1000
0000
0010
,
0000
0100
0000
0010
,
0100
0000
0000
0010
0000
0000
1000
0010
,
1000
0010
1000
0010
,
0010
0000
0100
0000
0001
0000
0010
0001
,
0010
0100
0010
0100
,
0002
0000
0000
0103
0000
0000
0001
0100
,
0010
0000
0100
0000
0010
0000
1000
0100
,
0010
0000
0100
0000
0001
0000
1000
0001
,
1000
0000
0001
0000
0100
0000
0001
0100
,
0001
0000
1001
0000
0110
0000
0100
0010
,
0100
0000
0010
1000
0010
0000
0100
0001
,
0100
0001
1000
0001
,
0100
0000
0100
0010
0100
0000
0010
0100
,
0010
0010
1000
0010
,
1000
0000
1000
0100
0010
0000
0100
0010
,
0001
0001
0100
0001
,
1000
0000
0010
0001
0100
0000
0010
1000
,
0100
0000
0010
1000
,
1010
0100
0010
0100
,
0011
0010
0001
0100
,
0101
0001
1000
0010
,
1000
0010
0100
0010
,
0110
0010
1000
0100
,
1010
0100
0010
0001
,
0011
0001
1000
0010
,
1000
0001
0100
0001
,
1001
0001
0100
0010
,
0101
0010
0100
0010
,
1010
0010
0200
0301
,
1001
0000
0010
0000
2000
0000
3001
0100
,
0001
0100
0001
0100
,
0100
0000
0010
0000
1000
0000
0100
1000
,
0100
0010
0100
0010
,
2000
0000
0000
3010
0000
0000
1000
0010
,
0100
0000
0010
0000
0100
0000
0001
0010
,
0100
0000
0010
0000
1000
0000
0001
1000
,
0001
0000
1000
0000
0010
0000
1000
0010
,
1000
1001
0110
0000
,
1001
0010
1000
0001
,
0100
0001
0100
0001
0010
0000
0001
0000
,
1010
0100
1000
0010
,
0010
0100
0010
1000
0010
0000
0100
0000
,
0101
0001
0100
0010
,
0001
0010
0100
1000
0010
0000
1000
0000
,
1001
0100
0010
0100
,
0110
0000
0010
0000
0100
0000
0010
0100
,
0010
0000
0100
0001
0100
0000
0010
1000
,
0010
1000
0001
1000
,
0010
0000
0010
0100
0010
0000
0100
0010
,
0100
0100
0001
0100
,
0001
0000
0001
0010
0100
0000
0010
0100
,
1000
1000
0010
1000
,
0001
0000
0100
1000
0010
0000
0100
0001
,
0010
0000
0100
0000
1000
0100
0010
0001
;

//---------------dance-single - ----------------
#NOTES:
     dance-single:
     :
     Easy:
     5:
     0.296,0.369,0.257,0.071,0.000:
0000
0000
0000
0000
,
0000
0000
0000
0000
,
0101
0000
0000
0000
,
1010
0000
0000
0000
,
1001
0000
0000
0000
,
0110
0000
0000
0000
,
0000
0001
0100
0001
,
0000
0010
0100
1000
,
0000
1000
0001
1000
,
0000
1000
0001
0010
,
0000
0100
0010
0100
,
0000
0001
1000
0010
,
0000
1000
0001
0010
,
0000
0010
0000
0010
,
0120
1030
1000
0010
,
0201
0310
0100
0010
,
2001
3010
0010
0100
,
0210
0310
0000
0010
,
1002
0103
0010
0100
,
0120
0130
0010
0000
,
1000
0001
1000
0000
,
0010
0100
0010
0000
,
1100
0100
0100
0100
,
0110
0010
0010
0010
,
0101
0001
0001
0001
,
1002
1000
1003
0000
,
0011
0010
0010
0010
,
0110
0100
0100
0100
,
1010
1000
1000
1000
,
2001
0001
3001
0000
,
0001
0100
0001
0100
,
0010
1000
0010
1000
,
1001
1000
0100
0010
,
0001
0010
0100
0010
,
0110
0100
0010
1000
,
0001
0100
0010
0100
,
1010
1000
0010
0100
,
0010
0000
0100
0000
,
0001
0001
0100
0000
,
0010
0100
0010
0000
,
1000
0001
0100
0000
,
0010
0100
0010
0000
,
1000
0010
1000
0000
,
1000
0010
0001
0000
,
0001
0100
1000
0000
,
0001
1000
0001
0000
,
1000
0010
0100
0000
,
0010
0100
0110
0000
,
1000
0010
1000
0000
,
0001
0100
0010
0000
,
0011
0010
0010
0010
,
0110
0100
0100
0100
,
1010
1000
1000
1000
,
2001
0001
3001
0000
,
1100
0100
0100
0100
,
0110
0010
0010
0010
,
0101
0001
0001
0001
,
1002
1000
1003
0000
,
0001
0100
0001
0100
,
0010
0100
0010
0100
0010
0000
0000
0000
,
0100
0010
1000
0001
,
0100
0001
0100
0001
0100
0000
0000
0000
,
0010
1000
0010
1000
,
0001
1000
0001
1000
0001
0000
0000
0000
,
0110
0000
1001
0000
,
0110
0000
0000
0000
,
1000
0010
1000
0010
,
0100
0001
0100
0001
,
1001
0001
0010
0100
,
1000
0100
0010
0100
,
0110
0010
0100
0001
,
1000
0010
0100
0010
,
0101
0001
0100
0010
,
0100
0000
0010
0000
0100
0000
0010
0100
;

//---------------dance-single - ----------------
#NOTES:
     dance-single:
     :
     Beginner:
     3:
     0.187,0.213,0.043,0.007,0.000:
0000
0000
0000
0000
,
0000
0000
0000
0000
,
1001
0000
0000
0000
,
0100
0000
0000
0000
,
0110
0000
0000
0000
,
0010
0000
0000
0000
,
0000
0001
0000
0001
,
0000
0100
0000
0010
,
0000
0100
0000
1000
,
0000
0010
0000
1000
,
0000
0010
0000
1000
,
0000
0001
0000
0001
,
0000
0100
0000
0010
,
0000
1000
0000
1001
,
0000
0010
0100
0010
,
0000
1000
1000
1000
,
0000
0001
1000
0001
,
0000
0100
0010
0100
,
0000
0001
0001
0001
,
0000
0100
0010
0100
,
0000
0001
1000
0001
,
0000
1000
0000
0000
,
0010
0010
0010
0000
,
1000
1000
1000
0000
,
0001
0001
0001
0000
,
0100
0100
0100
0000
,
0100
0100
0100
0000
,
1000
1000
1000
0000
,
0010
0010
0010
0000
,
0001
0001
0001
0000
,
0000
0001
0000
0001
,
0000
0001
0001
0001
,
0000
1000
0000
1000
,
0000
1000
1000
1000
,
0000
0100
0000
0100
,
0000
0100
0100
0100
,
0000
0010
0000
0010
,
0000
0010
0010
0010
,
0000
0010
0000
1000
,
0000
0100
0000
1000
,
0000
0001
0000
0100
,
0000
0001
0000
0010
,
0000
0001
0000
0001
,
0000
0100
0000
0001
,
0000
0100
0000
0010
,
0000
1000
0000
0010
,
0000
1000
0000
0001
,
0000
1000
1000
0000
,
0000
0010
0000
0010
,
0000
0100
0000
0000
,
0100
0100
0100
0000
,
0001
0001
0001
0000
,
1000
1000
1000
0000
,
0010
0010
0010
0000
,
0010
0010
0010
0000
,
0001
0001
0001
0000
,
0100
0100
0100
0000
,
1000
1000
1000
0000
,
0001
0100
0001
0000
,
1000
0010
1000
0000
,
0001
0010
0001
0000
,
0100
0010
0100
0000
,
0010
1000
0010
0000
,
1000
0001
1000
0000
,
1001
0000
0110
0000
,
1001
1000
0001
0000
,
0000
1000
0000
1000
,
0000
1000
1000
1000
,
0000
0001
0000
0001
,
0000
0001
0001
0001
,
0000
0010
0000
0010
,
0000
0010
0010
0010
,
0000
0100
0000
0100
,
0000
0100
0100
0200
,
0000
0000
0300
0000
;
