#TITLE:I Don't Want It At All;
#SUBTITLE:;
#ARTIST:Kim Petras;
#TITLETRANSLIT:;
#SUBTITLETRANSLIT:;
#ARTISTTRANSLIT:;
#CREDIT:;
#BANNER:I Don't Want It At All.png;
#BACKGROUND:I Don't Want It At All-bg.png;
#LYRICSPATH:;
#CDTITLE:;
#MUSIC:I Don't Want It At All.mp3;
#OFFSET:-0.160;
#SAMPLESTART:9.380;
#SAMPLELENGTH:15.000;
#SELECTABLE:YES;
#BPMS:0.000=110.000;
#STOPS:;
#BGCHANGES:-0.460=I Don't Want It At All.avi=1.000=0=0=0,
99999=-nosongbg-=1.000=0=0=0 // don't automatically add -songbackground-
;

//---------------dance-single - ----------------
#NOTES:
     dance-single:
     :
     Easy:
     5:
     0.245,0.311,0.170,0.153,0.000:
0000
0000
0000
0000
,
1000
0010
1000
0000
,
0001
0100
0010
0000
,
1000
0001
0100
0000
,
1001
0001
0100
0000
,
0001
1000
0010
1001
,
0001
0100
0001
0000
,
1000
0010
0100
1010
,
1000
0010
0100
0000
,
0010
0100
0010
0110
,
1000
0010
1000
0000
,
0001
0100
0001
0000
,
1010
0001
1000
0000
,
0001
0100
0010
0101
,
0001
0100
0001
0000
,
0010
0001
1000
1100
,
1000
0001
1000
0000
,
0001
0010
0100
1100
,
0010
1000
0010
0000
,
1000
0010
1000
0000
,
1000
0001
0100
0000
,
0010
0000
1000
0000
,
0001
0100
0001
0000
,
1010
0000
1010
0000
,
1000
0001
0100
0000
,
0001
0100
0010
0000
,
0100
0010
0100
0000
,
1001
0000
0110
0000
,
2000
3020
1030
0000
,
0002
0203
0301
0000
,
0020
0230
0310
0000
,
0002
0203
0320
2030
,
3001
1000
0001
0000
,
0100
0001
1000
0000
,
0010
0001
0100
0000
,
0100
0010
0001
0000
,
1002
1003
0010
0000
,
1000
0001
0100
1001
,
2000
3010
1000
0000
,
0001
0100
0010
0101
,
0002
0103
0010
0000
,
0100
0010
0100
0110
,
0001
1000
0001
0000
,
1000
0010
1000
0000
,
0020
1030
0001
0000
,
1000
0010
0100
1010
,
2000
3010
1000
0000
,
0100
1000
0001
0011
,
0002
1003
0001
0000
,
1000
0100
0010
0011
,
0100
0001
0100
0000
,
0001
1000
0001
0000
,
0220
0330
0000
0000
;

//---------------dance-single - ----------------
#NOTES:
     dance-single:
     :
     Beginner:
     2:
     0.214,0.311,0.229,0.136,0.000:
0000
0000
0000
0000
,
0000
0000
0000
0000
,
0000
0000
0000
0000
,
0000
0000
0000
0000
,
1000
1000
1000
0000
,
0001
0001
0001
0000
,
0100
0100
0100
0000
,
0010
0010
0010
0000
,
0001
0001
0001
0000
,
1000
1000
1000
0000
,
0100
0100
0100
0000
,
0010
0010
0010
0000
,
0001
0001
0001
0000
,
1000
1000
1000
0000
,
0010
0010
0010
0000
,
0100
0100
0100
0000
,
0001
0001
0001
0000
,
1000
1000
1000
0000
,
0001
0001
0001
0000
,
0100
0100
0100
0000
,
0010
0010
0010
0000
,
1000
0000
0001
0000
,
1000
0001
1000
0000
,
0001
0000
0100
0000
,
0001
0100
0001
0000
,
1000
0000
0010
0000
,
0100
0010
0100
0000
,
1001
0000
1001
0000
,
0002
0003
2000
3000
,
0020
0030
2000
3000
,
2000
3000
0200
0300
,
0020
0030
0002
0003
,
2000
3000
0002
0003
,
0200
0300
0020
0030
,
2000
3000
2000
3000
,
0001
0000
1000
0000
,
0001
0100
0010
0000
,
1000
0001
0100
0000
,
0010
0100
0010
0000
,
1000
0001
1000
0000
,
0100
0010
0001
0000
,
1000
0100
0010
0000
,
0001
0100
0010
0000
,
0001
1000
0001
0000
,
1001
0110
1001
0000
,
0110
1001
0110
0000
,
0101
1010
0101
0000
,
1010
0101
1010
0000
,
0011
0110
1100
0000
,
1100
0110
0011
0000
,
1001
0110
1001
0000
,
0110
1001
0110
0000
,
2002
3003
0000
0000
;

//---------------dance-single - ----------------
#NOTES:
     dance-single:
     :
     Medium:
     7:
     0.259,0.311,0.136,0.085,0.000:
0000
0000
0000
0000
,
0000
0000
0000
0000
,
0000
0000
0000
0000
,
0000
0000
0000
1001
,
0001
0100
0001
0000
,
1000
0001
0100
0001
1000
0000
0000
0000
,
0001
0100
0010
0000
,
0010
0100
0001
1000
0001
0000
0000
0000
,
0100
0010
0100
0000
,
1000
0100
0010
0001
0010
0000
0000
0000
,
0001
1000
0010
0000
,
1000
0001
0100
0001
0100
0000
0000
0000
,
0001
0100
0001
0000
,
0001
0100
1000
0100
0001
0000
1001
0000
,
1000
0010
1000
0000
,
1000
0010
0001
0010
1000
0000
0110
0000
,
0010
0001
0100
0000
,
1000
0010
0100
0010
0001
0000
0101
0000
,
0001
0100
1000
0000
,
0010
0100
0010
1000
0001
0000
0000
0000
,
1000
0010
1000
0000
,
0001
0100
0001
0100
,
0010
1000
0001
0000
,
0002
0103
0020
1030
,
1000
0100
0010
0000
,
1000
1000
1000
0000
,
0010
1001
0100
1001
,
0001
0100
0001
0000
,
0001
1000
0000
0001
,
0000
0100
0000
0010
,
0000
0100
0000
1000
,
2000
3002
0203
0320
,
0130
0010
0000
1000
,
0000
0001
0000
0100
,
0000
0001
0000
1000
,
0000
0010
0100
0010
,
1000
0010
1000
0000
,
0001
1000
0010
1000
0001
0000
2000
0000
,
3001
0010
0100
0000
,
0100
0010
1000
0001
1000
0000
0200
0000
,
0310
0100
0010
0000
,
0001
0010
0100
1000
0100
0000
0000
0000
,
1000
0001
0100
0000
,
0001
1000
0010
1000
0010
0000
0000
0000
,
1001
0010
1001
0000
,
1000
0010
0001
0010
1000
0000
1001
0000
,
0101
0100
0011
0000
,
0001
0100
1000
0100
0001
0000
0110
0000
,
1100
1000
0110
0000
,
0001
0100
0010
0100
1000
0000
1010
0000
,
1000
0010
0001
0000
,
0100
0010
0100
0001
1000
0000
0010
0000
,
2002
3003
0000
0000
;

//---------------dance-single - ----------------
#NOTES:
     dance-single:
     :
     Hard:
     13:
     0.502,0.640,0.136,0.153,0.387: // measure 1
0000
0000
0000
0000
,  // measure 2
0000
0000
0000
0000
,  // measure 3
0000
0000
0000
0000
,  // measure 4
0000
0000
0000
1010
,  // measure 5
1000
0000
0000
0000
0001
0000
0100
0000
1000
0000
0100
0000
0001
0000
1000
0001
,  // measure 6
1000
0010
1000
0000
0001
0000
0100
0000
0001
0000
0000
0000
0200
0000
0300
0000
,  // measure 7
0010
0000
0000
0000
1000
0000
0010
0000
0001
0000
0010
0000
1000
0000
0001
0100
,  // measure 8
0001
0100
0001
0000
1000
0000
0010
0000
0100
0000
0000
0000
0002
0000
0003
0000
,  // measure 9
0001
0000
0000
0000
0100
0000
1000
0000
0010
0000
1000
0000
0001
0000
0100
0001
,  // measure 10
0100
0010
1000
0000
0010
0000
1000
0000
0001
0000
0000
0000
0200
0000
0300
0000
,  // measure 11
0010
0000
1000
0010
1000
0010
0100
0001
0100
0001
0010
0100
1000
0010
1000
0001
,  // measure 12
0000
0000
0001
1000
0010
1000
0001
1000
0001
0100
0001
1000
0010
1000
0100
0010
,  // measure 13
0000
0000
0000
0000
1000
0000
0010
0000
0001
0000
0010
0000
1000
0000
0001
1000
,  // measure 14
0100
1000
0001
0000
0100
0000
0001
0000
1000
0000
0000
0000
2001
0000
3000
0000
,  // measure 15
0010
0000
0000
0000
0010
0000
0001
0000
0100
0000
1000
0000
0100
0000
1000
0001
,  // measure 16
0100
0001
1000
0000
0010
0000
1000
0000
0001
0000
0000
0000
0210
0000
0300
0000
,  // measure 17
0010
0000
0000
0000
1000
0000
0010
0000
1000
0000
0001
0000
0100
0000
0001
1000
,  // measure 18
0010
1000
0100
0000
0010
0000
0001
0000
1000
0000
0000
0000
0110
0000
0000
0000
,  // measure 19
0100
0000
0001
0100
0001
0100
0010
1000
0010
1000
0100
0010
0001
0100
0001
1000
,  // measure 20
0000
0000
1000
0001
0100
0001
1000
0001
1000
0010
1000
0001
0100
0001
0010
0100
,  // measure 21
0000
0100
0010
0110
,  // measure 22
1000
0001
0100
0001
,  // measure 23
1000
0000
1010
0000
0001
0000
0201
0301
,  // measure 24
0000
0000
1020
1030
0000
0000
0010
0000
,  // measure 25
0100
0000
0001
0000
1000
1000
0100
1000
,  // measure 26
0001
0000
0100
0000
0010
0000
0100
0001
0000
0101
0000
0000
0002
0000
0103
0000
,  // measure 27
0010
0000
2000
0000
3010
1000
0000
0100
0000
0000
0000
0000
1020
0000
1030
0000
,  // measure 28
0000
0000
0210
0301
0000
0000
0010
1000
,  // measure 29
0100
0000
0000
1000
0000
0000
0001
0000
0000
0000
0100
0000
1000
0000
0100
0000
,  // measure 30
0001
0000
0000
1000
0000
0000
0010
0000
0000
0000
1000
0000
0010
0000
1000
0000
,  // measure 31
0001
0000
0000
1000
0000
0000
0010
0000
0000
0000
1000
0000
0100
0000
1000
0000
,  // measure 32
2100
0000
3010
0000
0012
0000
0103
0001
,  // measure 33
0010
0000
0000
0001
0000
0000
1000
0000
0000
0000
0010
0000
0001
0000
0010
0000
,  // measure 34
1000
0000
0000
0001
0000
0000
0100
0000
0000
0000
0001
0000
0100
0000
0001
0000
,  // measure 35
1000
0000
0000
0001
0000
0000
0100
0000
0000
0000
0001
0000
0010
0000
0001
0000
,  // measure 36
0000
0000
0000
0000
1000
0000
0000
0000
0010
0000
0000
0000
1000
0001
0000
0000
,  // measure 37
0001
0000
0000
0000
1000
0000
0010
0000
0001
0000
0010
0000
1000
0000
0001
1000
,  // measure 38
0001
0100
0001
0000
1000
0000
0010
0000
1000
0000
0000
0000
0020
0000
0030
0000
,  // measure 39
0100
0000
0000
0000
0001
0000
0100
0000
1000
0000
0100
0000
0001
0000
1000
0010
,  // measure 40
1000
0010
1000
0000
0001
0000
0100
0000
0010
0000
0000
0000
2000
0000
3000
0000
,  // measure 41
1000
0000
0000
0000
0010
0000
0001
0000
0100
0000
0001
0000
1000
0000
0010
1000
,  // measure 42
0010
0100
0001
0000
0100
0000
0001
0000
1000
0000
0000
0000
0020
0000
0030
0000
,  // measure 43
0100
0000
0001
0100
0001
0100
0010
1000
0010
1000
0100
0010
0001
0100
0001
1000
,  // measure 44
0000
0000
1000
0001
0100
0001
1000
0001
1000
0010
1000
0001
0100
0001
0010
0100
,  // measure 45
0000
0000
0000
0000
0001
0000
0100
0000
1000
0000
0100
0000
0001
0000
1000
0001
,  // measure 46
0010
0001
1000
0000
0010
0000
1000
0000
0001
0000
0000
0000
1002
0000
0003
0000
,  // measure 47
0100
0000
0000
0000
0100
0000
1000
0000
0010
0000
0001
0000
0010
0000
0001
1000
,  // measure 48
0010
1000
0001
0000
0100
0000
0001
0000
1000
0000
0000
0000
0120
0000
0030
0000
,  // measure 49
0100
0000
0000
0000
0001
0000
0100
0000
0001
0000
1000
0000
0010
0000
1000
0001
,  // measure 50
0100
0001
0010
0000
0100
0000
1000
0000
0001
0000
0000
0000
0110
0000
0000
0000
,  // measure 51
0010
0000
1000
0010
1000
0010
0100
0001
0100
0001
0010
0100
1000
0010
1000
0001
,  // measure 52
0000
0000
0001
1000
0010
1000
0001
1000
0001
0100
0001
1000
0010
1000
0100
0010
;
