#TITLE:I CAN'T STOP ME;
#SUBTITLE:;
#ARTIST:TWICE;
#TITLETRANSLIT:;
#SUBTITLETRANSLIT:;
#ARTISTTRANSLIT:;
#CREDIT:;
#BANNER:I CAN'T STOP ME.png;
#BACKGROUND:I CAN'T STOP ME-bg.png;
#LYRICSPATH:;
#CDTITLE:;
#MUSIC:I CAN'T STOP ME.mp3;
#OFFSET:-0.780;
#SAMPLESTART:42.600;
#SAMPLELENGTH:15.000;
#SELECTABLE:YES;
#BPMS:0.000=150.000;
#STOPS:;
#BGCHANGES:;

//---------------dance-single - ----------------
#NOTES:
     dance-single:
     :
     Easy:
     5:
     0.259,0.334,0.149,0.142,0.000:
0000
0000
0000
0000
,
0000
0000
0000
0000
,
0000
0000
0000
0000
,
0000
0000
0000
0000
,
0000
0000
0000
0000
,
0000
0000
0000
0000
,
0000
0000
0000
0000
,
0000
0000
0000
0000
,
0220
0000
0000
0000
,
0330
0000
0000
0000
,
0000
0010
0100
0010
,
0000
1000
0010
0001
,
0000
0001
0010
0001
,
0000
1000
0100
0001
,
0000
0010
0100
1000
,
0000
0001
0010
0001
,
0000
0001
0010
1000
,
0000
0100
0000
0010
,
1001
0000
0001
0010
,
0010
0000
0100
0010
,
1000
0001
0010
0100
,
0000
1000
0000
0001
,
0000
0000
0100
1000
,
1000
0000
1000
0010
,
0100
0010
1000
0001
,
0010
0001
0102
0000
,
0103
0001
0010
0001
,
0100
0110
1000
1100
,
0000
1000
0010
0100
,
0010
1000
0010
0100
,
0000
1000
0100
1000
,
0010
0101
0010
1001
,
0000
0001
0000
1000
,
0000
0010
0100
0010
,
1000
0010
1000
0010
,
0001
1001
0100
0101
,
0000
0100
1000
0001
,
1000
0100
1000
0001
,
0000
0100
0001
0100
,
1000
0011
1000
0110
,
0000
0010
0000
0100
,
0000
1000
0001
1000
,
0001
0001
0010
0010
,
0100
0100
1000
1000
,
0010
0010
1000
1000
,
0100
0100
1000
1000
,
0000
0010
0000
1000
,
0000
0001
0000
0100
,
0000
0010
0100
0010
,
1000
0010
0001
0100
,
2000
0000
0000
3000
,
0000
0000
0010
0000
,
0200
0000
0000
0300
,
0000
0000
0010
0000
,
0020
0000
0000
0030
,
0000
0000
0100
0000
,
2002
0000
0000
3003
,
0000
0010
0100
0010
,
1010
1000
0100
1000
,
0010
0110
0001
0011
,
0000
0001
0100
0010
,
0100
0001
0100
0010
,
0000
0001
0010
0001
,
0100
1010
0100
1001
,
0000
1000
0000
0001
,
0000
0100
0010
0100
,
0001
0100
0001
0100
,
1000
1001
0010
1010
,
0000
0010
0001
1000
,
0001
0010
0001
1000
,
0000
0010
1000
0010
,
0001
1100
0001
0110
,
0000
0100
0000
0010
,
0000
0001
1000
0001
,
1000
2000
3000
0001
,
0001
0001
0020
0030
,
0100
0200
0300
0010
,
0010
0010
2000
3000
,
0100
2000
3000
0001
,
0001
0001
0020
0030
,
0000
1000
0000
0001
,
0000
0100
0010
0100
,
0110
0000
0000
0000
,
2000
0000
3000
0000
,
0002
0000
0003
0000
,
0200
0000
0300
0000
,
0020
0000
0030
0000
,
2000
0000
3000
0000
,
0002
0000
0003
0000
,
2000
0000
3000
0000
;

//---------------dance-single - ----------------
#NOTES:
     dance-single:
     :
     Beginner:
     2:
     0.170,0.241,0.047,0.034,0.000:
0000
0000
0000
0000
,
0000
0000
0000
0000
,
0000
0000
0000
0000
,
0000
0000
0000
0000
,
0000
0000
0000
0000
,
0000
0000
0000
0000
,
0000
0000
0000
0000
,
0000
0000
0000
0000
,
0000
0000
0000
0000
,
0000
0000
0000
0000
,
0000
1000
0000
1000
,
0000
0001
0000
0001
,
0000
1000
0000
0001
,
0000
0100
0000
0100
,
0000
0010
0000
0010
,
0000
0100
0000
0010
,
0000
0100
0000
0010
,
0000
1000
0000
0010
,
0010
0000
1000
1000
,
1000
0000
0001
0000
,
0100
0000
0010
0000
,
0100
0000
0001
0000
,
1001
0000
0001
0001
,
0001
0000
0100
0000
,
0020
0000
0000
0000
,
0030
0000
0110
0000
,
1001
0000
0000
0100
,
0000
0010
0010
0010
,
0000
1000
0000
0001
,
0000
0100
0100
0100
,
0000
0001
0000
1000
,
0000
0001
1000
0001
,
0000
1000
0000
0001
,
0000
1000
0001
1000
,
0000
0001
0000
1000
,
0000
1000
1000
1000
,
0000
0010
0000
0100
,
0000
0010
0010
0010
,
0000
0100
0000
0001
,
0000
0001
0010
0001
,
0000
0100
0000
0001
,
0000
1000
0100
1000
,
0000
0010
0000
0100
,
0000
0010
0000
1000
,
0000
0010
0000
0001
,
0000
0010
0000
1000
,
0000
0001
0000
1000
,
0000
0010
0000
1000
,
0000
0001
0000
0100
,
0000
0010
0000
1000
,
2000
0000
0000
0000
,
3000
0000
0000
0000
,
0020
0000
0000
0000
,
0030
0000
0000
0000
,
0200
0000
0000
0000
,
0300
0000
0000
0000
,
0020
0000
0000
0000
,
0030
0000
0010
0000
,
1001
0000
0000
0010
,
0000
0100
0100
0100
,
0000
0001
0000
1000
,
0000
0010
0010
0010
,
0000
1000
0000
0001
,
0000
1000
0001
1000
,
0000
0001
0000
1000
,
0000
0001
1000
0001
,
0000
1000
0000
0001
,
0000
0001
0001
0001
,
0000
0100
0000
0010
,
0000
0100
0100
0100
,
0000
0010
0000
1000
,
0000
1000
0100
1000
,
0000
0010
0000
1000
,
0000
0001
0010
0001
,
0000
1000
1000
1000
,
0000
1000
1000
1000
,
0000
0001
0001
0001
,
0000
0001
0001
0001
,
0000
0100
0100
0100
,
0000
0010
0010
0010
,
0000
0010
0000
0100
,
0000
1001
0110
1001
,
0000
0000
0000
0000
,
1000
0000
0000
0000
,
0010
0000
0000
0000
,
0100
0000
0000
0000
,
0001
0000
0000
0000
,
0010
0000
0000
0000
,
0001
0000
1000
0000
,
0001
0000
0000
0000
;

//---------------dance-single - ----------------
#NOTES:
     dance-single:
     :
     Medium:
     8:
     0.419,0.394,0.149,0.129,0.000:
0000
0000
0000
0000
,
0000
0000
0000
0000
0000
0000
0001
0010
,
0001
0000
0000
0000
0000
1000
0100
1000
,
0000
0000
0000
0000
0010
0100
0010
0000
,
0100
0000
0000
0000
,
0000
0000
0000
0010
0000
0100
0010
0000
,
0100
0000
0000
1000
0000
0000
0000
0000
,
0000
0000
0000
0001
0000
0100
0001
0000
,
0010
0000
0000
0001
0000
0001
1000
0001
,
0000
1000
0001
1000
0000
0010
0100
0010
,
0100
0000
0010
0000
1000
0100
1000
0000
,
0010
0000
0100
0000
0001
0010
0001
0000
,
0100
0000
0010
0000
0100
0010
1000
0000
,
1000
0000
0010
0000
0001
1000
0100
0000
,
0001
0000
0100
0000
0100
1000
0001
0000
,
0100
0000
0010
0000
1000
0010
0001
0000
,
0100
0000
0001
0000
1000
0001
1000
0001
,
0000
0100
0010
0100
0000
0010
1000
0001
,
0100
0000
0001
0100
,
0001
0000
0000
1000
0010
0100
0000
0010
,
0100
1000
0000
0001
0010
1000
0000
1000
,
0010
1000
0000
0000
0010
1000
0010
0100
,
0001
0000
1000
0010
,
0100
0000
0000
0010
1000
0001
0000
0100
,
0001
1000
0000
1000
0010
0001
0000
0001
,
0100
0001
0000
0100
0000
0001
0000
0000
,
0000
0010
1000
0010
0000
0100
0010
0100
,
0001
0101
0010
1001
,
0000
0100
0010
0100
0000
0001
0010
0001
,
1000
0000
0010
0000
1000
0100
0010
0001
,
0000
0100
1000
0010
0000
1000
0001
1000
,
0001
0101
0100
1010
,
0000
1000
0010
0100
0000
0010
0100
0001
,
0000
1001
0000
0000
0010
0000
0100
0000
,
0000
0001
0010
0001
0000
1000
0001
1000
,
0100
1100
0001
0110
,
0000
1000
0001
1000
0000
0100
0001
0100
,
0010
0000
0001
1000
0000
1000
0001
0100
,
0010
0000
1000
0000
0000
0010
0100
0010
,
0100
1100
1000
0011
,
0000
0010
0001
1000
0000
0001
1000
0100
,
0000
0110
0000
0000
0001
0000
1000
0000
,
1000
0010
1000
0000
1000
0010
1000
0000
,
0001
0100
0001
0000
0001
0100
0001
0000
,
0010
0001
0010
0000
0100
1000
0100
0000
,
0010
0001
0010
0000
0100
1000
0100
0000
,
0010
1000
0000
0100
,
0001
0100
0000
0010
,
1000
0100
0000
1000
,
1000
0001
0000
0001
,
2000
0001
3001
0000
,
0010
0010
0000
0000
,
0200
0010
0310
0000
,
1000
1000
0000
0000
,
0002
1000
1003
0000
,
0100
0000
0100
0000
0000
1000
0010
1000
,
0000
0001
0100
0001
0000
0001
0010
0100
,
0000
2002
0000
0000
0000
0000
3003
0000
,
0000
0100
0001
0100
0000
0010
0100
0010
,
1000
1010
0100
1001
,
0000
0010
0100
0010
0000
1000
0100
1000
,
0001
0000
0100
0000
0001
0010
0100
1000
,
0000
0010
0001
0100
0000
0001
1000
0001
,
1000
1010
0010
0101
,
0000
0001
0100
0010
0000
0100
0010
1000
,
0000
1001
0000
0000
0100
0000
0010
0000
,
0000
1000
0100
1000
0000
0001
1000
0001
,
0010
0011
1000
0110
,
0000
0001
1000
0001
0000
0010
1000
0010
,
0100
0000
1000
0001
0000
0001
1000
0010
,
0100
0000
0001
0000
0000
0100
0010
0100
,
0010
0011
0001
1100
,
0000
0100
1000
0001
0000
1000
0001
0010
,
0000
0110
0000
0000
1000
0000
0001
0000
,
0001
0100
0010
0000
0000
0000
1000
0010
,
0001
2000
3002
0003
,
0100
0010
1000
0000
0000
0000
0010
0100
,
0001
0200
0320
0030
,
1000
0100
1000
0000
0000
0000
0001
0010
,
0001
0002
0203
0300
,
0000
0001
1000
0001
0000
1000
0001
1000
,
0000
1001
0000
0000
0010
0000
0100
0000
,
1000
0010
0100
0000
0000
0000
0001
0100
,
1000
0002
2003
3000
,
0010
0100
0001
0000
0000
0000
0100
0010
,
1000
0020
0230
0300
,
0001
0010
0001
0000
0000
0000
1000
0100
,
1000
2000
3020
0030
,
2000
0000
3001
0000
,
0002
0000
0003
0000
;

//---------------dance-single - ----------------
#NOTES:
     dance-single:
     :
     Hard:
     13:
     0.550,0.609,0.108,0.224,0.132: // measure 1
0000
0000
0000
0000
,  // measure 2
0000
0000
0000
0000
0000
0000
1000
0010
,  // measure 3
0001
0000
0000
0000
0000
0010
1000
0001
,  // measure 4
0000
0000
0000
0000
0001
0010
0100
0000
,  // measure 5
1000
0000
0000
0000
,  // measure 6
0000
0000
0000
1000
0000
0010
1000
0000
,  // measure 7
1000
0000
0000
0010
0000
0000
0000
0000
,  // measure 8
0000
0000
0000
0100
0000
0010
0100
0000
,  // measure 9
0010
0000
0000
0100
0000
0001
0100
0001
,  // measure 10
0000
1000
0010
0001
0000
1000
0010
0200
,  // measure 11
0000
0300
0010
0200
0000
0310
1000
0010
,  // measure 12
0000
0000
1000
0001
0100
0001
0010
0001
,  // measure 13
0100
0000
0010
0100
0000
0100
0010
1000
,  // measure 14
0000
0001
0100
1000
0000
0001
0100
0020
,  // measure 15
0000
1030
0100
0020
0000
0130
0001
0100
,  // measure 16
0000
0000
0001
1000
0010
1000
0100
1000
,  // measure 17
0010
1000
0000
0010
1000
0010
0100
0001
,  // measure 18
0000
0001
0010
0100
0000
0010
0100
1000
,  // measure 19
1001
0000
0000
0010
0100
0001
0100
0010
,  // measure 20
1000
0000
0000
0001
0100
1000
0100
0001
,  // measure 21
0010
0001
0100
0010
1000
0100
1000
0010
,  // measure 22
0000
0000
0000
0000
1000
0100
0010
0001
,  // measure 23
1001
0000
0000
0100
0010
1000
0010
0100
,  // measure 24
0001
0000
0000
1000
0010
0001
0010
1000
,  // measure 25
0100
1000
0010
0100
0001
0010
0001
0100
,  // measure 26
0000
0100
0010
0001
0000
1100
0000
0000
,  // measure 27
0000
1000
0100
0010
0001
0100
0010
1000
,  // measure 28
0001
1000
0000
0000
1000
0010
0000
0000
0100
0001
0000
0000
1001
0000
0000
0000
,  // measure 29
0000
0001
0100
1000
0100
0001
0100
1000
,  // measure 30
0200
0000
0310
0000
0010
0100
1000
0100
,  // measure 31
0000
1000
0100
1000
0010
0001
0010
1000
,  // measure 32
0100
1000
0000
0000
0001
0010
0000
0000
0100
1000
0000
0000
0011
0000
0000
0000
,  // measure 33
0000
0100
0001
0100
0000
0010
1000
0010
,  // measure 34
0000
1001
0000
0100
0010
0100
0010
0000
,  // measure 35
0000
0100
0001
1000
0010
0001
1000
0100
,  // measure 36
0010
0100
0000
0000
0100
0010
0000
0000
0001
1000
0000
0000
0110
0000
0000
0000
,  // measure 37
0000
0010
0001
0100
0001
0010
0001
0100
,  // measure 38
0002
0000
1003
2000
0000
3001
0100
0001
,  // measure 39
0000
0000
0001
0100
1000
0010
1000
0100
,  // measure 40
0001
0100
0000
0000
0010
1000
0000
0000
0001
0100
0000
0000
1010
0000
0000
0000
,  // measure 41
0000
0001
0010
0001
0000
1000
0100
1000
,  // measure 42
0000
0110
0000
0001
1000
0001
1000
0000
,  // measure 43
0001
0010
0001
0000
0100
0010
0100
0000
0001
0010
0001
0000
1000
0010
1000
0000
,  // measure 44
0010
0100
0010
1000
0001
0100
0001
0000
,  // measure 45
1000
0100
1000
0000
0010
0100
0010
0000
1000
0100
1000
0000
0001
0100
0001
0000
,  // measure 46
0100
0010
0100
0001
1000
0010
1000
0000
,  // measure 47
0010
0000
0000
0000
0000
0000
1000
0010
0100
0010
1000
0000
0001
0000
1000
0000
,  // measure 48
0001
0000
0000
0000
0000
0000
0001
0100
0010
1000
0010
0000
0001
0000
0100
0000
,  // measure 49
0010
0000
0000
0000
0000
0000
1000
0010
1000
0010
1000
0000
0001
0000
0100
0000
,  // measure 50
0001
0000
1000
0100
1000
0000
0010
0000
0100
0000
0001
0000
0010
0000
1000
0000
,  // measure 51
0020
0000
1000
0000
1030
0000
0000
0100
,  // measure 52
0010
1000
0010
0000
0000
0100
0100
0000
,  // measure 53
0002
0000
0010
0000
0013
0000
0000
0001
,  // measure 54
0010
0100
1000
0000
0000
0010
0010
0000
,  // measure 55
2000
0000
0100
0000
3100
0000
0000
1000
,  // measure 56
0100
0010
0001
0000
0000
0100
0001
0100
,  // measure 57
0000
0010
1000
0010
0000
1000
0100
0010
,  // measure 58
0000
2002
0000
3003
1000
0001
0100
0001
,  // measure 59
1000
0001
0010
0100
1000
0010
0100
0001
,  // measure 60
1000
0001
0000
0000
0001
0100
0000
0000
0010
1000
0000
0000
1001
0000
0000
0000
,  // measure 61
0000
1000
0010
0001
0010
1000
0010
0001
,  // measure 62
0020
0000
0130
0000
0100
0010
0001
0010
,  // measure 63
0000
0001
0010
0001
0100
1000
0100
0001
,  // measure 64
0010
0001
0000
0000
1000
0100
0000
0000
0010
0001
0000
0000
1100
0000
0000
0000
,  // measure 65
0000
0010
1000
0010
0000
0100
0001
0100
,  // measure 66
0000
1001
0000
0010
0100
0010
0100
0000
,  // measure 67
0000
0010
1000
0001
0100
1000
0001
0010
,  // measure 68
0100
0010
0000
0000
0010
0100
0000
0000
1000
0001
0000
0000
0110
0000
0000
0000
,  // measure 69
0000
0100
1000
0010
1000
0100
1000
0010
,  // measure 70
2000
0000
3001
0002
0000
1003
0010
1000
,  // measure 71
0000
0000
1000
0010
0001
0100
0001
0010
,  // measure 72
1000
0010
0000
0000
0100
0001
0000
0000
1000
0010
0000
0000
0101
0000
0000
0000
,  // measure 73
0000
1000
0100
1000
0000
0001
0010
0001
,  // measure 74
0000
0110
0000
1000
0001
1000
0001
0000
,  // measure 75
1000
0010
0200
0000
0000
0300
0010
1000
,  // measure 76
0020
0000
2030
0000
3010
1000
0100
0000
,  // measure 77
0001
0100
0002
0000
0000
0003
1000
0010
,  // measure 78
0200
0000
0302
0000
1003
0010
1000
0000
,  // measure 79
1000
0100
2000
0000
0000
3000
0010
0100
,  // measure 80
0020
0000
0230
0000
0310
0100
0001
0000
,  // measure 81
0000
1000
0010
0100
0000
0001
0010
0001
,  // measure 82
0000
0100
0000
0010
0100
0010
0100
0000
,  // measure 83
0001
0100
0020
0000
0000
0030
0100
0001
,  // measure 84
0200
0302
0103
0000
,  // measure 85
1000
0010
2000
0000
0000
3000
0001
0100
,  // measure 86
0020
2030
3001
0000
,  // measure 87
0001
0010
0002
0000
0000
0003
0100
0010
,  // measure 88
0200
0320
0130
0000
,  // measure 89
0000
0001
0100
0010
0000
1000
0100
1000
,  // measure 90
0000
0001
0100
0001
0000
1000
0010
0100
;
