#TITLE:How You Like That;
#SUBTITLE:;
#ARTIST:BLACKPINK;
#TITLETRANSLIT:;
#SUBTITLETRANSLIT:;
#ARTISTTRANSLIT:;
#CREDIT:;
#BANNER:How You Like That.png;
#BACKGROUND:How You Like That-bg.png;
#LYRICSPATH:;
#CDTITLE:;
#MUSIC:How You Like That.mp3;
#OFFSET:-0.580;
#SAMPLESTART:41.620;
#SAMPLELENGTH:15.000;
#SELECTABLE:YES;
#BPMS:0.000=130.000;
#STOPS:;
#BGCHANGES:-1.280=How You Like That.avi=1.000=0=0=0,
99999=-nosongbg-=1.000=0=0=0 // don't automatically add -songbackground-
;

//---------------dance-single - ----------------
#NOTES:
     dance-single:
     :
     Hard:
     14:
     0.487,0.481,0.072,0.064,0.217: // measure 1
0000
0000
0000
0000
,  // measure 2
0001
0001
0010
0010
,  // measure 3
0100
0100
1000
1000
,  // measure 4
0100
0100
0010
0010
,  // measure 5
0001
0000
0001
0100
1000
0010
1000
0000
,  // measure 6
2002
0000
0000
0000
,  // measure 7
3003
0000
0000
0000
0000
1000
0100
0010
,  // measure 8
0001
0100
0010
1000
0000
0010
0100
1000
,  // measure 9
0010
0100
0010
0001
0000
0100
0100
0001
,  // measure 10
1000
0000
0010
0100
0001
0100
0010
0000
,  // measure 11
2000
0000
3000
0000
0000
0001
0010
0100
,  // measure 12
1000
0010
0100
0001
0000
0100
0010
0001
,  // measure 13
0100
0010
0100
1000
0000
0010
0010
1000
,  // measure 14
0001
0000
0100
0010
1000
0010
0100
0000
,  // measure 15
0002
0000
0003
0000
0000
0000
0100
0010
,  // measure 16
1000
0000
0000
0010
0000
0000
0100
0000
0010
0000
0000
0100
0000
0000
0001
0000
,  // measure 17
0010
0000
0000
0001
0000
0000
0100
0000
0001
0000
0000
0000
0000
0000
0100
0000
,  // measure 18
0001
0000
0000
0100
0000
0000
0010
0000
0100
0000
0000
0010
0000
0000
1000
0000
,  // measure 19
0100
0000
0000
1000
0000
0000
0010
0000
1000
0000
0000
0000
0000
0000
0000
0000
,  // measure 20
1000
0000
0000
0100
0000
0000
1000
0000
0010
0000
0000
0100
0000
0000
0010
0000
,  // measure 21
0100
0000
0000
0001
0000
0000
0010
0000
0001
0000
0000
0000
0001
0010
0000
0000
,  // measure 22
0100
0001
0000
0000
1000
0100
0000
0000
0010
1000
0000
0000
1001
0000
0000
0000
,  // measure 23
1000
1000
0100
0100
0010
0010
0001
0000
,  // measure 24
1001
0000
0001
0100
0010
0000
0100
0000
,  // measure 25
0010
0000
0100
0000
0001
0000
0000
0000
0100
0010
0000
0000
1000
0000
0000
0000
,  // measure 26
0010
0000
1000
0010
0001
0000
0001
0000
,  // measure 27
0001
0010
1000
0000
1000
0010
0001
0010
,  // measure 28
1000
0000
0000
0000
0010
0000
0100
0010
0100
0000
0010
0100
0010
0000
1000
0000
,  // measure 29
0001
0010
1000
0000
1000
0100
1000
0000
,  // measure 30
0001
0000
0100
0001
0010
0000
0001
0000
,  // measure 31
0100
0001
1000
0000
0010
0000
1010
0000
,  // measure 32
1000
0000
0000
0000
0010
1000
0010
0000
0100
0000
0010
0000
0100
0001
0010
0000
,  // measure 33
0001
0000
0000
0000
0001
0010
0100
0000
1000
0000
0010
0000
1000
0100
0010
0000
,  // measure 34
0001
0000
0000
0000
0100
0001
0100
0000
0010
0000
0100
0000
0010
1000
0100
0000
,  // measure 35
1000
0100
0010
0000
0101
0010
0100
0010
,  // measure 36
0001
0000
0000
0000
0100
0001
0100
0000
0010
0000
0100
0000
0010
1000
0100
0000
,  // measure 37
1000
0000
0000
0000
1000
0100
0010
0000
0001
0000
0100
0000
0001
0010
0100
0000
,  // measure 38
1000
0000
0000
0000
0010
1000
0010
0000
0100
0000
0010
0000
0100
0001
0010
0000
,  // measure 39
0001
0010
0100
0000
2000
0000
0000
0000
,  // measure 40
3001
0000
0100
0001
0010
0100
0001
1000
,  // measure 41
0010
0000
0010
0000
0100
0001
0000
1000
,  // measure 42
0010
0000
0001
0010
1000
0001
0010
0100
,  // measure 43
1000
0000
1000
0000
0001
0010
0000
0100
,  // measure 44
0010
0000
1000
0100
0001
1000
0100
0010
,  // measure 45
0001
0000
0001
0000
1000
0100
0000
0010
,  // measure 46
1000
0001
0100
0001
2000
0000
3010
0100
,  // measure 47
0002
0000
0103
0010
0200
0000
0310
0000
,  // measure 48
1000
0000
0000
1000
0010
0000
1000
0000
0010
0000
0000
0100
0010
0000
0100
0000
,  // measure 49
0001
0000
0000
0001
1000
0000
0010
0000
0100
0000
0001
0000
0010
0000
0100
0000
,  // measure 50
0010
0000
0000
0010
0001
0000
0010
0000
0001
0000
0000
1000
0001
0000
1000
0000
,  // measure 51
0100
0000
0000
0100
0010
0000
0001
0000
1000
0000
0100
0000
0001
0000
1000
0000
,  // measure 52
0001
0000
0000
0001
0100
0000
0001
0000
0100
0000
0000
0010
0100
0000
0010
0000
,  // measure 53
1000
0000
0000
1000
0001
0000
0100
0000
0010
0000
1000
0000
0100
0000
0010
0000
,  // measure 54
0100
0000
0000
0100
1000
0000
0100
0000
1000
0000
0000
0001
1000
0000
0001
0000
,  // measure 55
0010
0000
0000
0010
0100
0000
1000
0000
0000
0000
0010
0000
1001
0000
0000
0000
,  // measure 56
0100
0000
0001
0000
0100
0000
1000
0001
0100
0000
0000
1000
0010
0000
0100
0000
,  // measure 57
0001
0000
1000
0010
0100
0000
0000
0000
0010
0000
0100
0000
0001
0000
0000
0000
,  // measure 58
1001
0000
0010
0000
0001
0000
0010
0100
0001
0000
0000
0100
0001
0000
1000
0000
,  // measure 59
0010
0000
0100
0000
1000
0010
1000
0000
0010
0000
0001
0000
0010
0000
0000
0000
,  // measure 60
0011
0000
1000
0000
0010
0000
0001
1000
0010
0000
0000
0001
0100
0000
0010
0000
,  // measure 61
1000
0000
0001
0100
0010
0000
0000
0000
0100
0000
0010
0000
1000
0000
0000
0000
,  // measure 62
1001
0000
0100
0000
1000
0000
0100
0010
0001
0000
0000
0010
1000
0000
0001
0000
,  // measure 63
0100
0000
0000
0000
0000
0000
0010
0000
0000
0000
0000
0000
0001
0000
0000
0100
0000
0000
0001
0000
0000
0000
0000
0000
0100
0000
0000
0000
0000
0000
1000
0000
0000
0000
0000
0000
0100
0000
0000
0000
0010
0000
0000
0000
0001
0000
0000
0000
;

//---------------dance-single - ----------------
#NOTES:
     dance-single:
     :
     Medium:
     7:
     0.351,0.380,0.080,0.113,0.000:
0000
0000
0000
0000
,
0000
0000
0000
0000
,
0000
0000
0000
0000
,
0000
0000
0000
0000
,
0000
0000
0000
0000
,
0220
0000
0000
0000
,
0330
0000
0000
0000
,
0010
0100
0010
1000
0000
0001
1000
0001
,
0100
0001
1000
0010
0000
0001
0100
0010
,
1000
0010
0100
0001
0000
1000
0010
0001
,
0100
0010
1000
0001
0000
1000
0100
0010
,
0001
0100
0010
0001
0000
1000
0001
1000
,
0010
1000
0001
0100
0000
1000
0010
0100
,
0001
0100
0010
1000
0000
0001
0100
1000
,
0010
0100
0001
1000
0000
0000
0000
0000
,
2000
0010
0000
0010
3010
1000
0000
1000
,
0001
0100
0000
0010
0100
0000
0000
1000
,
0001
0000
0000
0100
0010
0100
0000
0001
,
1000
0010
0000
0100
0001
0000
0000
0000
,
0001
0100
0000
0100
0100
0001
0000
0001
,
1000
0010
0000
0100
0010
0000
0000
0001
,
1000
0000
0100
0010
0100
0000
0010
0000
,
0001
0100
0001
0010
1000
0010
0000
0000
,
1000
0000
0010
0100
1000
0000
0010
0000
,
0100
0010
0001
0000
0001
0000
0100
0000
,
0001
0000
1000
0100
0010
0000
1000
0000
,
0001
0100
0010
0000
1000
0000
0010
0000
,
0001
0000
0100
0010
0001
0000
0100
0000
,
0010
0100
1000
0000
1000
0000
0010
0000
,
1000
0000
0001
0010
0100
0000
0001
0000
,
1000
0010
0100
0000
0001
0000
0100
0000
,
0100
0000
0010
0001
0100
0000
0010
0000
,
0001
0010
1000
0000
1000
0000
0001
0000
,
1000
0000
0100
0001
0010
0000
0100
0000
,
1000
0001
0010
0000
0100
0000
0010
0000
,
1000
0000
0001
0010
1000
0000
0001
0000
,
0010
0001
0100
0000
0100
0000
0010
0000
,
0100
0000
1000
0010
0001
0000
1000
0000
,
0100
0010
0001
0000
1000
0000
0001
0000
,
0012
0000
0000
0003
,
2001
0000
0000
3000
,
2010
0000
0000
3000
,
0120
0000
0000
0030
,
0100
0000
0100
0000
,
0010
0000
1000
0000
,
0001
1000
0010
0100
,
0001
1001
0110
1001
,
0001
0000
0010
0001
0100
0000
1000
0010
,
0100
0000
0010
0100
0001
0000
0020
0000
,
0130
0000
0010
1000
0001
0000
0100
0010
,
1000
0000
0100
0010
0001
0000
1000
0010
,
1000
0000
0001
0100
0010
0000
1000
0010
,
0100
0000
0001
0100
0001
0000
2000
0000
,
3010
0000
0100
0010
1000
0000
0001
0100
,
0010
0000
0100
0010
0000
0100
1001
0000
,
1000
0000
0100
1000
0010
0000
0001
0100
,
0010
0000
0100
0010
1000
0000
0200
0000
,
0310
0000
0100
0001
1000
0000
0010
0100
,
0001
0000
0010
0100
1000
0000
0002
0000
,
0103
0000
1000
0010
0100
0000
0001
0100
,
0010
0000
1000
0010
1000
0000
0002
0000
,
0103
0000
0010
0100
0001
0000
1000
0010
,
0100
0000
0010
0100
0001
0000
2002
0000
,
3003
0000
0000
0000
;

//---------------dance-single - ----------------
#NOTES:
     dance-single:
     :
     Easy:
     5:
     0.232,0.330,0.064,0.024,0.000:
0000
0000
0000
0000
,
0000
0000
0000
0000
,
0000
0000
0000
0000
,
0000
0000
0000
0000
,
0000
0000
0000
0000
,
0000
0000
0000
0000
,
0000
0000
0000
0000
,
0010
0100
1000
0000
,
0100
0000
0010
0000
,
1000
0010
0001
0000
,
0001
0000
0100
0000
,
0001
0010
0001
0000
,
0100
0000
0010
0000
,
0001
1000
0010
0000
,
1000
0000
0010
0000
,
1000
0010
0010
0000
,
0100
0001
1000
0000
,
0010
0100
0001
0000
,
1000
0001
0200
0300
,
0001
1000
0010
0000
,
0100
0010
1000
0000
,
0001
0100
0001
0000
,
0001
0010
0100
1000
,
1010
0000
0010
0000
,
1000
0000
0001
0000
,
0100
0001
0100
0001
,
0010
0001
0011
0000
,
1000
0010
0100
0010
,
1000
0000
0010
0000
,
1000
0010
0100
0010
,
0001
0100
1010
0000
,
1000
0010
1000
0000
,
0001
0100
0001
0000
,
0100
0010
0100
0000
,
0010
1000
0001
0000
,
0001
0100
0001
0000
,
1000
0010
1000
0000
,
0010
0100
0010
0000
,
0100
0001
1000
0000
,
0010
0000
0100
0000
,
0001
0000
1000
0000
,
0010
0000
1000
0000
,
0001
0000
1000
0000
,
0010
0000
1000
0000
,
0100
0000
0010
0000
,
0001
0100
1000
0100
,
0001
0010
1000
0010
,
0001
0000
0001
0001
0001
0000
0010
0010
,
0010
0000
0100
0100
0100
0000
1000
1000
,
1000
0000
0010
0010
0010
0000
1000
1000
,
1000
0000
0001
0001
0001
0000
1000
1000
,
1000
0000
0010
0010
0010
0000
1000
1000
,
1000
0000
0100
0100
0100
0000
0001
0001
,
0001
0000
1000
1000
1000
0000
0010
0010
,
0010
0000
0100
0100
0000
0000
0010
0000
,
1001
0010
0100
0010
,
1000
0100
0001
0100
,
0101
0010
0001
0010
,
1000
0001
0100
0001
,
1100
0001
1000
0100
,
1000
0010
0100
0001
,
0011
0001
1000
0010
,
1000
0010
0100
0220
,
0330
0000
0000
0000
;

//---------------dance-single - ----------------
#NOTES:
     dance-single:
     :
     Beginner:
     3:
     0.162,0.203,0.024,0.040,0.000:
0000
0000
0000
0000
,
0000
0000
0000
0000
,
0000
0000
0000
0000
,
0000
0000
0000
0000
,
0000
0000
0000
0000
,
0000
0000
0000
0000
,
0000
0000
0000
0000
,
0001
0000
0000
0000
,
1000
0000
0000
0000
,
0010
0000
0000
0000
,
0100
0000
0000
0000
,
0010
0000
0000
0000
,
1000
0000
0000
0000
,
0001
0000
0000
0000
,
0100
0000
0000
0000
,
1000
0000
0010
0000
,
1000
0000
0010
0000
,
0001
0000
0100
0000
,
0001
0000
0100
0000
,
0010
0000
0001
0000
,
1000
0000
0010
0000
,
1000
0000
0001
0000
,
1000
1000
1000
1000
,
1000
0000
0010
0010
,
0010
0000
1000
1000
,
1000
0000
0001
0001
,
0001
0000
0100
0100
,
0100
0000
0010
0010
,
0010
0000
1000
1000
,
1000
0000
0001
0001
,
0001
0000
1001
0000
,
0010
0000
0100
0010
,
0100
0000
0001
1000
,
0001
0000
1000
0001
,
1000
0000
0100
0010
,
0100
0000
0010
0100
,
0010
0000
1000
0001
,
1000
0000
0001
1000
,
0001
0000
0010
0000
,
0020
0000
0030
0000
,
2000
0000
3000
0000
,
0200
0000
0300
0000
,
0002
0000
0003
0000
,
1000
0000
0010
0000
,
1000
0000
0001
0000
,
0100
0000
0001
0000
,
1001
0000
0110
0000
,
0010
0100
0010
0000
,
1000
0001
1000
0000
,
0001
0010
0001
0000
,
1000
0100
1000
0000
,
0010
0100
0010
0000
,
1000
0100
1000
0000
,
0001
0100
0001
0000
,
0010
0001
0010
0000
,
0100
0010
0100
0000
,
0001
1000
0001
0000
,
1000
0100
1000
0000
,
0001
0010
0001
0000
,
0100
0010
0100
0000
,
0001
0010
0001
0000
,
1000
0010
1000
0000
,
0100
1000
0100
2000
,
3000
0000
0000
0000
;
