#TITLE:How Deep Is Your Love;
#SUBTITLE:;
#ARTIST:Calvin Harris & Disciples;
#TITLETRANSLIT:;
#SUBTITLETRANSLIT:;
#ARTISTTRANSLIT:;
#CREDIT:;
#BANNER:How Deep Is Your Love.png;
#BACKGROUND:How Deep Is Your Love-bg.png;
#LYRICSPATH:;
#CDTITLE:;
#MUSIC:How Deep Is Your Love.mp3;
#OFFSET:-0.040;
#SAMPLESTART:61.480;
#SAMPLELENGTH:15.000;
#SELECTABLE:YES;
#BPMS:0.000=122.000;
#STOPS:;
#BGCHANGES:;

//---------------dance-single - ----------------
#NOTES:
     dance-single:
     :
     Easy:
     3:
     0.191,0.233,0.029,0.039,0.005:
0000
0001
0000
0010
,
0000
0001
0000
1000
,
0000
0100
0000
0010
,
0000
0001
0000
1000
,
0000
0100
0000
1000
,
0000
0001
0000
0010
,
0000
0100
0000
1000
,
0000
0010
0000
1000
,
0000
0010
0000
0100
,
0000
0001
0000
0100
,
0000
0010
0000
1000
,
0000
0001
0000
1000
,
0000
0010
0000
0001
,
0000
0010
0000
1000
,
0000
0001
0000
0010
,
0000
1000
0100
0010
,
0001
0001
0010
0100
,
1000
0001
0100
0001
,
1000
0010
1000
0010
,
1000
0100
0010
0100
,
0001
0010
0100
0010
,
0100
0010
0100
1000
,
0010
1000
0001
0010
,
0001
0100
0010
1000
,
2002
0000
3003
0000
,
1000
0000
0010
0000
,
1000
0000
0001
0000
,
0100
0000
0001
0000
,
0010
0000
0001
0000
,
0100
0000
0010
0000
,
1000
0000
0010
0000
,
1000
0000
0000
0000
0000
0000
0000
0000
0000
0000
0000
1000
0001
0000
0000
0000
,
0101
0001
0010
0001
,
0000
1000
0100
0100
,
0000
0010
0100
0010
,
0000
0010
1000
0010
,
0000
0100
0010
1000
,
0000
0001
0010
0100
,
0000
0001
1000
0001
,
0000
1000
0010
0001
,
2002
3003
0010
1000
,
0000
1000
0100
0001
,
0000
0001
0100
1000
,
0000
0010
1000
0001
,
0000
0100
0001
1000
,
0000
0100
1000
0100
,
0000
0010
0001
0010
,
0000
0100
0001
0010
;

//---------------dance-single - ----------------
#NOTES:
     dance-single:
     :
     Beginner:
     1:
     0.158,0.140,0.010,0.000,0.000:
0000
0010
0000
1000
,
0000
0001
0000
0100
,
0000
0001
0000
0100
,
0000
0010
0000
1000
,
0000
0010
0000
1000
,
0000
0001
0000
0100
,
0000
0001
0000
1000
,
0000
0010
0000
0100
,
0000
0010
0000
1000
,
0000
0010
0000
0100
,
0000
0001
0000
0100
,
0000
0001
0000
1000
,
0000
0010
0000
1000
,
0000
0001
0000
0001
,
0000
1000
0000
1000
,
0000
0010
0000
0100
,
0000
0010
0010
0010
,
0000
0100
0100
0100
,
0000
0001
0001
0001
,
0000
1000
1000
1000
,
0000
0001
0001
0001
,
0000
1000
1000
1000
,
0000
0010
0010
0010
,
0000
0100
0100
0100
,
0000
0010
0000
1000
,
0000
0010
0000
1000
,
0000
0100
0000
1000
,
0000
0010
0000
0100
,
0000
0001
0000
0010
,
0000
0001
0000
0010
,
0000
0001
0000
0100
,
0000
0001
0000
1001
,
0000
1000
0001
1000
,
0000
0001
1000
0001
,
0000
0100
0010
0100
,
0000
0010
0100
0010
,
0000
1000
0100
1000
,
0000
0001
0010
0001
,
0000
1000
0001
1000
,
0000
0010
1000
0010
,
0000
0100
0000
0100
,
0000
0001
0000
0100
,
0000
0010
0000
0010
,
0000
1000
0000
0010
,
0000
1000
0000
0001
,
0000
0100
0000
0001
,
0000
1000
0000
0100
,
0000
0010
0000
0001
;

//---------------dance-single - ----------------
#NOTES:
     dance-single:
     :
     Medium:
     6:
     0.294,0.303,0.029,0.000,0.117:
0000
0000
0000
0000
0100
0000
0000
0100
0000
0000
0100
0000
0000
0000
0000
0000
,
0000
0000
0000
0000
0001
0000
0000
0001
0000
0000
0001
0000
0000
0000
0000
0000
,
0000
0000
0000
0000
1000
0000
0000
1000
0000
0000
1000
0000
0000
0000
0000
0000
,
0000
0000
0000
0000
0100
0000
0000
0100
0000
0000
0100
0000
0000
0000
0000
0000
,
0000
0000
0000
0000
0001
0000
0000
0001
0000
0000
0001
0000
0000
0000
0000
0000
,
0000
0000
0000
0000
0010
0000
0000
0010
0000
0000
0010
0000
0000
0000
0000
0000
,
0000
0000
0000
0000
0100
0000
0000
0100
0000
0000
0100
0000
0000
0000
0000
0000
,
0000
0000
0000
0000
0001
0000
0000
0001
0000
0000
0001
0000
0000
0000
0000
0000
,
0000
0010
0000
1000
,
0000
0000
1000
0000
0010
1000
0001
0000
,
0000
0100
0000
0010
,
0000
0000
0010
0000
0100
0010
1000
0000
,
0000
0001
0000
0100
,
0000
0000
0010
0000
0010
0100
0001
0000
,
0000
0001
0000
0010
,
0000
0000
0000
0000
0001
0000
0000
0000
0100
0000
0000
0001
0000
0100
0000
0000
,
0010
0000
1000
0000
1000
0000
0000
0010
0000
0000
1000
0000
0000
0000
0000
0000
,
0001
0000
0001
0000
0010
0000
0000
0001
0000
0000
0100
0000
0000
0000
0000
0000
,
0001
0000
1000
0000
0010
0000
0000
0100
0000
0000
0010
0000
0000
0000
0000
0000
,
1000
0000
0100
0000
0010
0000
0000
0100
0000
0000
0001
0000
0000
0000
0000
0000
,
0100
0000
0001
0000
0001
0000
0000
0100
0000
0000
0001
0000
0000
0000
0000
0000
,
1000
0000
1000
0000
0100
0000
0000
1000
0000
0000
0010
0000
0000
0000
0000
0000
,
1000
0000
0001
0000
0100
0000
0000
0010
0000
0000
0100
0000
0000
0000
0000
0000
,
0001
0000
0010
0000
0100
0000
0000
0010
0000
0000
1000
0000
0000
0000
0000
0000
,
1000
0010
0100
0000
0010
0100
1000
0000
,
0001
0010
0100
0000
0100
0010
0001
0000
,
0001
1000
0001
0000
1000
0001
1000
0000
,
0001
0010
0100
0000
0010
0100
1000
0000
,
0001
0010
0001
0000
0100
0010
0100
0000
,
1000
0100
1000
0000
1000
0001
1000
0000
,
0001
0010
0100
0000
1000
0100
0010
0000
,
0000
0000
0000
0000
0100
0000
0000
0000
0100
0000
0000
0100
0000
0010
0000
0000
,
1001
0000
0000
0001
0100
0001
0010
0000
,
0000
0000
0000
0010
0100
0010
1000
0000
,
0000
0000
0000
0100
0010
0100
0010
0000
,
0000
0000
0000
0000
1000
0000
0000
0000
0001
0000
0000
0100
0000
0001
0000
0000
,
0110
0000
0000
0010
0001
0010
1000
0000
,
0000
0000
0000
1000
0001
1000
0100
0000
,
0000
0000
0000
0001
1000
0001
1000
0000
,
0000
0000
0000
0000
0100
0000
0000
0000
0010
0000
0000
0001
0000
0010
0000
0000
,
0011
0000
0001
0000
0100
0010
1000
0000
,
1000
0000
0001
0000
0100
0001
1000
0000
,
0010
0000
1000
0000
1000
0100
0010
0000
,
0100
0000
0001
0000
0001
0100
1000
0000
,
1000
0000
0010
0000
1000
0100
0001
0000
,
0001
0000
0010
0000
0001
0010
0001
0000
,
1000
0000
0100
0000
1000
0010
0100
0000
,
0010
0000
1000
0000
0001
1000
0001
0000
;

//---------------dance-single - ----------------
#NOTES:
     dance-single:
     :
     Hard:
     12:
     0.417,0.375,0.010,0.010,0.464: // measure 1
0000
0000
0010
0000
1000
0000
0000
0010
0000
0000
1000
0000
0010
0000
0000
0000
,  // measure 2
0000
0000
0001
0000
0100
0000
0000
0001
0000
0000
0100
0000
0010
0000
0000
0000
,  // measure 3
0000
0000
0001
0000
0010
0000
0000
0100
0000
0000
1000
0000
0100
0000
0000
0000
,  // measure 4
0000
0000
1000
0000
0010
0000
0000
0100
0000
0000
0010
0000
1000
0000
0000
0000
,  // measure 5
0000
0000
0100
0000
0001
0000
0000
0010
0000
0000
0001
0000
0001
0000
0000
0000
,  // measure 6
0000
0000
0100
0000
0010
0000
0000
0100
0000
0000
0100
0000
0010
0000
0000
0000
,  // measure 7
0000
0000
1000
0000
0001
0000
0000
0100
0000
0000
0010
0000
0100
0000
0000
0000
,  // measure 8
0000
0000
0001
0000
1000
0000
0000
0000
0010
1000
0000
0010
0000
0100
0000
0001
,  // measure 9
0000
0000
0100
0000
0001
0000
0000
0010
0000
0000
0001
0000
0010
0000
0000
0000
,  // measure 10
0000
0000
1000
0000
0010
0000
0000
0000
0100
0001
0000
0100
0000
0010
0000
1000
,  // measure 11
0000
0000
0010
0000
1000
0000
0000
0100
0000
0000
1000
0000
0100
0000
0000
0000
,  // measure 12
0000
0000
0100
0000
1000
0000
0000
0000
1000
0100
0000
1000
0000
0100
0000
0010
,  // measure 13
0000
0000
0100
0000
1000
0000
0000
0001
0000
0000
0100
0000
0001
0000
0000
0000
,  // measure 14
0000
0000
0001
0000
0001
0000
0000
0010
0000
0000
1000
0000
0010
0000
0000
0000
,  // measure 15
0000
0000
0010
0000
1000
0000
0000
0100
0000
0000
0001
0000
0000
0000
0000
0000
,  // measure 16
0000
0000
0000
0000
0010
0000
0000
0000
0010
0000
0000
0010
0000
0100
0000
0000
,  // measure 17
0010
0000
0100
0000
0010
0000
0000
1000
0000
0000
0000
0100
1000
0000
1000
0100
,  // measure 18
0000
0000
1000
0000
0001
0000
0000
0100
0000
0000
0001
0100
0001
0000
0100
0001
,  // measure 19
0000
0001
0100
0000
0010
0000
0000
0010
0000
0000
0100
0000
0100
0000
0000
0000
,  // measure 20
0000
0000
0000
0000
0100
0000
0000
0000
0100
0000
0000
0100
0000
0010
0000
0000
,  // measure 21
0100
0000
0010
0000
0100
0000
0000
0001
0000
0000
0000
0010
0001
0000
0001
0010
,  // measure 22
0000
0000
0001
0000
1000
0000
0000
0010
0000
0000
1000
0010
1000
0000
0010
1000
,  // measure 23
0000
1000
0010
0000
0100
0000
0000
0100
0000
0000
0010
0000
0010
0000
0000
0000
,  // measure 24
0000
0000
0000
0000
0010
0000
0000
0000
0100
0000
0000
0010
0000
0100
0000
0000
,  // measure 25
0010
0000
1000
0000
0100
0000
0000
0010
0000
0000
0100
0000
1000
0000
0001
0000
,  // measure 26
0100
0000
0001
0000
0010
0000
0000
0001
0000
0000
0010
0000
0001
0000
0100
0000
,  // measure 27
0010
0000
1000
0000
0100
0000
0000
1000
0000
0000
0010
0000
0001
0000
0010
0000
,  // measure 28
1000
0000
0010
0000
0001
0000
0000
0100
0000
0000
0010
0000
1000
0000
0010
0000
,  // measure 29
0100
0000
0001
0000
0100
0000
0000
0010
0000
0000
1000
0000
0100
0000
0010
0000
,  // measure 30
0100
0000
1000
0000
0100
0000
0000
1000
0000
0000
0100
0000
0001
0000
0010
0000
,  // measure 31
0001
0000
0010
0000
0100
0000
0000
0010
0000
0000
0001
0000
0010
0000
0000
0000
,  // measure 32
1001
0000
0000
0000
0010
0000
0000
0000
0010
0000
0000
0010
0000
0100
0000
0000
,  // measure 33
0010
1000
0010
1000
0100
0010
0001
0000
,  // measure 34
1000
0001
1000
0001
0010
0100
1000
0000
,  // measure 35
0001
0010
0001
0010
0100
0010
0001
0000
,  // measure 36
1000
0000
0000
0000
0010
0000
0000
0000
1000
0000
0000
0010
0000
1000
0000
0000
,  // measure 37
0100
0001
0100
0001
0010
0100
1000
0000
,  // measure 38
0001
1000
0001
1000
0100
0010
0001
0000
,  // measure 39
1000
0100
1000
0100
0010
0100
1000
0000
,  // measure 40
0001
0000
0000
0000
0100
0000
0000
0000
0001
0000
0000
0100
0000
0001
0000
0000
,  // measure 41
1000
0000
0100
0000
1000
0000
0100
1000
0000
1000
0000
0010
0000
0100
0000
0001
,  // measure 42
0000
0100
0000
0010
0000
1000
0000
0001
0000
0000
0100
0000
0000
0000
0000
0000
,  // measure 43
0001
0000
0100
0000
0001
0000
0100
0001
0000
0100
0000
0001
0000
0010
0000
0100
,  // measure 44
0000
1000
0000
0100
0000
1000
0000
0100
0000
0000
0010
0000
0000
0000
0000
0000
,  // measure 45
0001
0000
0010
0000
0001
0000
0010
0001
0000
0001
0000
0100
0000
0010
0000
1000
,  // measure 46
0000
0010
0000
0100
0000
0001
0000
1000
0000
0000
0010
0000
0000
0000
0000
0000
,  // measure 47
1000
0000
0010
0000
1000
0000
0010
1000
0000
0010
0000
1000
0000
0100
0000
0010
,  // measure 48
0000
0001
0000
0010
0000
0001
0000
0010
0000
0000
0200
0000
0000
0000
0000
0000
,  // measure 49
0300
0000
0000
0000
;
