#TITLE:Holiday;
#SUBTITLE:;
#ARTIST:Little Mix;
#TITLETRANSLIT:;
#SUBTITLETRANSLIT:;
#ARTISTTRANSLIT:;
#CREDIT:;
#BANNER:Holiday.png;
#BACKGROUND:Holiday-bg.png;
#LYRICSPATH:;
#CDTITLE:;
#MUSIC:Holiday.mp3;
#OFFSET:-1.160;
#SAMPLESTART:43.000;
#SAMPLELENGTH:15.000;
#SELECTABLE:YES;
#BPMS:0.000=106.000;
#STOPS:;
#BGCHANGES:-2.460=Holiday.avi=1.000=0=0=0,
99999=-nosongbg-=1.000=0=0=0 // don't automatically add -songbackground-
;

//---------------dance-single - ----------------
#NOTES:
     dance-single:
     :
     Easy:
     4:
     0.212,0.237,0.132,0.104,0.010:
0000
0000
0000
0000
,
0000
0000
0000
0000
,
0000
0000
0000
0000
,
0110
0000
0000
0000
,
1000
0000
0010
0000
,
1000
0010
0001
0010
,
0001
0000
0100
0000
,
0001
0000
0000
0000
,
0001
0000
0100
0000
,
0010
1000
0001
0100
,
0001
0000
1000
0000
,
2000
0010
0000
3010
,
0000
0101
0000
1001
,
0002
0010
0000
0013
,
0000
1001
0000
0110
,
0020
0100
0000
0130
,
0000
0110
0000
1001
,
0002
1000
0000
1003
,
0000
0010
0100
0010
,
1000
1100
1000
0010
,
0100
0001
0010
0011
,
0001
1001
0010
0100
,
0001
1000
0010
0110
,
0100
1010
0010
1000
,
0001
0100
0010
0101
,
0001
0010
0001
0000
,
0100
0010
1000
0000
,
2000
0100
0000
3100
,
1000
0010
0100
0001
,
0100
0000
0000
0010
,
0100
0001
0000
0100
,
0002
0100
0000
0103
,
0001
0010
0100
0010
,
1000
0000
0000
1000
,
0010
0100
0000
0000
,
0200
0310
0200
0310
,
0000
0100
0010
1000
,
2000
3100
0002
0013
,
0000
0001
0100
0010
,
0020
0130
0020
0130
,
0000
0010
0100
0001
,
0000
0010
0000
0100
,
0000
1000
0010
0100
,
0001
0011
0001
0100
,
0010
1000
0100
1100
,
1000
1001
0100
0010
,
1000
0001
0100
0110
,
0010
0101
0100
0001
,
1000
0010
0100
1010
,
1000
0100
1000
0000
,
0010
0100
0001
0000
,
0002
0010
0000
0013
,
0001
0100
0010
1000
,
0010
0000
0000
0100
,
0010
1000
0000
0010
,
2000
0010
0000
3010
,
1000
0100
0010
0100
,
0001
0000
0000
0001
,
0100
0010
0000
0100
,
0200
0000
0000
0000
0000
0000
0000
0000
0300
0000
0000
0000
0000
0010
0000
0100
,
0000
0000
0000
0001
,
0100
0000
0000
0000
0000
0000
0000
0000
0000
0000
0000
0000
0000
0010
0000
0000
,
0001
0000
0000
0000
;

//---------------dance-single - ----------------
#NOTES:
     dance-single:
     :
     Beginner:
     1:
     0.135,0.108,0.021,0.063,0.000:
0000
0000
0000
0000
,
0000
0000
0000
0000
,
0000
0000
0000
0000
,
0000
0010
0000
0010
,
0000
0100
0000
0100
,
0000
0001
0000
1000
,
0000
0001
0000
1000
,
0000
0001
0000
0010
,
0000
0100
0000
1000
,
0000
0100
0000
1000
,
0000
0001
0000
0010
,
0000
0001
0001
0001
,
0000
1000
0000
1000
,
0000
0010
0010
0010
,
0000
1000
0000
1000
,
0000
0100
0100
0100
,
0000
0010
0000
0100
,
0000
0001
0001
0001
,
0000
1000
0000
1001
,
0000
0010
0000
0100
,
0000
0001
0000
2000
,
3000
1000
0000
0010
,
0000
0100
0000
0020
,
0030
0010
0000
0100
,
0000
0001
0000
1000
,
0000
0001
0000
0100
,
0000
0001
0000
0001
,
0002
0000
0003
0001
,
0000
1000
0000
0010
,
0000
0100
0000
0010
,
0000
1000
0000
1000
,
2000
0000
3000
1000
,
0000
0010
0000
1000
,
0000
0001
0000
0100
,
0000
0010
0000
0100
,
0000
0001
1000
0001
,
0000
0100
0000
0010
,
0000
0100
0010
0100
,
0000
0010
0000
1000
,
0000
1000
0100
1000
,
0000
0001
0000
1000
,
0000
0001
0010
0001
,
0000
1000
0000
1001
,
0000
0100
0000
0010
,
0000
1000
0000
0002
,
0003
0001
0000
0100
,
0000
0010
0000
0200
,
0300
0100
0000
0010
,
0000
1000
0000
0001
,
0000
1000
0000
0010
,
0000
1000
0000
1000
,
2000
0000
3000
1000
,
0000
0001
0000
0100
,
0000
0010
0000
0100
,
0000
0001
0000
0001
,
0002
0000
0003
0001
,
0000
0100
0000
0001
,
0000
1000
0000
0010
,
0000
0100
0000
0010
,
0020
0000
0030
0000
,
0000
0000
0000
1000
,
1000
0000
0000
0000
,
1001
0000
0000
0000
;

//---------------dance-single - ----------------
#NOTES:
     dance-single:
     :
     Medium:
     7:
     0.302,0.302,0.042,0.167,0.122:
0000
0000
0000
0000
,
0000
0000
0000
0000
,
0000
0000
0000
0000
,
1001
0000
0000
0000
0000
0000
0010
0100
,
0010
0000
1000
0000
0000
0000
1000
0010
,
0001
0000
0100
0000
0001
0000
0010
1000
,
0001
0000
1000
0000
0010
0000
1000
0010
,
0100
0000
0010
0000
0001
0000
0001
0010
,
0100
0000
0010
0000
1000
0000
1000
0100
,
0010
0000
1000
0000
0010
0000
1000
0001
,
2000
3000
0002
0003
,
0100
0010
0001
0000
0100
0000
0010
0000
,
1000
0010
1000
0000
0010
0000
0100
0000
,
0010
0001
0100
0000
0010
0000
1000
0000
,
1000
0100
0001
0000
1000
0000
0001
0000
,
0001
1000
0010
0000
1000
0000
0010
0000
,
1000
0100
0001
0000
0100
0000
0010
0000
,
0010
0100
0010
0000
1000
0001
1000
0000
,
1001
0000
0000
0000
0000
0000
0000
0000
0000
0000
0000
0100
0010
0000
0000
0000
,
1000
0000
0010
0000
0000
1000
0000
0000
0010
0000
0000
0000
0100
0000
0010
0100
,
0010
0000
0100
0000
0000
0001
0000
0000
0010
0000
0000
0000
0002
0000
0000
0000
,
0013
0000
0001
0000
0000
0010
0000
0000
0001
0000
0000
0000
1000
0000
0001
1000
,
0001
0000
1000
0000
0000
0100
0000
0000
0001
0000
0000
0000
0200
0000
0000
0000
,
0310
0000
0001
0000
0000
0010
0000
0000
0001
0000
0000
0000
1000
0000
0001
1000
,
0001
0000
1000
0000
0000
0100
0000
0000
0001
0000
0000
0000
0200
0000
0000
0000
,
0301
0000
0100
0000
0000
0001
0000
0000
0100
0000
0000
0000
0010
0000
0100
0010
,
0100
0000
0010
0000
0000
1000
0000
0000
0100
0000
0000
0000
1001
0000
0000
0000
,
1000
0010
1000
0001
,
0100
0001
1000
0010
,
2000
3010
2000
3010
,
0002
0103
0002
0103
,
0100
1000
0100
0001
,
0010
0001
0100
1000
,
0200
1300
0200
1300
,
0002
0013
0002
0013
,
0001
0000
0000
0001
0000
0000
0001
0000
1000
0000
0000
1000
0000
0000
1000
0000
,
0000
0010
1000
0010
,
0100
0000
0000
0100
0000
0000
0100
0000
0010
0000
0000
0010
0000
0000
0010
0000
,
0000
1000
0010
0100
,
1000
0000
0000
0010
0000
0000
1000
0000
0001
0000
0000
0100
0000
0000
0001
0000
,
0000
0100
0001
0100
,
0010
1000
0010
0100
,
1001
0000
0000
0000
0000
0000
0000
0000
0000
0000
0000
0010
0100
0000
0000
0000
,
0001
0000
0100
0000
0000
0001
0000
0000
0100
0000
0000
0000
0010
0000
0100
0010
,
0100
0000
0010
0000
0000
1000
0000
0000
0100
0000
0000
0000
2000
0000
0000
0000
,
3100
0000
1000
0000
0000
0100
0000
0000
1000
0000
0000
0000
0001
0000
1000
0001
,
1000
0000
0001
0000
0000
0010
0000
0000
1000
0000
0000
0000
0020
0000
0000
0000
,
0130
0000
1000
0000
0000
0100
0000
0000
1000
0000
0000
0000
0001
0000
1000
0001
,
1000
0000
0001
0000
0000
0010
0000
0000
1000
0000
0000
0000
0020
0000
0000
0000
,
1030
0000
0010
0000
0000
1000
0000
0000
0010
0000
0000
0000
0100
0000
0010
0100
,
0010
0000
0100
0000
0000
0001
0000
0000
0010
0000
0000
0000
1001
0000
0000
0000
,
0001
0100
0001
1000
,
0010
1000
0001
0100
,
0002
0103
0002
0103
,
2000
3010
2000
3010
,
0010
0001
0010
1000
,
0100
1000
0010
0001
,
0020
0031
0020
0031
,
2000
3100
2000
3100
,
1001
0000
0000
0000
0000
0000
0000
0000
0000
0000
0000
0000
0000
1000
0000
0010
,
0000
0000
0000
0100
,
0010
0000
0000
0000
0000
0000
0000
0000
0000
0000
0000
0000
0000
0010
0000
0000
,
0100
0000
0000
0000
;

//---------------dance-single - ----------------
#NOTES:
     dance-single:
     :
     Hard:
     12:
     0.422,0.410,0.084,0.111,0.693: // measure 1
0000
0000
0000
0000
,  // measure 2
0000
0000
0000
0000
,  // measure 3
0000
0000
0000
0000
,  // measure 4
0110
0000
0000
0000
0000
0000
0000
0000
0010
0000
0000
0000
0100
0010
0000
0100
,  // measure 5
0000
0000
0000
0001
0000
0000
0000
0000
1000
0000
0000
0000
0010
0000
0000
0000
,  // measure 6
1000
0000
0000
0010
0000
0100
0000
0010
0000
1000
0000
0100
0000
0010
0000
0100
,  // measure 7
0000
0000
0000
0000
0001
0000
0000
0000
1000
0000
0000
0000
1000
0001
0000
0000
,  // measure 8
1000
0000
0000
0000
0001
0000
0000
0000
0100
0000
0000
0000
0010
0100
0000
0010
,  // measure 9
0000
0000
0000
1000
0000
0000
0000
0000
0001
0000
0000
0000
0100
0000
0000
0000
,  // measure 10
0001
0000
0000
0100
0000
0010
0000
0100
0000
0001
0000
0010
0000
0100
0000
0010
,  // measure 11
0000
0000
0000
0000
1000
0000
0000
0000
0010
0000
0000
0000
0000
0000
1000
0010
,  // measure 12
1000
0010
0000
0100
0000
0001
0000
0100
0000
0001
0000
0010
0000
0100
0000
0010
,  // measure 13
0000
0000
0001
0000
0100
0000
0001
0100
0000
0000
0010
0000
0000
0000
0000
0000
,  // measure 14
0010
0001
0000
0010
0000
0001
0000
1000
0000
0010
0000
1000
0000
0100
0000
1000
,  // measure 15
0000
0000
0000
0000
1000
0000
0000
0000
0010
0000
0000
0000
0000
0000
0100
0010
,  // measure 16
0001
0010
0000
0001
0000
0100
0000
0001
0000
1000
0000
0010
0000
1000
0000
0010
,  // measure 17
0000
1000
0000
0010
0000
0000
1000
0000
,  // measure 18
1000
0100
0000
1000
0000
0010
0000
0100
0000
0010
0000
0001
0000
0010
0000
0001
,  // measure 19
0000
0000
1001
0000
0001
0010
0100
1000
,  // measure 20
0010
0000
0000
0000
1010
0000
0000
1000
0000
0010
0000
0100
0000
0010
0000
1000
,  // measure 21
0000
0001
0000
0100
0001
0000
0001
0100
0000
0000
0000
0000
0202
0300
0003
0000
,  // measure 22
0001
0000
0100
0000
0001
0000
0000
0100
0000
0010
0000
0100
0000
1000
0000
0100
,  // measure 23
0000
0010
0000
0100
1000
0000
1000
0010
0000
0000
0000
0000
2020
0030
3000
0000
,  // measure 24
0100
0000
0010
0000
0001
0000
0000
0001
0000
0100
0000
0010
0000
0100
0000
0001
,  // measure 25
0000
1000
0000
0010
1000
0000
1000
0010
0000
0000
0000
0000
1010
0000
1000
0000
,  // measure 26
0100
0000
1000
0100
1000
0000
1000
0010
0000
0000
0000
0100
0000
0001
0000
0010
,  // measure 27
0000
0100
0000
0010
0001
0000
0001
0100
0000
0000
0000
0100
0001
0100
0001
0000
,  // measure 28
0200
0000
0000
0000
0000
0000
0020
0000
0000
0000
0330
0000
0000
0010
0100
0010
,  // measure 29
0000
0100
0010
1000
0000
0001
0100
0001
0000
0001
0010
0100
0000
0010
0100
1000
,  // measure 30
0000
0000
1000
0000
0000
0000
1000
0000
0010
0000
0000
1000
0000
1000
0100
0010
,  // measure 31
0000
0000
1000
0000
0000
0000
0001
0000
1000
0000
0000
1000
0100
1000
0100
0000
,  // measure 32
2000
0000
0000
0000
0000
0000
0020
0000
0000
0000
3030
0000
0000
0010
1000
0010
,  // measure 33
0000
1000
0010
1000
0000
0100
1000
0100
0000
0100
1000
0010
0000
0010
1000
0001
,  // measure 34
0000
0000
0001
0000
0000
0000
0001
0000
0010
0000
0000
0001
0000
0001
1000
0010
,  // measure 35
0000
0000
0001
0000
0000
0000
0100
0000
0001
0000
0000
0001
0100
0000
0010
0000
,  // measure 36
0100
0000
0000
0010
0000
0000
0001
0000
0100
0000
0000
0010
0000
0000
1000
0000
,  // measure 37
0000
1000
0010
1000
0001
0100
0001
0100
,  // measure 38
0010
0000
0000
0001
0000
0000
0010
0000
0100
0000
0000
0010
0000
0000
0001
0000
,  // measure 39
0000
0001
0100
0010
1000
0010
0100
0001
,  // measure 40
0100
0000
0000
1000
0000
0000
0100
0000
0010
0000
0000
0100
0000
0000
1000
0000
,  // measure 41
0000
0000
1000
0000
0010
0000
0100
0001
0000
0000
0000
0100
0000
0010
1000
0010
,  // measure 42
0000
1000
0010
0000
0000
0000
0100
0000
0010
0000
0000
0100
0000
0001
0100
0010
,  // measure 43
0000
1000
0001
0000
0000
0000
0001
0000
1000
0000
0100
0000
0010
0000
0001
0000
,  // measure 44
0100
0000
0000
0000
0101
0000
0000
0001
0000
0100
0000
0010
0000
0100
0000
0001
,  // measure 45
0000
1000
0000
0010
1000
0000
1000
0010
0000
0000
0000
0000
2020
0030
3000
0000
,  // measure 46
1000
0000
0010
0000
1000
0000
0000
0010
0000
0100
0000
0010
0000
0001
0000
0010
,  // measure 47
0000
0100
0000
0010
0001
0000
0001
0100
0000
0000
0000
0000
0202
0300
0003
0000
,  // measure 48
0010
0000
0100
0000
1000
0000
0000
1000
0000
0010
0000
0100
0000
0010
0000
1000
,  // measure 49
0000
0001
0000
0100
0001
0000
0001
0100
0000
0000
0000
0000
0101
0000
0001
0000
,  // measure 50
0010
0000
0001
0010
0001
0000
0001
0100
0000
0000
0000
0010
0000
1000
0000
0100
,  // measure 51
0000
0010
0000
0100
1000
0000
1000
0010
0000
0000
0000
0010
1000
0010
1000
0000
,  // measure 52
0020
0000
0000
0000
0000
0000
0200
0000
0000
0000
0330
0000
0000
0100
0010
0100
,  // measure 53
0000
0010
0100
0001
0000
1000
0010
1000
0000
1000
0100
0010
0000
0100
0010
0001
,  // measure 54
0000
0000
0001
0000
0000
0000
0001
0000
0100
0000
0000
0001
0000
0001
0010
0100
,  // measure 55
0000
0000
0001
0000
0000
0000
1000
0000
0001
0000
0000
0001
0010
0001
0010
0000
,  // measure 56
0002
0000
0000
0000
0000
0000
0200
0000
0000
0000
0303
0000
0000
0100
0001
0100
,  // measure 57
0000
0001
0100
0001
0000
0010
0001
0010
0000
0010
0001
0100
0000
0100
0001
1000
,  // measure 58
0000
0000
1000
0000
0000
0000
1000
0000
0100
0000
0000
1000
0000
1000
0001
0100
,  // measure 59
0000
1000
0000
0010
1000
0000
0010
0000
,  // measure 60
0100
0000
0000
0000
0000
0000
0000
0000
0000
0000
0000
0000
0000
0001
0000
1000
,  // measure 61
0000
0000
0000
0110
,  // measure 62
1001
0000
0000
0000
0000
0000
0000
0000
0000
0000
0000
0000
0000
1000
0000
0000
,  // measure 63
1000
0000
0000
0000
;
