#TITLE:Holdin' On (Skrillex & Nero Remix);
#SUBTITLE:;
#ARTIST:Monsta;
#TITLETRANSLIT:;
#SUBTITLETRANSLIT:;
#ARTISTTRANSLIT:;
#CREDIT:;
#BANNER:Holdin' On (Skrillex & Nero Remix).png;
#BACKGROUND:Holdin' On (Skrillex & Nero Remix)-bg.png;
#LYRICSPATH:;
#CDTITLE:;
#MUSIC:Holdin' On (Skrillex & Nero Remix).mp3;
#OFFSET:-0.120;
#SAMPLESTART:67.000;
#SAMPLELENGTH:15.000;
#SELECTABLE:YES;
#BPMS:0.000=87.000,80.000=174.000,208.000=87.000;
#STOPS:;
#BGCHANGES:;

//---------------dance-single - ----------------
#NOTES:
     dance-single:
     :
     Easy:
     7:
     0.290,0.345,0.106,0.151,0.004:
0000
0000
0000
0000
,
0000
0000
0000
0000
,
0000
0000
0000
0000
,
0000
0000
0000
0000
,
1001
1000
0001
0001
,
1000
0010
1000
0001
,
0100
0001
1000
0010
,
0100
0010
1000
0010
,
0110
0010
0100
0010
,
1000
0001
0100
0001
,
1000
0010
1000
0001
,
0100
0001
1000
0010
,
1000
0001
0100
0001
,
1000
0010
1000
0001
,
0100
0001
1000
0001
,
1000
0001
0100
0010
,
0120
0100
0230
0010
,
0320
1000
2030
0001
,
3002
1000
2003
0010
,
3010
1000
0010
0100
0001
0100
0010
1000
,
0020
0130
0010
1000
,
0001
0100
0001
2000
,
3001
1000
0001
1000
,
0001
0100
0001
0100
,
0020
1030
0010
1000
,
0010
1000
0100
0010
,
0001
0010
0100
1000
,
1000
0000
0000
0110
0000
0000
1001
0000
,
0200
0310
0100
0001
,
1000
0010
1000
0002
,
1003
0001
1000
0001
,
1000
0010
1000
0010
,
0200
0301
0100
0001
,
0100
0001
0010
0100
,
1000
0100
0010
0001
,
0001
0000
0000
0110
0000
0000
1001
0000
,
2000
3010
1000
0100
,
0001
0010
0001
0200
,
0301
0100
0001
0100
,
0001
0010
0001
0010
,
2000
3100
1000
0100
,
1000
0100
0010
1000
,
0001
1000
0010
0100
,
0100
0000
0000
0000
0010
0000
0000
0000
1001
0000
0000
1001
0000
0000
1001
0000
,
0020
0130
1000
0100
,
0010
0001
0010
0200
,
0310
0100
0010
0100
,
0010
0001
0010
0001
,
2000
3100
1000
0100
,
1000
0100
0001
1000
,
0010
1000
0001
0100
,
0100
0000
0000
1001
0000
0000
0110
0000
,
0110
0000
0010
0000
0100
0000
1000
0010
,
0001
0000
1000
0000
0001
0000
1000
0010
,
1000
0000
0001
0000
0010
0000
0100
0010
,
0100
0000
1000
0000
0010
0000
0100
0010
,
0001
0000
0100
0000
0010
0000
0001
0100
,
1000
0000
0001
0000
1000
0000
0001
0100
,
0001
0000
1000
0000
0100
0000
0010
0100
,
0010
0000
0001
0000
0100
0000
0010
0100
,
2002
0000
0000
0000
,
3003
0000
0000
0000
;

//---------------dance-single - ----------------
#NOTES:
     dance-single:
     :
     Beginner:
     4:
     0.160,0.164,0.068,0.045,0.000:
0000
0000
0000
0000
,
0000
0000
0000
0000
,
0000
0000
0000
0000
,
0000
0000
0000
0000
,
2002
0000
0000
0000
,
3003
0000
0000
0000
,
0220
0000
0000
0000
,
0330
0000
0000
0000
,
0000
0010
0000
0010
,
0000
0100
0000
0100
,
0000
0001
0000
0001
,
0000
1000
0000
1000
,
0000
1000
0000
1000
,
0000
0010
0000
0100
,
0000
0010
0000
0100
,
0000
0001
0000
0100
,
0000
0001
0000
1000
,
0000
0010
0000
1000
,
0000
0010
0000
0100
,
0000
0001
0000
0000
,
0000
0010
0010
0010
,
0000
0100
0100
0100
,
0000
0001
0001
0001
,
0000
1000
1000
1000
,
0000
0100
0010
0100
,
0000
0001
1000
0001
,
0000
1000
0001
1000
,
0000
0110
0000
0110
,
0000
0100
0100
0100
,
0000
0010
0010
0010
,
0000
1000
1000
1000
,
0000
0001
0001
0001
,
0000
0010
0100
0010
,
0000
1000
0001
1000
,
0000
0001
1000
0001
,
0000
0110
0000
0110
,
0000
0001
1000
0001
,
0000
0100
0001
0100
,
0000
0010
1000
0010
,
0000
1000
0001
1000
,
0000
1000
1000
1000
,
0000
0010
0100
0010
,
0000
0010
0100
0010
,
0000
0100
0000
0010
,
0000
1000
1000
1000
,
0000
0001
0001
0001
,
0000
0001
1000
0001
,
0000
0100
0010
0100
,
0000
1000
0001
1000
,
0000
0001
1000
0001
,
0000
0100
0010
0100
,
0000
1001
0000
1001
,
0000
0010
0000
0100
,
0000
0001
0000
1000
,
0000
0010
0000
1000
,
0000
0001
0000
1000
,
0000
0001
0000
0100
,
0000
0001
0000
1000
,
0000
0010
0000
1000
,
0000
1000
0000
0010
,
2002
0000
0000
0000
,
0000
0000
0000
0000
,
3003
0000
0000
0000
;

//---------------dance-single - ----------------
#NOTES:
     dance-single:
     :
     Medium:
     9:
     0.348,0.414,0.151,0.090,0.008:
0000
0000
0000
0000
,
0000
0000
0000
0000
,
0000
0000
0000
0000
,
0000
0000
0000
0000
,
0001
0100
0001
1000
0010
1000
0001
0100
,
0001
1000
0010
1000
0010
1000
0010
1000
,
0001
0100
0010
0100
0001
1000
0010
0100
,
0010
0000
1000
0000
0001
0000
0100
0000
0001
0000
1000
0000
0010
0000
1000
0001
,
2000
3010
1010
0100
,
0020
1030
0001
0100
,
0002
0103
0010
1000
,
0200
0310
0010
0100
,
0020
0130
0010
1000
,
0002
0103
0001
1000
,
2000
3001
1000
0001
,
0020
0130
0100
0010
,
1001
0001
1000
0000
0010
0100
0010
0000
,
1000
0001
0100
0000
0001
0001
1000
0000
,
0100
0010
0100
0000
1000
0001
0100
0000
,
0001
1000
0010
0000
0100
0010
0100
0010
,
2000
3010
1000
0010
,
0100
0000
0001
0000
0100
0000
0001
1000
,
0010
0100
0001
1000
,
0010
0000
0100
0000
0010
0000
0100
0010
,
0100
0010
1000
0001
,
1000
0000
0010
0000
1000
0000
0001
1000
,
0001
0100
0010
1000
,
0001
0000
0001
0101
0000
1000
1010
0000
,
1001
0001
0100
0010
,
1000
0000
0001
0000
0100
0000
0001
1000
,
0001
0100
0100
0010
,
1000
0000
0010
0000
0100
0000
0100
0001
,
0100
0001
1000
0010
,
1000
0000
0001
0000
0100
0000
0010
0100
,
1000
0001
0100
0001
,
1000
0000
0010
0110
0000
1000
1001
0000
,
0002
0103
0001
0100
,
0010
0000
1000
0000
0010
0000
1000
0001
,
0100
0010
1000
0001
,
0100
0000
0010
0000
0100
0000
0010
0100
,
0010
0100
0001
1000
,
0001
0000
0100
0000
0001
0000
1000
0001
,
1000
0010
0100
0001
,
1000
0000
0000
0000
1000
0000
0001
0000
1001
0000
0000
0110
0000
0000
1001
0000
,
0000
1000
0010
0100
,
0001
0000
1000
0000
0010
0000
1000
0001
,
1000
0010
0010
0100
,
0001
0000
0100
0000
0010
0000
0010
1000
,
0010
1000
0001
0100
,
0001
0000
1000
0000
0010
0000
0100
0010
,
0001
1000
0010
1000
,
0001
0000
0100
0110
0000
0001
1001
0000
,
0010
0000
0010
0100
0010
0100
0010
1000
,
1001
0000
0001
0100
1000
0100
0001
0100
,
1001
0000
1000
0100
0001
0100
1000
0100
,
0110
0000
0010
0100
1000
0001
0010
0100
,
0110
0000
1000
0001
1000
0001
1000
0001
,
1010
0000
0001
0100
0001
1000
0010
1000
,
0101
0000
0010
0100
0010
0100
1000
0001
,
1001
0000
0001
1000
0100
1000
0001
1000
,
0220
0000
0000
0000
,
0330
0000
0000
0000
;

//---------------dance-single - ----------------
#NOTES:
     dance-single:
     :
     Hard:
     15:
     0.537,0.644,0.256,0.136,0.234: // measure 1
0000
0000
0000
0000
,  // measure 2
0000
0000
0000
0000
,  // measure 3
0000
0000
0000
0000
,  // measure 4
0000
0000
0000
0000
,  // measure 5
1001
0001
1000
0001
1000
0001
1000
0001
,  // measure 6
0101
0100
0001
0100
0001
0100
0001
0100
,  // measure 7
0110
0010
0100
0010
0100
0010
0100
0010
,  // measure 8
1010
0010
1000
0010
1000
0010
1000
0010
,  // measure 9
1001
0000
0000
0000
0001
0000
0100
0000
0010
0000
1000
0000
0010
1000
0010
0000
,  // measure 10
1010
0000
0000
0000
0100
0000
0001
0000
0100
0000
0001
0000
0100
0010
0100
0000
,  // measure 11
0110
0000
0000
0000
1000
0000
0100
0000
0010
0000
0001
0000
1000
0001
1000
0000
,  // measure 12
1010
0000
0000
0000
0010
0000
0100
0000
0010
0000
1000
0000
0001
1000
0001
0000
,  // measure 13
0101
0000
0000
0000
0001
0000
0100
0000
1000
0000
0100
0000
0001
1000
0010
0000
,  // measure 14
0110
0000
0000
0000
1000
0000
0010
0000
0100
0000
0001
0000
0100
0001
0100
0000
,  // measure 15
0101
0000
0000
0000
0010
0000
1000
0000
0010
0000
1000
0000
0010
0100
0010
0000
,  // measure 16
0110
0000
0000
0000
0001
0000
0010
0000
0100
0000
1000
0000
0001
1000
0001
0000
,  // measure 17
1001
0000
0010
0100
0010
0000
0100
0000
0010
0000
1000
0001
0100
0000
0010
0000
,  // measure 18
1000
0000
0001
1000
0010
0000
1000
0000
0010
0000
1000
0010
1000
0000
0010
0000
,  // measure 19
0100
0000
0010
0100
0010
0000
0100
0000
0010
0000
0100
0001
0100
0000
0010
0000
,  // measure 20
1000
0010
1000
0010
1000
0001
0100
0001
0100
0001
0100
0010
0100
0001
1000
0001
,  // measure 21
2000
0000
3010
0000
0010
1000
0010
1000
,  // measure 22
0010
1000
0010
0001
0100
0001
0100
0001
,  // measure 23
0200
0000
0301
0000
1000
0010
0001
0010
,  // measure 24
1000
0010
0001
0010
1000
0010
0001
0010
,  // measure 25
2000
0000
3001
0000
1000
0001
1000
0001
,  // measure 26
1000
0010
0100
0010
0100
0010
1000
0001
,  // measure 27
0200
0000
0301
0000
0001
0010
0100
1000
,  // measure 28
0001
0000
0001
1001
0000
0010
0110
0000
,  // measure 29
1001
0000
0010
0000
0010
0100
0010
0001
,  // measure 30
1000
0100
0001
1000
0010
1000
0001
0100
,  // measure 31
0002
0000
1003
0000
1000
0010
0100
0010
,  // measure 32
1000
0010
0100
0010
0100
0100
0010
1000
,  // measure 33
0002
0000
1003
0000
0001
0100
0001
1000
,  // measure 34
0010
1000
0001
0100
0001
0010
0100
1000
,  // measure 35
2000
0000
3100
0000
1000
0100
0010
0001
,  // measure 36
1000
0000
0001
0101
0000
1000
1010
0000
,  // measure 37
0002
0000
0000
0000
0103
0000
0000
0000
0100
0001
0100
0000
0100
0000
0001
0000
,  // measure 38
0100
0001
0100
1000
0010
1000
0010
1000
,  // measure 39
0020
0000
1030
0000
0001
0100
1000
0100
,  // measure 40
0001
0100
1000
0100
0001
0100
1000
0100
,  // measure 41
0002
0000
0000
0000
1003
0000
0000
0000
0001
1000
0001
0000
1000
0000
0001
0000
,  // measure 42
1000
0100
0010
0100
0010
0100
0001
1000
,  // measure 43
0020
0000
1030
0000
1000
0100
0010
0001
,  // measure 44
1000
0000
0000
0000
0010
0000
0000
0000
0110
0000
0000
0110
0000
0000
0110
0000
,  // measure 45
0000
0000
0100
0000
0100
0010
0100
1000
,  // measure 46
0001
0010
1000
0001
0100
0001
1000
0010
,  // measure 47
2000
0000
3001
0000
0001
0100
0010
0100
,  // measure 48
0001
0100
0010
0100
0010
0010
0100
0001
,  // measure 49
2000
0000
3001
0000
1000
0010
1000
0001
,  // measure 50
0100
0001
1000
0010
1000
0100
0010
0001
,  // measure 51
0002
0013
0010
0100
,  // measure 52
1000
0010
1000
0010
1000
0000
1010
0000
0001
0100
0001
0000
0101
0000
0000
0000
,  // measure 53
1001
0000
0000
0000
0001
1000
0001
1000
0010
1000
0001
0100
0001
1000
0010
0000
,  // measure 54
0110
0000
0000
0000
1000
0100
0010
0001
1000
0100
0010
0001
1000
0001
1000
0000
,  // measure 55
1001
0000
0000
0000
0001
0100
0010
0100
0001
0100
0010
0100
0001
1000
0010
0000
,  // measure 56
1010
0000
0000
0000
1000
0010
1000
0010
2000
0000
0000
0000
3001
0000
0110
0000
,  // measure 57
1001
0000
0000
0000
1000
0001
1000
0001
0100
0001
1000
0010
1000
0001
0100
0000
,  // measure 58
0110
0000
0000
0000
0001
0010
0100
1000
0001
0010
0100
1000
0001
1000
0001
0000
,  // measure 59
1001
0000
0000
0000
1000
0010
0100
0010
1000
0010
0100
0010
1000
0001
0100
0000
,  // measure 60
0101
0000
0000
0000
0001
0100
0001
0100
0002
0000
0000
0000
1003
0000
0110
0000
,  // measure 61
2002
0000
0000
0000
,  // measure 62
3003
0000
0000
0000
;
