#TITLE:Hold Up (feat. nobody likes you pat & Ashley Alisha);
#SUBTITLE:;
#ARTIST:Seo actor & Dept;
#TITLETRANSLIT:;
#SUBTITLETRANSLIT:;
#ARTISTTRANSLIT:;
#CREDIT:;
#BANNER:Hold Up (feat. nobody likes you pat & Ashley Alisha).png;
#BACKGROUND:Hold Up (feat. nobody likes you pat & Ashley Alisha)-bg.png;
#LYRICSPATH:;
#CDTITLE:;
#MUSIC:Hold Up (feat. nobody likes you pat & Ashley Alisha).mp3;
#OFFSET:-0.320;
#SAMPLESTART:4.560;
#SAMPLELENGTH:15.000;
#SELECTABLE:YES;
#BPMS:0.000=112.000,120.000=56.000,136.000=112.000;
#STOPS:;
#BGCHANGES:;

//---------------dance-single - ----------------
#NOTES:
     dance-single:
     :
     Easy:
     3:
     0.209,0.380,0.095,0.055,0.000:
0000
0000
0000
0000
,
2002
0000
0000
3003
,
0110
0100
0000
0010
,
1000
0010
0000
0100
,
0010
0100
0000
0001
,
0001
0100
0000
1000
,
0010
1000
0000
0100
,
0100
0010
0000
1000
,
1000
0010
0000
0100
,
0010
0100
0000
0001
,
1000
1001
0000
0100
,
0000
0010
0000
1000
,
0000
0010
0000
1000
,
0000
0001
0000
0100
,
0000
0001
0001
0100
,
0000
1000
0010
1000
,
0000
0010
0010
0001
,
0000
0100
0100
0010
,
0210
0000
0300
0000
,
1002
0000
0003
0000
,
2010
0000
0000
0000
3010
0000
0000
0100
,
0000
0010
0000
0100
0000
0001
0000
0000
,
1001
1000
0000
0100
,
0001
0100
0000
0010
,
0100
0010
0000
1000
,
1000
0010
0000
0001
,
0100
0001
0000
0010
,
0010
0100
0000
0001
,
0001
0100
0000
0010
,
0100
0010
0000
1000
,
0001
0001
0001
0000
0100
0100
0100
0000
,
0010
0010
0010
0000
1000
1000
1000
0000
,
1000
0001
1000
0001
0100
0010
0100
0010
,
1000
0001
1000
0001
2002
0000
3003
0000
,
0101
0001
0000
0010
,
0100
0010
0000
1000
,
0010
1000
0000
0001
,
0001
1000
0000
0100
,
0010
0100
0000
1000
,
1000
0010
0000
0100
,
0100
0010
0000
1000
,
0010
1000
0000
0001
,
0100
0001
0100
0001
,
1000
0010
1000
0010
,
1000
0010
0100
0010
,
0100
0001
0010
0001
,
1001
1000
0001
1000
,
0001
0100
0010
0100
,
0010
1000
0100
0010
,
0001
0010
0100
1000
,
1010
0000
0000
0000
0000
0100
0000
0010
,
0000
0000
0000
0010
,
0010
0000
0000
0000
0000
0000
0000
1010
,
0000
0000
0000
0100
0000
0010
0000
0000
;

//---------------dance-single - ----------------
#NOTES:
     dance-single:
     :
     Beginner:
     1:
     0.136,0.169,0.008,0.032,0.000:
0000
0000
0000
0000
,
0000
0000
0000
0000
,
0000
0100
0000
0010
,
0000
0100
0000
0010
,
0000
1000
0000
0001
,
0000
1000
0000
0010
,
0000
0100
0000
0001
,
0000
1000
0000
0010
,
0000
1000
0000
1000
,
0000
0001
0000
0100
,
0000
0001
0001
0001
,
0000
0100
0000
0010
,
0000
1000
1000
1000
,
0000
1000
0000
0010
,
0000
0010
0010
0010
,
0000
0100
0000
0001
,
0000
0001
0001
0001
,
0000
1000
0000
0001
,
0002
0000
0003
0000
,
0200
0000
0300
0000
,
0020
0000
0030
0000
,
2000
0000
3000
0000
,
0000
1000
0000
0001
,
0000
1000
0000
0001
,
0000
0010
0000
0100
,
0000
0010
0000
0001
,
0000
1000
0000
0100
,
0000
0010
0000
0001
,
0000
0010
0000
0010
,
0000
0100
0000
1000
,
0001
0000
0001
0000
,
0100
0000
0010
0000
,
0100
0010
0100
0001
,
1000
0001
1000
0001
,
0000
0010
0000
0100
,
0000
0010
0000
0100
,
0000
0001
0000
1000
,
0000
0001
0000
0100
,
0000
0010
0000
1000
,
0000
0001
0000
0100
,
0000
0001
0000
0001
,
0000
1000
0000
0010
,
0000
1000
0010
1000
,
0000
0001
0100
0001
,
0000
0010
0100
0010
,
0000
0100
0010
0100
,
0000
1000
0010
1000
,
0000
0010
0001
0010
,
0000
1000
0010
1000
,
0000
0001
0100
0001
,
0000
0010
0000
0100
,
0000
0010
0000
1000
,
0000
0001
0000
0001
,
0000
1000
0000
1001
;

//---------------dance-single - ----------------
#NOTES:
     dance-single:
     :
     Medium:
     6:
     0.271,0.528,0.063,0.079,0.063:
0000
0000
0000
0000
,
0220
0000
0000
0330
,
0010
0100
0000
0000
0010
0000
1000
0000
,
0010
1000
0000
0000
1000
0000
0001
0000
,
0001
0010
0000
0000
0001
0000
0100
0000
,
0010
1000
0010
0000
0100
0001
0100
0000
,
0010
0010
0000
0000
0100
0000
0010
0000
,
0001
0100
0000
0000
1000
0000
0010
0000
,
1000
0000
0000
0010
0000
0000
1000
0000
0000
0000
0010
0000
0000
0000
0000
0000
,
0100
0010
0100
0000
0010
0100
0010
0000
,
1001
0100
0000
0001
,
1000
0001
0000
0100
,
0000
0010
0000
0010
,
0100
0001
0000
1000
,
0000
0001
0000
0100
,
0100
0010
0000
0100
,
0000
0001
0000
1000
,
1000
0001
0000
0100
,
0220
0000
0330
0001
,
0202
0000
0303
1000
,
2020
0000
0000
0000
3030
0000
0000
0010
,
0000
0100
0000
0001
0000
1000
0000
0010
,
1000
0010
0000
0000
1000
0000
0001
0000
,
1000
0001
0000
0000
0001
0000
0100
0000
,
0100
1000
0000
0000
0100
0000
0010
0000
,
1000
0001
1000
0000
0010
0100
0010
0000
,
1000
1000
0000
0000
0010
0000
1000
0000
,
0100
0010
0000
0000
0001
0000
1000
0000
,
0001
0000
0000
1000
0000
0000
0001
0000
0000
0000
1000
0000
0000
0000
0000
0000
,
0010
1000
0010
0000
1000
0010
1000
0000
,
1000
0010
1000
0010
1000
0000
0001
0100
0001
0100
0001
0000
0001
0100
0000
0000
,
0100
0010
0100
0010
0100
0000
0010
0100
0010
0100
0010
0000
1000
1000
0000
0000
,
0001
0100
1000
0100
0001
0100
1000
0100
,
1000
0000
0010
0000
0001
0000
0010
0000
1001
0000
0000
0010
0000
0100
0000
0010
,
0100
0010
0000
0000
0100
0000
0001
0000
,
0100
0001
0000
0000
0001
0000
1000
0000
,
1000
0100
0000
0000
1000
0000
0010
0000
,
0100
0001
0100
0000
0010
1000
0010
0000
,
0100
0100
0000
0000
0010
0000
0100
0000
,
1000
0010
0000
0000
0001
0000
0100
0000
,
0001
0000
0000
0100
0000
0000
0001
0000
0000
0000
0100
0000
0000
0000
0000
0000
,
0010
0100
0010
0000
0100
0010
0100
0000
,
1001
0000
0000
0000
0100
0001
0100
0001
,
0000
0100
0000
0010
0000
1000
0000
2000
,
0000
3000
1000
0000
0010
0000
1000
0000
,
0010
0100
0001
1000
,
1001
0000
0000
0000
0010
1000
0010
1000
,
0000
0010
0000
0100
0000
0001
0000
0002
,
0000
0003
0001
0000
0100
0000
0001
0000
,
0100
0010
1000
0001
,
0001
0001
0000
0000
0000
0100
0000
0010
,
0000
0100
0000
0000
0000
0000
1000
0000
,
1000
0000
0000
0000
0000
0010
0000
0100
,
0000
0000
0000
0100
0000
0010
0000
0000
;

//---------------dance-single - ----------------
#NOTES:
     dance-single:
     :
     Hard:
     13:
     0.402,0.528,0.110,0.173,0.374: // measure 1
0000
0000
0000
0000
,  // measure 2
0202
0000
0000
0303
,  // measure 3
0001
0000
0100
0000
0000
0000
0000
0000
0001
0100
0000
0001
0000
0000
0100
0000
,  // measure 4
0010
0000
0100
0000
0000
0000
0000
0000
1000
0010
0000
0100
0000
0000
0010
0000
,  // measure 5
1000
0000
0001
0000
0000
0000
0000
0000
0100
0010
0000
0100
0000
0000
1000
0001
,  // measure 6
0000
0010
0000
0100
0000
0000
0010
0100
0000
0001
0000
0010
0000
0000
1000
0000
,  // measure 7
0100
0000
0010
0000
0000
0000
0000
0000
0100
0010
0000
1000
0000
0000
0010
0000
,  // measure 8
1000
0000
0001
0000
0000
0000
0000
0000
0010
0100
0000
0001
0000
0000
0100
0000
,  // measure 9
0010
0000
0000
0010
0000
0000
1000
0000
0000
0000
0001
0000
0000
0000
0000
0100
,  // measure 10
0000
0010
0000
0100
0000
0000
0000
0010
0000
1000
0000
0010
0000
1000
0010
0000
,  // measure 11
1010
0000
0001
0000
0100
0001
0100
0010
,  // measure 12
0000
0100
0010
1000
0010
1000
0100
1000
,  // measure 13
0000
1000
0100
0010
0001
0100
0010
1000
,  // measure 14
0000
1001
0000
0001
0100
1000
0100
0001
,  // measure 15
0000
0100
0010
1000
0010
0100
0000
0110
,  // measure 16
0000
1000
0010
0001
0010
1000
0000
0101
,  // measure 17
0000
0010
0001
0100
1000
0100
0000
0000
,  // measure 18
0100
0010
0100
0000
0010
0100
0010
0000
,  // measure 19
1000
0001
0010
0100
0010
0000
0100
0010
,  // measure 20
0001
0010
0100
0000
0100
0001
0000
0000
,  // measure 21
0001
1000
0100
0010
0100
0000
0000
0010
,  // measure 22
0000
1010
0000
1000
0000
1001
0000
0001
,  // measure 23
1000
0000
0010
0000
0000
0000
0000
0000
1000
0010
0000
1000
0000
0000
0010
0000
,  // measure 24
0100
0000
0010
0000
0000
0000
0000
0000
0001
0100
0000
0010
0000
0000
0100
0000
,  // measure 25
0001
0000
1000
0000
0000
0000
0000
0000
0010
0100
0000
0010
0000
0000
0001
1000
,  // measure 26
0000
0100
0000
0010
0000
0000
0100
0010
0000
1000
0000
0100
0000
0000
0001
0000
,  // measure 27
0010
0000
0100
0000
0000
0000
0000
0000
0010
0100
0000
0001
0000
0000
0100
0000
,  // measure 28
0001
0000
1000
0000
0000
0000
0000
0000
0100
0010
0000
1000
0000
0000
0010
0000
,  // measure 29
0100
0000
0000
0100
0000
0000
0001
0000
0000
0000
1000
0000
0000
0000
0000
0010
,  // measure 30
0000
0100
0000
0010
0000
0000
0000
0100
0000
0001
0000
0100
0000
0001
0100
0000
,  // measure 31
0001
0100
1000
0100
0001
0000
1000
0100
0001
0100
1000
0000
0010
0100
0000
0000
,  // measure 32
0010
1000
0001
0100
0010
0000
0010
0100
0001
1000
0010
0000
0100
0010
0000
0000
,  // measure 33
1000
0010
1000
0010
0100
0000
0001
0100
0001
0100
0010
0000
1000
0001
0000
0000
,  // measure 34
0001
1000
0010
1000
0001
0100
0010
0100
0000
0010
0000
1000
0000
0010
0000
0100
,  // measure 35
0010
0000
1000
0000
0000
0000
0000
0000
0010
1000
0000
0010
0000
0000
1000
0000
,  // measure 36
0001
0000
1000
0000
0000
0000
0000
0000
0100
0001
0000
1000
0000
0000
0001
0000
,  // measure 37
0100
0000
0010
0000
0000
0000
0000
0000
1000
0001
0000
1000
0000
0000
0100
0010
,  // measure 38
0000
0001
0000
1000
0000
0000
0001
1000
0000
0010
0000
0001
0000
0000
0100
0000
,  // measure 39
1000
0000
0001
0000
0000
0000
0000
0000
1000
0001
0000
0100
0000
0000
0001
0000
,  // measure 40
0100
0000
0010
0000
0000
0000
0000
0000
0001
1000
0000
0010
0000
0000
1000
0000
,  // measure 41
0001
0000
0000
0001
0000
0000
0100
0000
0000
0000
0010
0000
0000
0000
0000
1000
,  // measure 42
0000
0001
0000
1000
0000
0000
0000
0001
0000
0100
0000
0001
0000
0100
0001
0000
,  // measure 43
0100
0002
0203
0302
2003
3020
0230
0320
,  // measure 44
0000
0230
0000
0310
0000
0110
0000
2002
,  // measure 45
0000
3003
1000
0000
0010
0000
0100
0000
,  // measure 46
0001
1000
0010
1000
,  // measure 47
1010
2000
3020
2030
3002
0203
0320
0230
,  // measure 48
0000
0320
0000
0130
0000
0110
0000
2002
,  // measure 49
0000
3003
0001
0000
0100
0000
0001
0000
,  // measure 50
0100
0010
1000
0010
,  // measure 51
1000
0100
0000
0000
0000
0010
0000
0100
,  // measure 52
0000
0001
0000
0000
0000
0000
0110
0000
,  // measure 53
1000
0001
0000
0000
0000
0010
0000
0100
,  // measure 54
0000
1000
0000
0010
0000
1001
0000
0000
;
