#TITLE:Hi High;
#SUBTITLE:;
#ARTIST:LOONA;
#TITLETRANSLIT:;
#SUBTITLETRANSLIT:;
#ARTISTTRANSLIT:;
#CREDIT:;
#BANNER:Hi High.png;
#BACKGROUND:Hi High-bg.png;
#LYRICSPATH:;
#CDTITLE:;
#MUSIC:Hi High.mp3;
#OFFSET:-0.020;
#SAMPLESTART:59.060;
#SAMPLELENGTH:15.000;
#SELECTABLE:YES;
#BPMS:0.000=97.000,96.000=194.000,164.000=97.000,196.000=194.000;
#STOPS:;
#BGCHANGES:-0.220=Hi High.avi=1.000=0=0=0,
99999=-nosongbg-=1.000=0=0=0 // don't automatically add -songbackground-
;

//---------------dance-single - ----------------
#NOTES:
     dance-single:
     :
     Easy:
     4:
     0.269,0.358,0.088,0.270,0.000:
0010
0000
0100
0000
,
0001
0000
0100
0000
,
0020
0000
0030
0000
,
2000
0000
3002
0000
,
0003
1000
0000
0010
0000
1000
0000
0001
,
0000
0100
0000
0010
0000
1000
0000
0001
,
0000
0100
0000
0001
0000
1000
0000
0010
,
2000
0000
3000
0000
,
1000
0100
0010
0000
,
0010
0100
0001
0000
,
0202
0303
2020
3030
,
1000
0010
0001
0010
,
1000
0001
0100
0001
,
0010
0001
0100
0010
,
2020
3030
0202
0303
,
0010
0010
0200
0300
,
0010
0010
0010
0000
0100
0000
0010
0000
,
1000
1000
1000
0000
0001
0000
0100
0000
,
0001
0100
0010
1000
,
0010
1000
0100
0010
,
0001
0001
0001
0000
0100
0000
0001
0000
,
1000
1000
1000
0000
0010
0000
1000
0000
,
0010
0000
1000
0000
,
1000
0100
0010
0100
,
1000
0000
1000
0000
,
0010
0000
1000
0000
,
0001
0100
0001
0100
,
0001
0000
0100
0000
,
0010
0000
0010
0000
,
0100
0000
0100
0000
,
0001
0010
0100
1000
,
0010
0000
1000
0000
,
0001
0000
0001
0000
,
1000
0000
1000
0000
,
0010
0100
0010
0100
,
0010
0000
1000
0000
,
0100
0000
0110
0000
,
0010
0000
1001
0000
,
0010
0000
0000
0000
1000
0000
0000
0001
,
0000
0000
0000
0000
0100
0000
0000
0020
,
0000
0000
0000
0030
,
0010
0100
0001
0010
,
0001
0100
0010
1000
,
0010
0001
0010
0100
,
1000
0010
0100
0010
,
0000
0001
0100
0001
,
0000
0100
0010
0100
,
0000
1000
0100
0010
,
2002
0000
3003
0000
,
1000
0010
1000
0010
,
0100
0001
0100
0000
,
0001
0100
0001
0100
,
0010
1000
0010
0000
,
0001
0010
0100
1000
,
0010
0100
0010
0000
,
1000
0001
0100
0001
,
1000
0001
1000
0000
,
0202
0303
2020
3030
,
0202
0303
2020
3030
,
1000
0010
0100
0010
,
1000
0000
0000
0010
,
0100
0010
0000
0100
,
0010
0100
0000
0000
,
0001
0000
0000
0000
0100
0000
0000
0001
,
0000
0000
0000
0000
1000
0000
0000
0010
,
0000
0000
0020
0030
,
0020
0030
0002
0003
,
0002
0003
2000
3000
,
2000
3000
0200
0300
,
0100
0000
0020
0030
,
0020
0030
0200
0300
,
0200
0300
0010
0000
,
0100
0000
0000
0100
0000
0000
0000
0000
,
0001
0000
0000
2002
0000
0000
0000
0000
,
0000
0000
0000
0000
,
0000
0000
3003
0000
;

//---------------dance-single - ----------------
#NOTES:
     dance-single:
     :
     Beginner:
     2:
     0.179,0.248,0.036,0.175,0.000:
0010
0000
0000
0000
,
1000
0000
0000
0000
,
0001
0000
0000
0000
,
0100
0000
0000
0000
,
0010
0000
0000
0000
,
1000
0000
0000
0000
,
0001
0000
0000
0000
,
0220
0000
0330
0000
,
0001
0000
0100
0000
,
0010
0000
1000
0000
,
0010
0000
0100
0000
,
0010
0000
1000
0000
,
0001
0001
0001
0000
,
1000
1000
1000
0000
,
0010
0010
0010
0000
,
0100
0100
0100
0000
,
2000
0000
3000
0000
,
0020
0000
0030
0000
,
1000
0000
0010
0000
,
0100
0000
0001
0000
,
0200
0000
0300
0000
,
0002
0000
0003
0000
,
0001
0000
1000
0000
,
1000
1000
2000
3000
,
1000
0000
1000
0000
,
0001
0000
0001
0000
,
0001
0000
0010
0000
,
0100
0000
1000
0000
,
0001
0000
0001
0000
,
1000
0000
1000
0000
,
0010
0000
1000
0000
,
0001
0000
0100
0000
,
0020
0000
0030
0000
,
1000
0000
0010
0000
,
0100
0000
0001
0000
,
0100
0000
0001
0001
,
0001
0000
1000
1000
,
1000
0000
0001
0000
,
0001
0000
1000
0000
,
1000
0000
0010
0000
,
0020
0000
0030
0000
,
1000
0000
0010
0000
,
1000
0000
0001
0000
,
0100
0000
0001
0000
,
0010
0000
0100
0000
,
1000
0000
0001
0000
,
0100
0000
0001
0000
,
1000
1000
0001
0001
,
2002
0000
3003
0000
,
0010
0000
1000
0000
,
0001
0000
0010
0000
,
0001
0000
0100
0000
,
0010
0000
1000
0000
,
0100
0000
1000
0000
,
0010
0000
0100
0000
,
0001
0000
1000
0000
,
0010
0010
0010
0000
,
0100
0000
0100
0000
,
0010
0000
0010
0000
,
1000
0000
0001
0000
,
0100
0000
0001
0000
,
1000
0000
1001
0000
,
0010
0000
0110
0000
,
0010
0000
1000
0000
,
0001
0000
0100
0000
,
0001
0000
0020
0030
,
0020
0030
0020
0030
,
0020
0030
0020
0030
,
0020
0030
0020
0030
,
0010
0000
0020
0030
,
0020
0030
0020
0030
,
0020
0030
0010
0000
,
0010
0000
1000
0000
,
1000
0000
2002
0000
,
0000
0000
0000
0000
,
0000
0000
3003
0000
;

//---------------dance-single - ----------------
#NOTES:
     dance-single:
     :
     Medium:
     7:
     0.363,0.606,0.088,0.328,0.088:
1000
0000
0000
0010
0000
0000
1000
0000
0000
0000
0000
0000
0000
0000
0000
0000
,
0100
0000
0000
0100
0000
0000
0010
0000
0000
0000
0000
0000
0000
0000
0001
0000
,
1000
0000
0000
0000
,
0002
0000
0203
0000
,
0301
0000
0000
0100
0000
0000
0010
0000
0000
0000
0000
0000
0000
0000
0000
0000
,
0100
0000
0000
0010
0000
0000
0010
0000
0000
0000
0000
0000
0000
0000
1000
0000
,
0001
0000
0100
0010
,
0020
0000
0030
0000
,
0100
0010
0000
0010
0000
0000
0100
0000
0010
0000
1000
0000
0000
0000
0010
0000
,
0001
1000
0000
1000
0000
0000
0100
0000
0001
0000
1000
0000
0000
0000
0010
0000
,
0100
0001
0000
1000
0000
0000
0001
0000
0010
0000
0100
0000
0000
0000
1000
0000
,
0100
1000
0000
0100
0000
1000
0000
0010
0000
0000
0100
0000
0001
0000
0100
0000
,
0010
0100
0000
0100
0000
0000
0010
0000
0100
0000
0001
0000
0000
0000
0100
0000
,
1000
0001
0000
0001
0000
0000
0010
0000
1000
0000
0001
0000
0000
0000
0100
0000
,
0010
1000
0000
0001
0000
0000
1000
0000
0100
0000
0010
0000
0000
0000
0001
0000
,
0010
0001
0000
0010
0000
0001
0000
0100
0000
0000
0010
0000
1000
0000
0010
0000
,
2000
3200
2300
3200
0300
0010
0100
0010
,
0002
0023
0032
0023
0030
0001
0100
1000
,
0000
0010
0000
0100
0000
0001
0000
1000
,
0000
0010
0000
0100
0000
0100
0000
0010
,
2000
3200
0320
0032
0003
0100
0001
1000
,
0002
0023
0230
2300
3000
0010
1000
0001
,
0000
0100
0100
0010
0000
0010
0100
0010
,
0000
1000
0001
1000
2002
0000
3003
0000
,
0010
1000
1010
0000
,
0100
0001
0101
0000
,
0001
0100
1000
0100
,
0001
1000
1000
0001
,
0100
0010
0110
0000
,
1000
0001
0110
0000
,
0010
1000
0010
0001
,
0010
0100
0010
0001
,
2000
3000
2000
3000
,
0020
0030
0020
0030
,
0100
0010
0001
1000
,
0100
0001
0100
0001
,
0100
0010
0110
0010
,
0100
0001
1001
0000
,
0100
0000
0000
0000
0010
0000
0000
1000
,
0000
0000
0000
0000
1000
0000
0000
0002
,
0000
0000
0000
0003
,
0100
0000
0010
0100
0001
0000
0001
0010
,
0100
0000
0100
0010
1000
0000
1000
0100
,
0010
0000
1000
0001
1000
0000
0001
1000
,
0001
0000
0100
0010
0100
0000
0010
0100
,
0010
0000
0100
0010
0010
0000
0100
0010
,
0001
0000
1000
0100
0010
0000
0100
0010
,
0001
1000
0001
1000
,
0002
0000
1003
0110
,
1000
0100
0010
0001
,
0001
0010
0100
0000
,
0001
0010
0100
1000
,
1000
0100
0010
0000
,
0100
0001
1000
0001
,
0100
0010
1000
0001
,
0100
0001
0100
0010
,
0001
0001
1001
0000
,
0002
0003
0002
0003
,
0200
0300
0200
0300
,
0010
0100
1000
0001
,
0010
1000
0010
1000
,
0010
0100
0110
0100
,
0010
1000
1001
0000
,
0010
0000
0000
0000
0100
0000
0000
0001
,
0000
0000
0000
0000
0001
0000
0000
2000
,
0000
0000
3020
0030
,
0200
0300
0002
0003
,
2000
3000
0002
0003
,
2000
0000
3000
1000
0000
0000
0000
0000
,
0010
0100
0002
0003
,
0020
0030
0200
0300
,
2000
3000
0020
0030
,
0010
0000
0000
0100
0000
0000
0000
0000
,
0001
0000
0000
2002
0000
0000
0000
0000
,
0000
0000
0000
0000
,
0000
0000
3003
0000
;

//---------------dance-single - ----------------
#NOTES:
     dance-single:
     :
     Hard:
     15:
     0.556,1.000,0.066,0.416,0.270: // measure 1
0010
0000
0000
0100
0000
0000
0010
0000
0000
0000
0000
0000
0000
0000
0000
0000
,  // measure 2
0001
0000
0000
0010
0000
0000
0100
0000
0000
0000
0000
0000
0000
0000
1000
0000
,  // measure 3
2000
0000
0000
3000
,  // measure 4
2000
0000
0000
0000
0000
0000
3010
0100
0002
0000
0000
0000
0100
0000
0103
0000
,  // measure 5
0001
0000
0000
0010
0000
0000
0100
0000
0000
0000
0010
0000
0000
0000
0010
0000
,  // measure 6
1000
0000
0000
0001
0000
0000
0100
0000
0000
0000
0010
0000
0000
0000
0100
0000
,  // measure 7
0020
0100
0000
1000
0000
1000
0030
0010
,  // measure 8
2020
0000
0000
0000
0000
0000
0000
0000
3030
0000
0000
0000
1000
0100
0010
0100
,  // measure 9
1000
0000
0010
0000
0100
0000
0001
0010
0000
0000
0001
0000
0100
0010
0001
0010
,  // measure 10
0100
0000
0010
0000
0001
0000
1000
0010
0000
0000
0100
0000
0010
1000
0001
1000
,  // measure 11
0010
0000
0100
0000
0010
0000
0100
0010
0100
0000
0001
0000
0100
1000
0010
1000
,  // measure 12
0100
0000
0010
0000
1000
0000
0010
1000
0000
0000
0010
0000
0100
0010
0001
0100
,  // measure 13
0001
0000
0100
0000
0010
0000
1000
0100
0000
0000
1000
0000
0010
0100
1000
0100
,  // measure 14
0010
0000
0100
0000
1000
0000
0001
0100
0000
0000
0010
0000
0100
0001
1000
0001
,  // measure 15
0100
0000
0010
0000
0100
0000
0010
0100
0010
0000
1000
0000
0010
0000
0100
0000
,  // measure 16
0010
0000
0100
0001
0000
0001
1000
0000
0001
0000
0100
0000
0010
0000
1000
0000
,  // measure 17
2000
3200
0320
0032
0203
0320
2030
3002
0003
0000
0010
0001
0100
0001
0010
0000
,  // measure 18
0002
0023
0032
0203
0320
0230
0320
2030
3000
0000
1000
0100
0010
0001
0100
0000
,  // measure 19
0010
0000
0001
0010
0000
0100
0000
0001
0000
0000
1000
0000
0010
0000
0100
0000
,  // measure 20
0010
0000
1000
0010
0000
0010
0000
0001
0000
0000
0001
0000
0100
0000
0010
0000
,  // measure 21
0002
0023
0230
2300
3020
0230
0302
2003
3000
0000
0100
1000
0010
1000
0100
0000
,  // measure 22
2000
3200
2300
3020
0230
0320
0230
0302
0003
0000
0001
0010
0100
1000
0010
0000
,  // measure 23
0100
0000
1000
0100
0000
0000
0010
0000
1000
0000
0001
0100
0000
0000
0010
0100
,  // measure 24
0010
0000
0001
0100
0000
0100
0000
1000
0000
0000
2000
0000
0000
0000
0001
0000
,  // measure 25
3001
0010
0100
1000
0010
0100
0010
1000
,  // measure 26
0010
0100
0001
1000
0001
0100
0001
0100
,  // measure 27
0010
0100
0001
0010
0100
1000
0100
0010
,  // measure 28
0000
1000
0010
0000
0100
0000
0001
0010
,  // measure 29
0100
0000
1000
0100
0010
0000
0100
0010
,  // measure 30
0100
0000
0010
0100
0001
0000
1000
0010
,  // measure 31
1000
0010
0100
0001
0100
0001
0010
0100
,  // measure 32
1000
0000
0010
0000
1001
0000
0100
0010
,  // measure 33
0200
0000
0301
0000
,  // measure 34
1000
0000
1001
0000
,  // measure 35
0100
0010
0100
0010
1000
0100
0010
0100
,  // measure 36
0000
0000
0100
0000
1000
0000
0010
0100
,  // measure 37
0001
0000
0010
0000
0110
0000
0100
0010
,  // measure 38
1000
0100
1001
0010
,  // measure 39
0010
0001
0010
0001
1000
0000
0000
0010
,  // measure 40
1000
0010
0100
0010
1000
0000
0001
2000
,  // measure 41
0000
0000
0000
0000
0000
0000
0000
3000
,  // measure 42
0000
0000
0100
0010
1000
0001
0100
0001
,  // measure 43
0000
0000
0010
0100
1000
0010
0100
0010
,  // measure 44
0000
0000
0100
0100
0100
0000
0010
0010
,  // measure 45
0020
0000
0000
1000
2030
0000
0001
3001
,  // measure 46
0001
0000
0000
0000
0100
0000
0010
0100
0010
0000
0001
0000
1000
0000
0000
0000
,  // measure 47
0000
0000
0000
0000
0001
0000
1000
0001
0100
0000
0010
0000
1000
0000
0000
0000
,  // measure 48
0001
1000
0001
1000
0010
0100
0010
0100
0001
0010
0100
1000
0100
0010
0001
0100
,  // measure 49
0020
0000
0100
0100
0130
0000
0010
0000
,  // measure 50
0110
0000
0100
0010
0100
0010
0100
0000
,  // measure 51
1000
0100
0010
0001
1000
0000
0010
0000
,  // measure 52
1000
0000
0001
1000
0010
1000
0001
0000
,  // measure 53
0100
0010
0001
1000
0001
0000
0100
0000
,  // measure 54
0010
0000
0010
0100
0010
0100
0010
0000
,  // measure 55
0001
0010
0100
1000
0001
0000
0100
0000
,  // measure 56
0001
0000
1000
0001
0100
0001
1000
0000
,  // measure 57
0010
0000
1000
0000
1000
0000
0010
0100
,  // measure 58
0020
0000
1030
0000
,  // measure 59
0001
0000
1001
0000
,  // measure 60
0010
0100
0010
0100
0001
0010
0100
0010
,  // measure 61
0000
0000
0010
0000
0001
0000
0100
0010
,  // measure 62
1000
0000
0100
0000
0110
0000
0010
0100
,  // measure 63
0001
0010
1001
0100
,  // measure 64
0100
1000
0100
1000
0001
0000
0000
0100
,  // measure 65
0001
0100
0010
0100
0001
0000
1000
0002
,  // measure 66
0000
0000
0000
1000
2000
0000
3000
1003
,  // measure 67
2000
0000
3000
0010
0020
0000
0030
0100
,  // measure 68
0200
0000
0300
0010
0020
0000
0030
0010
,  // measure 69
0020
0000
0030
0010
0000
0000
0100
0000
,  // measure 70
0001
0000
1000
0001
2000
0000
3000
0001
,  // measure 71
0002
0000
0003
0010
0020
0000
0030
0100
,  // measure 72
0200
0000
0300
0000
1000
0010
0100
0010
,  // measure 73
0001
0000
0000
0001
0100
0010
1000
0010
,  // measure 74
0100
0000
0100
0020
0000
0000
0000
0000
,  // measure 75
0000
0000
0000
0000
,  // measure 76
0000
0000
0030
0000
;
