#TITLE:Heartbreak Anthem;
#SUBTITLE:;
#ARTIST:Galantis, David Guetta & Little Mix;
#TITLETRANSLIT:;
#SUBTITLETRANSLIT:;
#ARTISTTRANSLIT:;
#CREDIT:;
#BANNER:Heartbreak Anthem.png;
#BACKGROUND:Heartbreak Anthem-bg.png;
#LYRICSPATH:;
#CDTITLE:;
#MUSIC:Heartbreak Anthem.mp3;
#OFFSET:-0.280;
#SAMPLESTART:69.880;
#SAMPLELENGTH:15.000;
#SELECTABLE:YES;
#BPMS:0.000=124.000;
#STOPS:;
#BGCHANGES:;

//---------------dance-single - ----------------
#NOTES:
     dance-single:
     :
     Easy:
     3:
     0.199,0.244,0.075,0.094,0.005:
0000
0000
0000
0000
,
0000
0000
0000
0000
,
0000
0000
0000
0000
,
0000
0000
0000
0000
,
1010
0000
0000
0000
0000
0000
0000
0010
,
0000
0000
0000
0000
,
0101
0000
0000
0000
0000
0000
0000
1000
,
0000
0000
0000
0000
,
1001
0000
0000
0000
0000
0000
0000
0010
,
0000
0000
0000
0000
,
0110
0000
0000
0000
0000
0000
0000
0020
,
0000
0000
0000
0000
,
0130
0010
1000
0000
,
0001
0100
0001
0000
,
1000
0010
1000
0000
,
0100
0001
0010
0000
,
1001
0001
1000
0000
,
0001
0100
1000
0000
,
1000
0100
0010
0000
,
0100
0010
0001
0000
,
1002
0000
0100
0000
,
2003
0000
0100
0000
,
3020
0000
1000
0000
,
0230
0000
0010
0000
,
0302
0000
0100
0000
,
2003
0000
0100
0000
,
3002
0000
0100
0000
,
0203
0000
0001
0000
,
0310
0100
0010
1000
,
0010
0100
0010
0001
,
0001
0010
0100
1000
,
0001
1000
0001
0100
,
0010
0100
0010
1000
,
0001
0100
0010
0001
,
0100
1000
0001
1000
,
0020
0000
0130
0010
,
1010
0010
1000
0000
,
0001
0100
0010
0000
,
1000
0001
1000
0000
,
0001
0100
1000
0000
,
0010
0100
0010
0000
,
0100
0001
0010
0000
,
1000
0001
1000
0000
,
0000
0100
0010
0100
0010
0000
0100
0000
,
0110
0010
1000
0000
,
0100
0001
0010
0000
,
0010
1000
0001
0000
,
1000
0001
1000
0000
,
0001
0100
1000
0000
,
1000
0010
0001
0000
,
0001
0010
0001
0000
,
1000
0000
0000
0000
0000
0000
0000
0000
0010
0000
0000
0100
0000
0000
0010
0000
;

//---------------dance-single - ----------------
#NOTES:
     dance-single:
     :
     Beginner:
     1:
     0.134,0.220,0.047,0.009,0.000:
0000
0000
0000
0000
,
0000
0000
0000
0000
,
0000
0000
0000
0000
,
0000
0000
0000
0000
,
0100
0000
0000
0000
,
0010
0000
0000
0000
,
1000
0000
0000
0000
,
0010
0000
0000
0000
,
0100
0000
0000
0000
,
0001
0000
0000
0000
,
0010
0000
0000
0000
,
2000
0000
0000
0000
,
3000
0000
0000
0000
,
0010
0000
0000
0000
,
0101
0000
0000
0000
,
0010
0000
0000
0000
,
0110
0000
0000
0000
,
0001
0000
0000
0000
,
1001
0000
0000
0000
,
0100
0000
0000
0000
,
0010
0000
0100
0000
,
0010
0000
1000
0000
,
0001
0000
0100
0000
,
0010
0000
1000
0000
,
1000
0000
0001
0000
,
0100
0000
0001
0000
,
0010
0000
1000
0000
,
0100
0000
0100
0000
,
0001
0001
0001
0000
,
1000
1000
1000
0000
,
0010
0010
0010
0000
,
0100
0100
0100
0000
,
0010
0000
0100
0000
,
0001
0000
1000
0000
,
0001
0000
0100
0000
,
1001
0000
0010
0000
,
0010
0100
0010
0000
,
1000
0001
1000
0000
,
0001
0100
0001
0000
,
0010
0100
0010
0000
,
1000
0100
1000
0000
,
0001
0100
0001
0000
,
0010
1000
0010
0000
,
1000
0001
1000
0001
,
1001
0000
0010
0000
,
0100
0000
0001
0000
,
1000
0000
0010
0000
,
0100
0000
0001
0000
,
1000
0000
0010
0000
,
1000
0000
0001
0000
,
0100
0000
0001
0000
,
1000
0000
0010
0010
,
0010
0000
0000
0000
;

//---------------dance-single - ----------------
#NOTES:
     dance-single:
     :
     Medium:
     7:
     0.317,0.439,0.150,0.113,0.009:
0000
0000
0000
0000
,
0000
0000
0000
0000
,
0000
0000
0000
0000
,
0000
0000
0000
0000
,
0001
0000
0000
0001
0100
0000
0000
0001
,
0000
0100
0010
0100
,
0010
0000
0000
1000
0010
0000
0000
1000
,
0000
0001
1000
1000
,
0010
0000
0000
1000
0010
0000
0000
1000
,
0000
0000
0000
0000
,
0001
0000
0000
0000
0000
0000
0000
2000
,
0000
0000
0000
0000
0000
0000
0000
3000
,
1000
0000
0010
1000
,
1000
0001
0000
0100
0001
0000
0010
0000
,
0100
1000
0010
0100
,
1000
0010
0000
1000
0001
0000
0100
0000
,
0001
0100
0010
1000
,
0010
0010
0000
0100
0010
0000
1000
0000
,
1001
0000
0000
0010
0100
0000
0000
0100
,
0000
2000
3002
2003
3002
2003
3010
0000
,
1001
0000
0010
1000
0010
0000
0100
0000
,
0001
0000
0001
0100
0010
0000
0100
0000
,
0010
0000
1000
0100
0010
0000
0100
0000
,
0001
0000
1000
0001
1000
0000
0010
0000
,
0110
0000
0100
0001
0100
0000
0010
0000
,
1000
0000
1000
0010
0100
0000
0010
0000
,
0100
0000
0001
0010
0100
0000
0010
0000
,
1000
0000
0001
1000
0001
0000
0100
0000
,
0110
0010
0010
0010
,
1010
1000
1000
1000
,
1001
0001
0001
0001
,
0101
0100
0100
0100
,
0110
0010
0010
0010
,
0110
0100
0100
0100
,
0101
0001
0001
0001
,
2001
0000
0000
0000
0000
0000
0001
0000
3001
0000
0000
0100
0000
0000
0010
0000
,
0110
0010
1000
0001
,
0100
0010
0200
0310
,
0010
1000
0001
0100
,
0001
0000
1000
0010
1000
0000
1010
0000
,
0110
0100
0001
1000
,
0010
0100
0020
0130
,
0100
0001
1000
0010
,
1000
0100
0010
0001
0100
0000
0101
0000
,
0001
0010
0100
1000
0010
0000
0001
0010
,
0100
1000
0010
0000
2000
0000
3001
0000
,
1000
0100
0010
0001
1000
0000
1000
0100
,
0010
0001
1000
0000
0002
0000
0103
0000
,
0010
0000
0010
0100
0010
0000
1000
0000
,
0010
0000
1000
0010
0100
0000
0001
0000
,
0100
0000
0001
0010
0100
0000
1000
0000
,
0002
0000
0000
0000
0000
0000
1003
0000
0010
0000
0000
0100
0000
0000
0110
0000
;

//---------------dance-single - ----------------
#NOTES:
     dance-single:
     :
     Hard:
     12:
     0.422,0.465,0.160,0.169,0.103: // measure 1
0000
0000
0000
0000
,  // measure 2
0000
0000
0000
0000
,  // measure 3
0000
0000
0000
0000
,  // measure 4
0000
0000
0000
0000
,  // measure 5
0010
0000
0000
0100
0000
0000
0010
0000
1000
0000
0000
0010
0000
0000
1000
0000
,  // measure 6
0000
0000
0000
1000
0010
1000
0010
0100
,  // measure 7
0001
0001
0100
0001
0010
0100
1000
0001
,  // measure 8
0000
0000
0000
0001
0100
0010
0100
0001
,  // measure 9
1000
0001
1000
0010
0100
0010
1000
0001
,  // measure 10
0000
0000
0000
0000
0000
1000
1000
1000
,  // measure 11
0000
0000
0000
0000
0000
0001
0001
0001
,  // measure 12
0000
0000
0000
0000
0000
0000
0000
0000
0000
0000
0000
0000
0000
0000
0010
0100
,  // measure 13
0010
0000
0000
0100
0000
0000
0010
0000
0100
0000
0000
0000
0010
0000
0000
0000
,  // measure 14
0100
0000
0000
0001
0000
0000
0010
0000
0100
0000
0000
0000
0000
0000
0000
0000
,  // measure 15
1000
0000
0000
0010
0000
0000
1000
0000
0010
0000
0000
0000
1000
0000
0100
0000
,  // measure 16
0010
0000
0000
0100
0000
0000
0001
0000
0001
0000
0000
0000
0000
0000
1000
0001
,  // measure 17
1000
0000
0000
0010
0000
0000
1000
0000
0001
0000
0000
0000
0100
0000
0000
0000
,  // measure 18
0010
0000
0100
0010
0000
0000
1000
0000
0010
0000
0000
0000
1000
0000
0000
0000
,  // measure 19
0001
0000
0000
0000
0000
0000
0100
0000
0010
0000
0000
1000
0000
0000
0010
0000
,  // measure 20
0200
0320
2030
3002
2003
3002
0103
0000
,  // measure 21
0001
0100
0001
0100
0010
0100
0001
1000
,  // measure 22
0001
1000
0010
1000
0100
1000
0010
1000
,  // measure 23
0100
1000
0100
0010
0001
0100
0010
0100
,  // measure 24
0001
0000
1000
0000
0010
0000
1000
0001
0000
0000
0000
0000
0000
0000
1000
0010
,  // measure 25
1000
0010
1000
0010
0100
0010
1000
0001
,  // measure 26
1000
0001
0100
0001
0010
0001
0100
0001
,  // measure 27
0010
0001
0010
0100
1000
0010
0100
0010
,  // measure 28
1000
0000
0001
0000
0100
0000
0001
1000
0000
0000
0000
0000
0000
0000
0000
0000
,  // measure 29
2010
0010
0010
0010
,  // measure 30
3020
0100
0100
0100
,  // measure 31
0230
0001
0001
0001
,  // measure 32
0302
1000
1000
1000
,  // measure 33
1003
1000
0100
0100
0010
0010
0001
0001
,  // measure 34
1000
0010
1000
0001
0100
0001
1000
0010
,  // measure 35
0100
0001
0010
0001
0100
0010
0100
0010
,  // measure 36
0220
0000
0000
0000
0000
0000
0000
0000
0330
0000
0100
0000
0010
0100
0010
0000
,  // measure 37
0010
0000
0000
0000
1000
0000
0010
0000
1000
0000
0000
1010
0000
0000
0010
0000
,  // measure 38
0000
0110
0000
0010
0200
0000
0310
1000
,  // measure 39
0100
0000
0010
0000
0001
0000
0100
0000
0001
0000
0000
0101
0000
0000
0100
0000
,  // measure 40
0000
0110
0000
0100
0020
0000
0130
0000
,  // measure 41
0100
0000
0000
0000
0001
0000
0100
0000
0001
0000
0000
0101
0000
0000
0010
0000
,  // measure 42
0000
0000
1010
0000
0000
0000
1000
0000
0010
0000
0000
0110
0000
0000
0010
0000
,  // measure 43
0000
0000
0100
0000
0000
0000
0001
0000
0100
0000
0000
0101
0000
0000
0010
0000
,  // measure 44
0000
1000
1000
1000
0001
0000
1001
0000
,  // measure 45
1000
0010
0100
0010
1000
0000
0010
0100
,  // measure 46
0010
0100
0001
0000
0002
0000
0103
0000
,  // measure 47
0001
0010
0100
1000
0010
0000
1000
0100
,  // measure 48
0010
0001
0100
0000
0110
0000
1001
0000
,  // measure 49
0010
0000
0000
0000
0100
0000
0010
0000
0100
0000
0000
0110
0000
0000
1000
0000
,  // measure 50
0000
1001
0000
1000
0010
0100
0001
0100
,  // measure 51
0000
0110
0000
0010
0001
0100
1000
0001
,  // measure 52
0200
0000
0000
0000
0000
0000
0310
0000
0100
0000
0000
0010
0000
0000
2002
0000
,  // measure 53
0000
3003
0000
0000
0000
0000
0000
0000
;
