#TITLE:Heart Attack;
#SUBTITLE:;
#ARTIST:LOONA;
#TITLETRANSLIT:;
#SUBTITLETRANSLIT:;
#ARTISTTRANSLIT:;
#CREDIT:;
#BANNER:Heart Attack.png;
#BACKGROUND:Heart Attack-bg.png;
#LYRICSPATH:;
#CDTITLE:;
#MUSIC:Heart Attack.mp3;
#OFFSET:-0.040;
#SAMPLESTART:43.940;
#SAMPLELENGTH:15.000;
#SELECTABLE:YES;
#BPMS:0.000=198.000,48.000=99.000,96.000=198.000,224.000=99.000,244.000=198.000;
#STOPS:;
#BGCHANGES:-0.240=Heart Attack.avi=1.000=0=0=0,
99999=-nosongbg-=1.000=0=0=0 // don't automatically add -songbackground-
;

//---------------dance-single - ----------------
#NOTES:
     dance-single:
     :
     Easy:
     5:
     0.269,0.405,0.093,0.151,0.000:
0000
0000
0000
0000
,
0000
0000
0000
0000
,
0000
0000
0000
0000
,
0000
0000
0000
0000
,
1001
0000
0010
1000
,
0010
0000
0010
0000
,
0100
0001
0100
0000
,
0001
0000
1000
0000
,
1001
0000
0010
1000
,
0010
0000
0010
0000
,
0100
0001
0100
0000
,
0001
0000
1000
0000
,
1001
0000
0000
0000
,
0100
1000
0100
1000
,
0010
0001
0010
0001
,
0002
0203
0302
1003
,
0010
0100
0010
0100
,
0001
1000
0010
1000
,
0010
1000
0010
0100
,
2000
3002
2003
3001
,
0000
0010
0000
1000
,
0000
0010
0000
0100
,
0000
0001
0000
0100
,
2002
0000
0000
3003
,
1000
1000
1000
0000
,
0010
0000
1000
0010
,
1000
0000
0001
0000
,
0010
0000
0100
0100
,
0100
0000
0001
0000
,
0010
0000
0100
0010
,
0001
0000
1000
0000
,
0010
0000
0010
0100
,
0001
0000
0001
0000
,
0100
0000
0010
1000
,
0001
0000
0100
0000
,
0010
0000
0100
0010
,
0001
0000
0100
0000
,
0010
0000
0010
0100
,
1000
0000
1001
0000
0000
0000
0000
1001
,
0000
0000
0000
0000
,
0110
0000
0010
1000
,
0010
0000
0100
0001
,
0010
0000
0001
1000
,
0100
0000
1000
0010
,
0001
0000
0100
0001
,
1000
0000
0100
0010
,
0100
0000
0100
0001
,
0100
0001
0100
1000
,
0100
0000
0100
0010
,
1000
0000
0100
0001
,
1000
0000
0100
1000
,
0001
0000
0010
0100
,
0001
0000
1000
0010
,
0001
0000
0001
1000
,
0001
1001
0000
0000
,
0110
0110
0000
0000
,
2000
0000
3002
0000
,
2003
0000
3020
0000
,
0230
0000
0302
0000
,
2003
0000
3020
0000
,
0000
0000
0200
0000
,
0330
1000
0001
0000
,
0100
0000
0001
0100
,
0001
0000
1000
0000
,
0100
0000
0010
0010
,
0010
0000
1000
0000
,
0100
0000
0010
0100
,
1000
0000
0001
0000
,
0100
0000
0100
0010
,
1000
0000
1000
0000
,
0010
0000
0100
0001
,
1000
0000
0010
0000
,
0100
0000
0010
0100
,
1000
0000
0010
0000
,
0100
0000
0100
0010
,
2000
0000
0000
0000
,
0002
0000
0000
3003
,
0010
0010
0010
0000
,
0100
0000
0010
0100
,
0010
0000
0001
0000
,
0100
0000
1000
1000
,
1000
0000
0001
0000
,
0100
0000
1000
0100
,
0001
0000
0010
0000
,
0100
0000
0100
1000
,
0001
0000
0001
0000
,
1000
0000
0100
0010
,
0001
0000
1000
0000
,
0100
0000
1000
0100
,
0001
0000
1000
0000
,
0100
0000
0100
1000
,
0010
0000
0011
0000
0000
0000
0000
0011
,
0000
0000
0000
0000
,
2002
0000
0000
0000
0000
0000
0000
3003
;

//---------------dance-single - ----------------
#NOTES:
     dance-single:
     :
     Beginner:
     3:
     0.222,0.304,0.187,0.108,0.000:
0000
0000
0000
0000
,
0000
0000
0000
0000
,
0000
0000
0000
0000
,
0000
0000
0000
0000
,
0000
0010
0000
0010
,
0000
1000
0000
1000
,
0000
0001
0000
0001
,
0000
1000
0000
1000
,
0000
0010
0000
0100
,
0000
0001
0000
1000
,
0000
0010
0000
1000
,
0000
0000
1001
0000
,
0110
0000
0000
0000
,
0010
0000
0010
0000
,
1000
0000
0001
0000
,
1001
0110
1001
0000
,
0010
0000
1000
0000
,
0001
0000
0100
0000
,
0010
0000
1000
0000
,
0110
1001
0110
0000
,
0010
0010
0010
0000
,
0100
0100
0100
0000
,
0001
0001
0001
0000
,
2002
0000
3003
0110
,
0000
0010
0000
1000
,
0000
0001
0000
1000
,
0000
0001
0000
0100
,
0000
0010
0000
0110
,
1001
0000
0000
0100
,
0000
0010
0000
1000
,
0000
0001
0000
0100
,
0000
0001
0000
1000
,
0000
0010
0000
1000
,
0000
0010
0000
0100
,
0000
0001
0000
0100
,
0000
0010
0000
1000
,
0000
0010
0000
0100
,
0000
0010
0000
1000
,
1000
0000
1000
0000
0000
0000
0000
1001
,
0000
0000
0000
0000
,
0010
0000
0100
0000
,
0010
0000
1000
0000
,
0001
0000
0100
0000
,
0001
0000
0010
0000
,
0010
0000
1000
0000
,
0010
0000
1000
0000
,
0010
0000
0100
0000
,
0001
0000
0000
0110
,
1001
0000
0000
0000
,
1000
0000
0010
0000
,
0001
0000
0010
0000
,
0001
0000
0100
0000
,
0010
0000
1000
0000
,
0100
0000
1000
0000
,
1001
0110
0000
0000
,
0110
1001
0000
0000
,
2000
3000
0020
0030
,
2000
3000
0002
0003
,
0200
0300
0002
0003
,
0020
0030
0200
0000
,
0000
0300
2002
0000
,
3003
1000
0000
0001
,
0000
1000
0000
0001
,
0000
1000
0000
0010
,
0000
0100
0000
0110
,
1001
0000
0000
0010
,
0000
0100
0000
0001
,
0000
1000
0000
0010
,
0000
1000
0000
0001
,
0000
0100
0000
0001
,
0000
0100
0000
0010
,
0000
1000
0000
0010
,
0000
0100
0000
0001
,
0000
0100
0000
0010
,
0000
0100
0000
0001
,
0002
0000
0000
0000
,
0000
0000
0003
0000
,
0000
0100
0000
0010
,
0000
0001
0000
0010
,
0000
0001
0000
1000
,
0000
0100
0000
1100
,
0011
0000
0000
1000
,
0000
0100
0000
0010
,
0000
0001
0000
1000
,
0000
0001
0000
0010
,
0000
0100
0000
0010
,
0000
0100
0000
1000
,
0000
0001
0000
1000
,
0000
0100
0000
0010
,
0000
0100
0000
1000
,
0000
0100
0000
0100
,
0100
0000
0100
0000
0000
0000
0000
0011
,
0000
0000
0000
0000
,
2002
0000
0000
0000
0000
0000
0000
3003
;

//---------------dance-single - ----------------
#NOTES:
     dance-single:
     :
     Medium:
     8:
     0.362,0.439,0.316,0.165,0.025:
0000
0000
0000
0000
,
0000
0000
0000
0000
,
0000
0000
0000
0000
,
0000
0000
0000
0000
,
0010
0000
0100
0000
,
0010
0000
0000
1000
0000
0000
0010
0000
,
0100
0000
0001
0000
,
1000
0000
0000
0010
0000
0000
0100
0000
,
0001
0000
0001
0000
,
0100
0000
0000
0010
0000
0000
0010
0000
,
0001
0000
1000
0010
,
1000
0001
0100
0010
2002
0000
3003
0000
,
1001
0000
0000
0000
,
0100
0000
0000
0000
0010
0000
0000
0000
1000
0000
0000
0010
0000
0000
0100
0000
,
0010
0000
0000
0000
0100
0000
0000
0000
0001
0000
0000
0010
0000
0000
0001
0000
,
2000
0000
0000
0000
3200
0000
0000
0000
1300
0000
0000
0010
0000
0000
1000
0000
,
0010
0000
0000
0000
0100
0000
0000
0000
0001
0000
0000
0100
0000
0000
0010
0000
,
0100
0000
0000
0000
0010
0000
0000
0000
1000
0000
0000
0100
0000
0000
1000
0000
,
0001
0000
0000
0000
0010
0000
0000
0000
0001
0000
0000
0100
0000
0000
0001
0000
,
0020
0000
0000
0000
0032
0000
0000
0000
0013
0000
0000
0001
0000
0000
1000
0000
,
0100
0000
1000
0100
1000
0000
0100
1000
,
0100
0000
0010
1000
0010
0000
1000
0010
,
1000
0000
0001
0100
0001
0000
0100
0001
,
0200
0000
0000
0310
,
0010
1000
0010
0000
,
0100
0010
0100
0000
,
0001
1000
0010
0000
,
0110
0000
0000
1001
0000
0000
0110
0000
,
1001
0001
1000
0000
,
0001
0010
0100
0000
,
0100
0010
1000
0000
,
1010
0000
0000
0101
0000
0000
1001
0000
,
0110
0010
0100
0000
,
0010
1000
0001
0000
,
0010
0100
0001
0000
,
0011
0000
0000
0110
0000
0000
1100
0000
,
1001
0001
0010
0000
,
1000
0010
0100
0000
,
0010
0000
0010
0000
0000
0000
0000
2002
,
0000
3003
0000
0000
,
0001
0100
0001
0100
,
0010
1000
0010
1000
,
0010
0100
0010
1000
,
0100
0010
0001
0100
,
0010
0001
0010
0100
,
0001
0010
0100
1000
,
0010
1000
0001
0100
,
0001
1000
0010
1000
,
0001
0010
1000
0010
,
0100
0001
0100
0001
,
0100
0010
0100
0001
,
0010
0100
1000
0010
,
0100
1000
0100
0010
,
1000
0100
0010
0001
,
0110
1001
0000
0000
,
1001
0110
0100
0001
,
2000
0000
3002
0000
,
0023
0000
0230
0000
,
2300
0000
3002
0000
,
2003
0000
3200
0000
,
0000
0000
0302
0000
,
0103
0001
0100
0000
,
0010
0100
0010
0000
,
1000
0001
0100
0000
,
0110
0000
0000
1001
0000
0000
0110
0000
,
1001
1000
0001
0000
,
1000
0100
0010
0000
,
0010
0100
0001
0000
,
0101
0000
0000
1010
0000
0000
1001
0000
,
0110
0100
0010
0000
,
0100
0001
1000
0000
,
0100
0010
1000
0000
,
1100
0000
0000
0110
0000
0000
0011
0000
,
1001
1000
0100
0000
,
0001
0100
0010
0000
,
0200
0000
0000
0000
,
0320
0000
0000
0000
,
1030
1000
0010
0000
,
0100
0010
0100
0000
,
0001
1000
0010
0000
,
0110
0000
0000
1001
0000
0000
0110
0000
,
1001
0001
1000
0000
,
0001
0010
0100
0000
,
0100
0010
1000
0000
,
1010
0000
0000
0101
0000
0000
1001
0000
,
0110
0010
0100
0000
,
0010
1000
0001
0000
,
0010
0100
0001
0000
,
0011
0000
0000
0110
0000
0000
1100
0000
,
1001
0001
0010
0000
,
1000
0010
0100
0000
,
0010
0000
0010
0000
0000
0000
0000
2002
,
0000
3003
0000
0000
,
0020
0000
0000
0000
0000
0000
0000
0030
;

//---------------dance-single - ----------------
#NOTES:
     dance-single:
     :
     Hard:
     13:
     0.446,0.641,0.144,0.065,0.155: // measure 1
0000
0000
0000
0000
,  // measure 2
0000
0000
0000
0000
,  // measure 3
0000
0000
0000
0000
,  // measure 4
0000
0000
0000
0000
,  // measure 5
1010
0010
0100
0010
,  // measure 6
1000
0000
0001
0100
0000
0000
0000
0000
,  // measure 7
0100
0000
0001
0000
0010
0000
0100
0010
,  // measure 8
0000
0100
0000
0010
,  // measure 9
0101
0100
0010
0100
,  // measure 10
0001
0000
1000
0010
0000
0000
0000
0000
,  // measure 11
0010
1000
0100
0010
,  // measure 12
0010
0100
0010
0100
1001
0000
0000
0000
,  // measure 13
0001
0000
1000
0010
1000
0000
0000
1000
0000
0010
0000
0100
0000
0000
0001
0100
,  // measure 14
0010
0000
0100
0000
1000
0001
0000
2000
0000
0000
3000
0000
0000
0000
1000
0010
,  // measure 15
1000
0000
0010
0000
0100
0000
0001
0000
0010
0000
0001
0100
0000
0000
0001
0000
,  // measure 16
0010
0000
0001
0000
0100
0000
0010
0000
1000
0100
0000
1000
0000
0000
0010
0000
,  // measure 17
1001
0000
0100
0000
0010
0000
0100
0001
0000
0010
0000
0001
0000
0000
0100
0001
,  // measure 18
1000
0000
0010
0000
0100
0010
0000
1000
0000
0000
0000
0000
0000
1000
0100
0010
,  // measure 19
0001
0000
0000
0000
0101
0000
0000
0000
0010
0000
1000
0010
0000
0000
0100
0000
,  // measure 20
0010
0000
1000
0000
0100
0000
0010
0000
0001
0000
0100
0001
0000
0000
0100
0000
,  // measure 21
0001
0100
0000
0100
0001
0000
0100
0000
0010
1000
0000
1000
0010
0000
0100
0000
,  // measure 22
0010
0000
0001
0000
0010
0001
0010
0001
0000
0000
0000
0000
1000
0000
0000
0010
,  // measure 23
0000
0000
0100
0000
0010
0000
1000
0000
0100
1000
0000
0010
0000
1000
0000
2002
,  // measure 24
0000
0000
0000
0000
0000
3003
0110
0000
,  // measure 25
0100
0001
0100
0001
,  // measure 26
1000
0000
0010
1000
0000
0010
0000
0100
,  // measure 27
0000
0010
0100
0001
,  // measure 28
0101
0000
0001
0100
0000
0100
0000
0010
,  // measure 29
0000
1000
0100
1000
,  // measure 30
0010
0000
1000
0100
0000
1000
0000
0010
,  // measure 31
0000
1000
0010
0100
,  // measure 32
0001
0000
1000
0010
0000
0100
0000
1000
,  // measure 33
0000
0001
0100
0010
,  // measure 34
1000
0000
1000
0001
0000
0000
0100
0000
,  // measure 35
0001
0000
0100
0000
0010
0000
1000
0001
,  // measure 36
0000
0000
0000
0000
0001
1000
0000
0000
,  // measure 37
0001
0100
0101
0001
,  // measure 38
1000
0010
1010
1000
,  // measure 39
0010
0000
1001
0000
0000
0000
0000
0110
,  // measure 40
0000
0000
0000
1000
0000
0010
0000
0001
,  // measure 41
1000
0000
0001
1000
0010
0000
0100
0001
,  // measure 42
1000
0000
0010
0100
0000
0100
0000
0010
,  // measure 43
0000
0000
1000
0100
0010
0000
0100
0010
,  // measure 44
0001
0000
0001
0100
0000
0001
0000
1000
,  // measure 45
0000
0000
0010
0001
0100
0000
0100
0001
,  // measure 46
0010
0000
0100
0001
0000
0100
0000
0010
,  // measure 47
0000
0000
0010
1000
,  // measure 48
0010
0001
0010
1000
,  // measure 49
0001
0000
1000
0001
0100
0000
0010
1000
,  // measure 50
0001
0000
0100
0010
0000
0010
0000
0100
,  // measure 51
0000
0000
0001
0010
0100
0000
0010
0100
,  // measure 52
1000
0000
1000
0010
0000
1000
0000
0001
,  // measure 53
0000
0000
0100
1000
0010
0000
0010
1000
,  // measure 54
0000
0010
0000
1000
0000
0010
0000
0200
,  // measure 55
0010
0010
0000
0000
,  // measure 56
0301
1000
0100
0001
,  // measure 57
0100
0000
0010
0000
1000
0000
0010
0000
0100
0000
0001
0100
0000
0010
0000
0100
,  // measure 58
0000
0000
0001
0000
0100
0000
0010
0000
0100
0000
0001
1000
0000
0010
0000
1000
,  // measure 59
0000
0000
1000
0000
0100
0000
0010
0000
0001
0000
0100
0010
0000
1000
0000
0001
,  // measure 60
0000
0000
0001
0000
0100
0000
0010
0000
1000
0000
0010
1000
0000
0002
0000
0000
,  // measure 61
0000
0000
0000
0000
2000
0000
0000
3003
,  // measure 62
0010
1000
0010
1000
,  // measure 63
0001
0000
0100
0001
0000
0100
0000
0010
,  // measure 64
0000
0100
0010
1000
,  // measure 65
1010
0000
1000
0010
0000
0010
0000
0100
,  // measure 66
0000
0001
0010
0001
,  // measure 67
0100
0000
0001
0010
0000
0001
0000
0100
,  // measure 68
0000
0001
0100
0010
,  // measure 69
1000
0000
0001
0100
0000
0010
0000
0001
,  // measure 70
0000
1000
0010
0100
,  // measure 71
0001
0000
0001
1000
0000
0000
0010
0000
,  // measure 72
1000
0000
0010
0000
0100
0000
0001
1000
,  // measure 73
0000
0000
0000
0000
1000
0001
0000
0000
,  // measure 74
1000
0010
1010
1000
,  // measure 75
0001
0000
0100
0000
0101
0000
0001
2000
,  // measure 76
0000
0000
0000
0000
,  // measure 77
0020
0000
0000
0000
,  // measure 78
3030
0001
1000
0001
,  // measure 79
0010
0000
0100
0010
0000
0100
0000
1000
,  // measure 80
0000
0100
1000
0001
,  // measure 81
1001
0000
0001
1000
0000
1000
0000
0100
,  // measure 82
0000
0010
1000
0010
,  // measure 83
0100
0000
0010
1000
0000
0010
0000
0100
,  // measure 84
0000
0010
0100
1000
,  // measure 85
0001
0000
0010
0100
0000
1000
0000
0010
,  // measure 86
0000
0001
1000
0100
,  // measure 87
0010
0000
0010
0001
0000
0000
1000
0000
,  // measure 88
0001
0000
1000
0000
0100
0000
0010
0001
,  // measure 89
0000
0000
0000
0000
0001
0010
0000
0000
,  // measure 90
0001
1000
1001
0001
,  // measure 91
0010
0100
0110
0010
,  // measure 92
0100
0000
0101
0000
0000
0000
0000
1100
,  // measure 93
0000
0000
0000
0010
0000
0100
0000
0001
,  // measure 94
2000
0000
0000
0000
0000
0000
0000
3000
;
