#TITLE:Gurenge;
#SUBTITLE:;
#ARTIST:LiSA;
#TITLETRANSLIT:;
#SUBTITLETRANSLIT:;
#ARTISTTRANSLIT:;
#CREDIT:;
#BANNER:Gurenge.png;
#BACKGROUND:Gurenge-bg.png;
#LYRICSPATH:;
#CDTITLE:;
#MUSIC:Gurenge.mp3;
#OFFSET:1.140;
#SAMPLESTART:61.060;
#SAMPLELENGTH:15.000;
#SELECTABLE:YES;
#BPMS:0.000=135.000;
#STOPS:;
#BGCHANGES:;

//---------------dance-single - ----------------
#NOTES:
     dance-single:
     :
     Beginner:
     1:
     0.217,0.281,0.123,0.078,0.000:
0000
0000
0000
0000
,
1000
0000
0000
0000
,
1000
0000
0000
0000
,
0001
0000
0000
0000
,
0001
0000
0000
0000
,
1000
0000
0000
0000
,
1000
0000
0000
0000
,
1000
1000
1000
0000
,
0010
0010
0010
0000
,
0001
0001
0001
0000
,
0100
0100
0100
0000
,
0010
0000
1000
0000
,
0001
0000
0100
0000
,
0001
0000
1000
0000
,
0010
0000
0100
0000
,
0010
1000
0010
0000
,
0100
0001
0100
0000
,
0001
1000
0001
0000
,
1000
0000
0001
0000
,
1000
0010
0100
0000
,
0001
0010
1000
0000
,
1000
0100
0010
0000
,
1000
0010
0001
0000
,
1000
0000
0001
0000
,
0100
0000
0010
0000
,
1000
0000
0001
0000
,
1001
0000
0010
0010
,
0020
0030
1000
1000
,
2000
3000
0001
0001
,
0002
0003
0100
0100
,
0200
0300
0000
0000
,
1000
1000
0001
0001
,
1000
0001
1000
0001
,
1000
0100
0010
0100
,
0010
0010
0020
0130
,
0110
0000
0010
0000
,
1010
0000
0001
0000
,
0011
0000
0010
0000
,
1001
0000
0001
0000
,
0101
0000
0001
0000
,
1100
0000
1000
0000
,
1001
0000
0001
0000
,
0001
0001
0001
0000
,
0010
0010
0010
0000
,
0100
0100
0100
0000
,
1000
1000
1000
0000
,
1000
0001
1000
0000
,
0110
0000
0010
0000
,
0101
0000
1000
0000
,
2002
0000
0000
0000
,
0000
3003
0000
0000
;

//---------------dance-single - ----------------
#NOTES:
     dance-single:
     :
     Easy:
     4:
     0.245,0.308,0.123,0.112,0.000:
0000
0000
0000
0000
,
0001
0000
0000
0000
,
1000
0000
0000
0000
,
1000
0000
0000
0000
,
0010
0000
0000
0000
,
0200
0000
0300
0000
,
0020
0000
0030
0000
,
1000
0010
1000
0010
,
0001
0100
0001
0100
,
0001
1000
0010
1000
,
0001
1000
0010
0001
,
0010
1000
0000
0010
,
0000
1000
0000
0001
,
0000
0100
0000
0010
,
0000
1000
0000
0100
,
0000
1000
0000
1000
,
0000
0001
0000
0001
,
0000
0010
0000
0010
,
0000
0100
0000
0010
,
1000
0010
1000
0000
,
1000
0010
0001
0000
,
0001
0100
1000
0000
,
0001
0100
0001
0000
,
2000
0010
3010
0000
,
0020
0100
0130
0000
,
0002
0100
0103
0000
,
0001
0000
1000
1001
,
1001
0000
0100
0000
,
0101
0000
1000
0000
,
1100
0000
0001
0000
,
0101
0000
0001
0000
,
0011
0001
0010
0100
,
1000
0100
0010
0001
,
1000
0001
0100
0010
,
0110
0020
0000
0230
,
0310
0010
1000
0010
,
0001
0010
1000
0010
,
0001
0000
1000
0000
,
0001
0010
1000
0010
,
1000
0000
1000
0000
,
1010
0000
0001
0000
,
0101
0000
0010
0000
,
0110
0001
0010
0100
,
0100
0100
0001
0100
,
1000
0100
0001
0100
,
1000
0000
0001
0000
,
1000
0100
0001
0100
,
0001
1000
0010
0001
,
0220
0000
0000
0330
,
2000
0001
0000
0001
,
3000
0000
0000
0000
;

//---------------dance-single - ----------------
#NOTES:
     dance-single:
     :
     Medium:
     7:
     0.328,0.391,0.022,0.090,0.090:
0000
0000
0000
0000
,
1000
0000
0000
0010
0000
0000
1000
0000
0000
0000
0000
0000
0000
0000
0000
0000
,
0010
0000
0000
0100
0000
0000
0001
0000
0000
0000
0000
0000
0000
0000
0000
0000
,
0100
0000
0000
0010
0000
0000
0001
0000
0000
0000
0000
0000
0000
0000
0000
0000
,
1000
0000
0000
0001
0000
0000
0100
0000
0000
0000
0000
0000
0000
0000
0000
0000
,
0010
0000
0000
0100
0000
0000
0010
0000
0000
0000
0000
0000
0000
0000
0000
0000
,
0001
0000
0000
0100
0000
0000
1000
0000
0000
0000
0000
0000
0000
0000
0000
0000
,
1002
1000
1000
1000
,
2003
0010
0010
0010
,
3020
0100
0100
0100
,
0230
0001
0001
0001
,
0301
0001
0000
1000
,
0000
0000
0010
0000
1000
0001
1000
0000
,
0000
0100
0000
0010
,
0000
0000
1000
0000
0001
1000
0100
0000
,
0000
0010
0000
1000
,
0000
0000
0100
0000
1000
0001
1000
0000
,
0000
0001
0000
0100
,
0000
0000
0001
0000
0010
0001
0100
0000
,
0000
1000
0000
0010
,
0000
0000
1000
0000
1000
0001
1000
0000
,
0000
0010
0000
0100
,
0000
0000
0001
0000
1000
0010
0001
0000
,
0000
0100
0000
0010
,
0000
0000
0100
0000
0010
1000
0010
0000
,
0000
0001
0000
0001
,
0000
0000
1000
0000
0010
1000
0010
0000
,
1000
0000
0000
0001
0000
0000
0100
0000
0000
0000
0000
0000
0000
0000
0000
0000
,
0100
0000
0000
0010
0000
0000
0001
0000
0000
0000
0000
0000
0000
0000
0000
0000
,
0001
0000
0000
0010
0000
0000
1000
0000
0000
0000
0000
0000
0000
0000
0000
0000
,
1000
0000
0000
0100
0000
0000
0001
0000
0000
0000
0000
0000
0000
0000
0000
0000
,
1000
1000
0100
0010
,
0001
0100
0010
1000
,
0001
0100
1000
0100
0001
0100
1000
0100
,
0002
1000
2003
3020
,
1030
0010
0100
0001
0010
0000
0001
0000
,
0001
0100
1000
0100
0001
0000
1000
0000
,
0001
1000
0010
0000
1000
0100
0010
0000
,
1000
0000
0000
0000
0100
0000
0000
0000
0010
0000
0000
0001
0000
0000
1000
0000
,
0001
0000
0000
0010
0000
1000
0010
0100
,
0000
0000
0010
0001
0000
0001
1000
0001
,
0001
0000
0000
0010
0000
0000
0100
0000
0000
1000
0000
0000
0010
0000
1000
0000
,
0010
1000
0001
0100
,
0001
0100
0010
1000
0100
0000
1000
0000
,
1000
0010
0001
0010
1000
0000
0001
0000
,
1000
0001
0100
0000
0001
0010
0100
0000
,
0001
0000
0000
0000
0010
0000
0000
0000
0100
0000
0000
1000
0000
0000
0001
0000
,
1000
0000
0000
0100
0000
0001
0100
0020
,
0100
0000
1030
0001
,
1000
0000
0000
0010
0000
0000
0001
0000
0000
0010
0000
0000
0100
0000
1001
0000
;

//---------------dance-single - ----------------
#NOTES:
     dance-single:
     :
     Hard:
     13:
     0.505,0.645,0.134,0.134,0.420: // measure 1
0000
0000
0000
0000
,  // measure 2
0010
0000
0000
0010
0000
0000
0100
0000
0000
0000
0000
0000
0000
0000
0000
0000
,  // measure 3
1000
0000
0000
0001
0000
0000
0100
0000
0000
0000
0000
0000
0000
0000
0000
0000
,  // measure 4
0001
0000
0000
1000
0000
0000
0010
0000
0000
0000
0000
0000
0000
0000
0000
0000
,  // measure 5
0100
0000
0000
0001
0000
0000
0100
0000
0000
0000
0010
0000
0000
0000
1000
0000
,  // measure 6
0010
0000
0000
1000
0000
0000
0001
0000
0000
0000
1000
0000
0000
0000
0100
0000
,  // measure 7
0010
0000
0000
0001
0000
0000
1000
0000
0000
0000
0001
0000
0000
0000
1000
0000
,  // measure 8
0001
0000
0000
0100
0000
0000
0010
0000
0000
0100
0000
0000
1000
0010
1000
0010
,  // measure 9
1000
0000
0000
0100
0000
0000
0001
0000
0000
1000
0000
0000
0001
0100
0010
0100
,  // measure 10
0001
0000
0000
1000
0000
0000
0010
0000
0000
1000
0000
0000
0010
1000
0010
1000
,  // measure 11
0001
0000
0000
1000
0000
0000
0001
0000
0000
0100
0000
0000
0100
0001
1000
0010
,  // measure 12
1000
0000
0000
0010
0000
0000
1000
0000
0000
0000
0001
0000
0100
0000
0000
0002
,  // measure 13
0000
0000
0000
0000
0003
0000
0000
0000
0001
0010
0001
1000
0010
0000
1000
0000
,  // measure 14
1000
0100
0000
0000
0000
0000
1000
0000
,  // measure 15
1000
0000
1000
0000
0010
0100
0000
0001
0000
0000
0001
0000
0010
0000
0100
0000
,  // measure 16
1000
0000
0000
0010
0000
0000
0100
0000
0000
0000
0010
0000
1000
0000
0000
0020
,  // measure 17
0000
0000
0000
0000
0030
0000
0000
0000
1000
0010
1000
0010
0100
0000
0001
0000
,  // measure 18
0000
2010
0000
0000
0000
3000
0000
1000
,  // measure 19
0010
0000
0000
0100
0000
0000
0010
0000
0010
0000
0000
0000
0000
0000
0100
0000
,  // measure 20
0010
0000
0000
1000
0000
0000
1000
0000
0000
0000
0001
0000
0100
0000
0000
1000
,  // measure 21
0000
0000
0001
0100
0001
0000
1000
0000
1000
0000
0000
0001
0000
0000
1000
0000
,  // measure 22
0010
0000
0000
1000
0000
0000
0001
0000
0000
0000
0001
0000
0100
0000
0000
0001
,  // measure 23
0000
0000
0100
0010
0100
0000
0010
0000
1000
0000
0000
0010
0000
0000
0100
0000
,  // measure 24
0010
0000
0000
0100
0000
0000
0001
0000
0000
0000
1000
0000
0100
0000
0010
0000
,  // measure 25
0000
0000
0100
0001
0000
1000
0010
1000
,  // measure 26
0001
0000
0000
0100
0000
0000
0010
0000
0000
0000
0000
0000
0000
0000
1000
0000
,  // measure 27
1000
0000
0010
0100
0000
0010
1000
0000
1000
0010
0100
0010
2000
0000
3000
0000
,  // measure 28
1001
0000
0000
0100
0000
0000
0010
0000
0000
0000
0000
0000
0000
0000
0000
0000
,  // measure 29
0001
0000
0000
0100
0000
0000
0010
0000
0000
0000
0000
0000
0000
0000
0000
0000
,  // measure 30
0100
0000
0000
0010
0000
0000
0001
0000
0000
0000
0000
0000
0000
0000
0000
0000
,  // measure 31
0100
0000
0000
0001
0000
0000
1000
0000
0000
0000
0000
0000
0000
0000
0000
0000
,  // measure 32
1000
0010
0001
0010
,  // measure 33
1000
0001
0100
1000
,  // measure 34
0100
0001
0100
1000
0100
0001
1000
0010
,  // measure 35
0001
0010
0100
1000
0020
0000
0000
0000
1000
0000
0000
0000
0130
0000
0000
0000
,  // measure 36
1010
0000
0010
0000
1000
0000
0010
0000
0010
0000
1000
0001
0000
0000
0000
0000
,  // measure 37
0110
0000
0010
0000
1000
0000
0001
0000
0100
0000
0001
0100
0000
0000
1000
0000
,  // measure 38
0100
0000
1000
0100
0000
0000
1000
0000
0010
0000
0100
0000
0001
0000
0100
0000
,  // measure 39
0020
0000
2030
0000
3002
1000
1003
0010
,  // measure 40
1010
0000
0000
0100
0000
0010
1000
0001
,  // measure 41
0000
0000
0010
0100
0000
1000
0010
0001
,  // measure 42
1001
0000
0000
0100
0000
0000
0110
0000
0000
0010
0000
0000
1000
0001
0010
0001
,  // measure 43
1000
0000
0001
0100
0010
0100
0001
0000
0010
0000
1000
0100
0010
0100
1000
0000
,  // measure 44
0101
0000
0100
0000
0001
0000
0100
0000
0100
0000
0001
1000
0000
0000
0010
1000
,  // measure 45
0010
0000
0100
0000
0001
0000
1000
0000
0010
0000
1000
0010
0000
0000
0001
0000
,  // measure 46
0010
0000
0100
1000
0000
0010
1000
0002
,  // measure 47
0000
0000
0000
0000
0013
0000
0000
0000
0100
0000
0000
1000
0000
0000
0010
0000
,  // measure 48
1000
0000
0000
0000
0010
0000
0100
0010
0100
0001
0100
0010
0100
0001
0100
0010
,  // measure 49
0100
0000
0000
0100
0010
0000
0210
0000
,  // measure 50
0310
0000
0000
0010
0000
0000
1010
0000
0000
1000
0000
0000
1010
0000
0202
0000
,  // measure 51
0000
0303
0000
0000
0000
0000
0000
0000
;
