#TITLE:Groove;
#SUBTITLE:;
#ARTIST:Jack & Jack;
#TITLETRANSLIT:;
#SUBTITLETRANSLIT:;
#ARTISTTRANSLIT:;
#CREDIT:;
#BANNER:Groove.png;
#BACKGROUND:Groove-bg.png;
#LYRICSPATH:;
#CDTITLE:;
#MUSIC:Groove.mp3;
#OFFSET:-0.080;
#SAMPLESTART:38.760;
#SAMPLELENGTH:15.000;
#SELECTABLE:YES;
#BPMS:0.000=124.000;
#STOPS:;
#BGCHANGES:;

//---------------dance-single - ----------------
#NOTES:
     dance-single:
     :
     Easy:
     5:
     0.277,0.305,0.228,0.250,0.000:
0000
0000
0000
0000
,
0000
0000
0000
0000
,
0000
0000
0000
0000
,
0000
0000
0000
0000
,
0001
0100
0010
0000
,
1000
0010
0100
0000
,
0010
0100
0010
0000
,
1000
0001
1000
0000
,
0010
0100
0010
0000
,
0001
0010
0100
0000
,
0010
0100
1000
0000
,
1000
0001
1000
0000
,
0110
0001
0100
0020
,
0130
0100
0010
0200
,
0301
0001
0010
0100
,
2000
0000
0000
3000
,
0000
0001
0100
0001
,
0000
0010
0100
0010
,
0000
1000
1000
0100
,
1000
0100
0010
0001
,
0001
0101
0010
0202
,
0303
0010
0100
0010
,
1000
1001
0010
0220
,
0330
0010
0100
0010
,
0100
0101
0010
2020
,
3030
0000
0001
1000
,
1001
0000
0010
0100
,
0110
0220
0000
0330
,
0010
0010
1000
0000
,
2000
0010
0010
3010
,
0100
0001
0010
0000
,
0002
0010
0010
0013
,
1001
0000
0010
0000
,
0010
0000
1000
0000
,
0001
0000
0100
0000
,
0001
0000
0010
0000
,
0001
0010
0001
0000
,
0100
0100
0010
0000
,
1000
0001
1000
0000
,
0010
0010
1000
0001
,
1000
1010
0100
2020
,
3030
0100
0010
0100
,
0001
1001
0100
0220
,
0330
0100
0010
0100
,
0010
1010
0100
0202
,
0303
0000
1000
0001
,
1001
0000
0100
0010
,
0110
0220
0000
0330
,
0010
1001
1000
0022
,
0033
1000
0001
1000
,
0100
0110
1000
2002
,
3003
1000
0001
1000
,
0001
0011
1000
2200
,
3300
0000
0010
0100
,
0110
0000
1000
0001
,
1001
2002
0000
3003
,
1000
0100
0001
0000
,
0002
0100
0100
0103
,
0010
1000
0100
0000
,
2000
0100
0100
3100
,
1000
0010
0100
0000
,
0020
0100
0100
0130
,
0010
1000
0100
0000
,
0200
0010
0010
0310
,
0110
0000
0000
0000
,
1000
0000
0000
0000
,
0010
0000
0000
0000
,
0100
0000
0000
0000
;

//---------------dance-single - ----------------
#NOTES:
     dance-single:
     :
     Beginner:
     3:
     0.177,0.229,0.076,0.121,0.000:
0000
0000
0000
0000
,
0000
0000
0000
0000
,
0000
0000
0000
0000
,
0000
0000
0000
0000
,
0000
0100
0000
0100
,
0000
0001
0000
0001
,
0000
0100
0000
0100
,
0000
0010
0000
0010
,
0000
1000
0000
1000
,
0000
0100
0000
1000
,
0000
0001
0000
0010
,
0000
0001
0000
1000
,
0000
1000
1000
1000
,
0000
0010
0010
0010
,
0000
1000
1000
1000
,
0000
0001
0000
1000
,
0000
0010
0010
0010
,
0000
0100
0100
0100
,
0000
0001
0001
0001
,
0000
1001
0110
1001
,
0000
2000
3000
1000
,
0000
0010
1000
0010
,
0000
0200
0300
0100
,
0000
0100
0001
0100
,
0000
0020
0030
0010
,
0000
0010
1000
0010
,
0000
0100
0000
0010
,
0000
2002
0000
3003
,
0000
0010
0000
0100
,
0000
1000
1000
1000
,
0000
0001
0000
1000
,
0000
0001
0001
0001
,
0002
0000
0000
0003
,
0000
0010
0000
0000
,
0000
1000
0000
0000
,
0000
0010
0000
0000
,
0000
0100
0000
0000
,
0000
0001
0000
0000
,
0000
1000
0000
0000
,
0000
0110
1001
0110
,
0000
0002
0003
0001
,
0000
0100
0001
0100
,
0000
0020
0030
0010
,
0000
0010
1000
0010
,
0000
0200
0300
0100
,
0000
0100
0001
0100
,
0000
0010
0000
0100
,
0000
0220
0000
0330
,
0000
0020
0030
0010
,
0000
0001
1000
0001
,
0000
0002
0003
0001
,
0000
1000
0010
1000
,
0000
0200
0300
0100
,
0000
0010
0000
0010
,
0000
1000
0001
1000
,
0000
0220
0000
0330
,
0000
0010
0000
0100
,
0000
0010
0010
0010
,
0000
1000
0000
0001
,
0000
1000
1000
1000
,
0000
0010
0000
1000
,
0000
0001
0001
0001
,
0000
0100
0000
0010
,
0000
0100
0100
0100
,
0110
0000
0000
0000
,
0100
0000
0000
0000
,
0001
0000
0000
0000
,
1000
0000
0000
0000
;

//---------------dance-single - ----------------
#NOTES:
     dance-single:
     :
     Medium:
     8:
     0.326,0.307,0.175,0.205,0.019:
0000
0000
0000
0000
,
0000
0000
0000
0000
,
0000
0000
0000
0000
,
0000
0000
0000
0000
,
1000
0010
0100
0010
1000
0000
0000
0000
,
1000
0010
1000
0000
,
0001
0100
1000
0100
0001
0000
0000
0000
,
0001
0001
0100
0000
,
0010
0100
0010
0100
0001
0000
0000
0000
,
0001
0100
0001
0000
,
0100
0010
1000
0010
0100
0000
0000
0000
,
0010
1000
0010
0000
,
0000
1000
0100
2000
,
3100
0001
0010
0002
,
0013
1000
0001
2000
,
3001
0000
0000
0010
0000
0000
0200
0000
0000
0000
0000
0000
0300
0000
0000
0000
,
0000
0001
0010
0002
,
0013
1000
0100
2000
,
3100
0001
1000
0002
,
1003
0001
1000
0000
0001
1000
0001
0000
,
0001
0010
0001
0200
,
0301
0100
0001
0000
0100
0001
0100
0000
,
1000
0010
0001
2000
,
3001
1000
0010
0000
1000
0001
0100
0000
,
0010
0010
0100
0020
,
0130
0000
0000
0010
1000
0010
1000
0001
,
0100
0000
0000
0001
1000
0001
1000
0010
,
0100
2002
0000
3003
,
0000
0100
0001
0100
,
0000
0110
1001
0110
,
0000
0010
0010
0100
,
0000
1010
0101
1010
,
2000
0000
0000
0000
,
3020
0000
0000
0230
0000
0000
0300
0000
,
0020
0000
0000
0230
0000
0000
0300
0000
,
0010
1000
0001
1000
,
1001
0001
0000
0001
,
0100
0010
0100
0000
0010
0000
0000
0000
,
0000
1000
0000
1000
,
0001
1000
0010
0000
1000
0001
0100
0000
,
1000
0100
1000
0020
,
1030
0010
1000
0000
0010
1000
0010
0000
,
0001
0100
1000
0002
,
1003
0001
0100
0000
0001
1000
0010
0000
,
0100
0100
0010
0200
,
0310
0000
0000
0100
0001
0100
0001
1000
,
0010
0000
0000
1000
0001
1000
0001
0100
,
0010
2002
0000
3003
,
0001
1000
1000
0020
,
0130
0010
0100
0000
0001
0100
0001
0000
,
0100
0001
0100
2000
,
3001
1000
0001
0000
0100
0001
1000
0000
,
0010
0010
0001
2000
,
3001
0000
0000
1000
0100
0010
0010
1000
,
0001
0000
0000
0100
0001
1000
0100
1000
,
0001
0202
0000
0303
,
0000
0010
1000
0010
,
0000
0110
1001
0110
,
0000
0100
0100
0010
,
0000
0101
1010
0101
,
0000
0010
0100
1000
,
0000
1100
0011
1100
,
0000
0001
1000
0001
,
0000
1001
0110
1001
,
1001
0000
0000
0010
0000
0000
0100
0000
0001
0000
0000
0000
0000
0000
0000
0000
,
1000
0000
0000
1000
0000
0000
1000
0000
0000
0000
0000
0000
0000
0000
0000
0000
,
1000
0000
0000
0010
0000
0000
1000
0000
0001
0000
0000
0000
0000
0000
0000
0000
,
0010
0000
0000
0010
0000
0000
0010
0000
0000
0000
0000
0000
0000
0000
0000
0000
;

//---------------dance-single - ----------------
#NOTES:
     dance-single:
     :
     Hard:
     12:
     0.447,0.460,0.304,0.288,0.091: // measure 1
0000
0000
0000
0000
,  // measure 2
0000
0000
0000
0000
,  // measure 3
0000
0000
0000
0000
,  // measure 4
0000
0000
0000
0110
,  // measure 5
1000
0100
0010
0100
1000
0000
0010
0000
,  // measure 6
0001
0000
0000
0100
0000
0000
0001
0000
0000
0000
0000
0000
0010
0000
0000
0000
,  // measure 7
0001
0100
1000
0100
0001
0000
0010
0000
,  // measure 8
1000
0000
0000
1000
0000
0000
1000
0000
0000
0000
0010
0000
0010
0000
0000
0000
,  // measure 9
0001
0010
0100
0010
0001
0000
0100
0000
,  // measure 10
1000
0000
0000
0010
0000
0000
1000
0000
0000
0000
0000
0000
0100
0000
0000
0000
,  // measure 11
1000
0010
0001
0010
1000
0000
0100
0000
,  // measure 12
0001
0000
0000
0001
0000
0000
0001
0000
0000
0000
0010
0000
0100
0000
0010
0000
,  // measure 13
0110
0000
0010
0001
0010
1000
0010
0000
,  // measure 14
0110
0000
1000
0001
1000
0010
0100
0000
,  // measure 15
0101
0000
0001
0010
0100
1000
1000
0000
,  // measure 16
1001
0000
0000
0001
0000
0000
2000
0000
0000
0000
0010
0000
3010
0000
0000
0000
,  // measure 17
0000
0000
0100
1000
0100
0001
0100
0000
,  // measure 18
0000
0000
0001
1000
0001
0100
0010
0000
,  // measure 19
0000
0000
1000
0100
0010
0001
0001
0100
,  // measure 20
0100
0010
0010
1000
1000
0001
0001
1000
,  // measure 21
2010
3010
0010
0220
,  // measure 22
0330
0010
0100
0010
1000
0001
0100
0001
,  // measure 23
0102
0103
0010
0220
,  // measure 24
0330
0100
0100
0001
1000
0010
0010
0100
,  // measure 25
0210
0310
0010
2020
,  // measure 26
3030
0000
0000
1000
0010
0001
0010
1000
,  // measure 27
0010
0000
0000
0001
0100
1000
0100
0001
,  // measure 28
0100
0220
0000
0330
,  // measure 29
1000
0001
1000
0000
0001
1000
0001
0000
0100
0000
0010
0000
0100
0000
0000
0000
,  // measure 30
0100
1010
0010
0101
,  // measure 31
0001
0100
0010
0000
1000
0010
0100
0000
0010
0000
1000
0000
0001
0000
0000
0000
,  // measure 32
0001
0101
0010
0110
,  // measure 33
1001
0000
0000
0000
,  // measure 34
0002
0000
0000
0200
0000
0000
0303
0000
,  // measure 35
0010
0000
0000
0100
0000
0000
0010
0000
1000
0000
0000
0000
0000
0000
0000
0000
,  // measure 36
2000
0000
0000
0020
0000
0000
3030
0000
,  // measure 37
1000
0000
0000
0010
0000
0000
0100
0000
0010
0000
0000
0000
0100
0000
0000
0000
,  // measure 38
1000
1000
0001
0001
0010
0000
0100
0000
,  // measure 39
0001
0000
0000
0100
0000
0000
0010
0000
0100
0000
0000
0000
0100
0000
0010
0000
,  // measure 40
0010
0100
0100
0001
0001
1000
1000
0001
,  // measure 41
0102
0103
0100
0220
,  // measure 42
0330
0100
0010
0100
0001
1000
0010
1000
,  // measure 43
2010
3010
0100
0220
,  // measure 44
0330
0010
0010
1000
0001
0100
0100
0010
,  // measure 45
0120
0130
0100
0202
,  // measure 46
0303
0000
0000
0001
0100
1000
0100
0001
,  // measure 47
0100
0000
0000
1000
0010
0001
0010
1000
,  // measure 48
0010
0220
0000
0330
,  // measure 49
1200
1300
1000
2020
,  // measure 50
3030
1000
0010
1000
0100
0001
0010
0001
,  // measure 51
0012
0013
1000
2020
,  // measure 52
3030
0010
0010
0001
0100
1000
1000
0010
,  // measure 53
1020
1030
1000
2200
,  // measure 54
3300
0000
0000
0100
1000
0001
1000
0100
,  // measure 55
1000
0000
0000
0001
0010
0100
0010
0001
,  // measure 56
0010
2002
0000
3003
,  // measure 57
0001
1000
0001
0000
1000
0001
1000
0000
0010
0000
0100
0000
0010
0000
0000
0000
,  // measure 58
0010
0101
0100
1010
,  // measure 59
1000
0010
0100
0000
0001
0100
0010
0000
0100
0000
0001
0000
1000
0000
0000
0000
,  // measure 60
1000
1010
0100
0110
,  // measure 61
1000
0100
1000
0000
0010
0100
0010
0000
1000
0000
0001
0000
0010
0000
0000
0000
,  // measure 62
0010
0101
0010
0110
,  // measure 63
0010
0100
0010
0000
0001
1000
0001
0000
1000
0000
0010
0000
1000
0000
0000
0000
,  // measure 64
1000
1010
0010
0101
,  // measure 65
1001
0000
0000
0001
0000
0000
1000
0000
0010
0000
0000
0000
0000
0000
0000
0000
,  // measure 66
0010
0000
0000
0010
0000
0000
0010
0000
0000
0000
0000
0000
0000
0000
0000
0000
,  // measure 67
0100
0000
0000
0010
0000
0000
0100
0000
0010
0000
0000
0000
0000
0000
0000
0000
,  // measure 68
1000
0000
0000
1000
0000
0000
1000
0000
0000
0000
0000
0000
0000
0000
0000
0000
;
