#TITLE:Greek Tragedy (Oliver Nelson Remix);
#SUBTITLE:;
#ARTIST:The Wombats;
#TITLETRANSLIT:;
#SUBTITLETRANSLIT:;
#ARTISTTRANSLIT:;
#CREDIT:;
#BANNER:Greek Tragedy (Oliver Nelson Remix).png;
#BACKGROUND:Greek Tragedy (Oliver Nelson Remix)-bg.png;
#LYRICSPATH:;
#CDTITLE:;
#MUSIC:Greek Tragedy (Oliver Nelson Remix).mp3;
#OFFSET:-0.060;
#SAMPLESTART:76.320;
#SAMPLELENGTH:15.000;
#SELECTABLE:YES;
#BPMS:0.000=112.000;
#STOPS:;
#BGCHANGES:;

//---------------dance-single - ----------------
#NOTES:
     dance-single:
     :
     Easy:
     4:
     0.192,0.294,0.123,0.199,0.000:
0000
0000
0000
0000
,
0000
0000
0000
0000
,
0000
0000
0000
0000
,
0000
0000
0000
0000
,
0000
0000
0000
0000
,
0000
0000
0000
0000
,
0000
0000
0000
0000
,
0000
0000
0000
0000
,
0000
0010
0000
0010
,
0000
0010
0110
1001
,
0000
0001
0000
0001
,
0000
1000
0000
1000
,
0000
0010
0000
1000
,
0000
0010
1010
0101
,
0000
0010
0000
0001
,
0000
0100
0000
1000
,
0000
0000
0010
1000
,
0001
0100
0010
0100
,
0001
1000
1000
0001
,
1000
0010
0100
0010
,
0110
0000
1000
0010
,
0100
0010
1000
0010
,
0001
0010
1000
0001
,
0100
1000
0100
0001
,
2002
3003
0010
0100
,
0010
0000
0110
1001
,
0110
0000
1000
0001
,
1000
0000
0001
0100
,
2020
3030
0100
0010
,
0001
0000
1010
0101
,
1010
0000
0010
0100
,
0001
0000
0001
0100
,
2200
0000
3300
1000
,
1000
0000
0010
0100
,
0020
0000
0030
0000
,
0020
0000
0030
0100
,
0002
0000
0003
0001
,
0100
0000
0010
0100
,
2000
0000
3000
0010
,
1000
0010
0100
0001
,
0102
0100
0103
0001
,
0000
1000
0000
0010
,
1000
2002
0000
3003
,
0000
0010
0000
0100
,
0000
0001
0010
1000
,
0000
0010
0000
0100
,
0000
1000
0001
1000
,
0000
0010
0000
0100
,
0010
0100
0010
0100
,
0001
1000
0001
1000
,
1000
0010
1000
0010
,
0001
0100
0001
0100
,
0010
1000
0100
1000
,
0001
0100
0001
0100
,
2000
3200
0320
0032
,
0023
0000
0130
0000
,
2020
0000
3030
0000
,
0020
0000
0030
0000
,
2000
0000
3000
0000
,
0002
0000
0003
0000
,
2000
0000
3000
0000
,
0020
0000
0030
0000
,
2000
0000
3000
0000
,
0020
0000
0030
0000
,
0220
0000
0000
0000
,
0000
0000
0000
0000
,
0330
0000
0000
0000
;

//---------------dance-single - ----------------
#NOTES:
     dance-single:
     :
     Beginner:
     2:
     0.124,0.136,0.021,0.062,0.000:
0000
0000
0000
0000
,
0000
0000
0000
0000
,
0000
0000
0000
0000
,
0000
0000
0000
0000
,
0000
0000
0000
0000
,
0000
0000
0000
0000
,
0000
0000
0000
0000
,
0000
0000
0000
0000
,
0000
0001
0000
1000
,
0000
0001
0000
1000
,
0000
0010
0000
0100
,
0000
0010
0000
0100
,
0000
0001
0000
1000
,
0000
0010
0000
0100
,
0000
0010
0000
1000
,
0000
0010
0000
1000
,
0000
0010
0010
0010
,
0000
1000
1000
1000
,
0000
0001
0001
0001
,
0000
0001
0001
0001
,
0000
0100
0100
0100
,
0000
0010
0010
0010
,
0000
1000
1000
1000
,
0000
0001
0001
0001
,
0000
1001
0000
0010
,
0000
1000
0000
0010
,
0000
1000
0000
0001
,
0000
0100
0000
0001
,
0000
0110
0000
0010
,
0000
0100
0000
0010
,
0000
1000
0000
0001
,
0000
0100
0000
0001
,
0002
0000
0003
0000
,
2000
0000
3000
0000
,
2000
0000
3000
1000
,
0000
0100
0000
0100
,
0200
0000
0300
0000
,
0020
0000
0030
0000
,
2000
0000
3000
0000
,
0002
0000
0003
0001
,
0000
0001
0000
0100
,
0000
0010
0000
1000
,
0000
0100
0000
1000
,
0000
0010
0000
0100
,
0000
0010
0000
1000
,
0000
0001
0000
0001
,
0000
0100
0000
0010
,
0000
1000
0000
0010
,
0000
1000
0010
1000
,
0000
0010
0100
0010
,
0000
0001
0100
0001
,
0000
0100
0010
0100
,
0000
0010
0100
0010
,
0000
0001
1000
0001
,
0000
1000
0010
1000
,
0000
0010
0100
0010
,
0000
0000
0000
0000
,
0010
0000
0000
0000
,
0100
0000
0000
0000
,
0001
0000
0000
0000
,
1000
0000
0000
0000
,
0010
0000
0000
0000
,
1000
0000
0000
0000
,
0001
0000
0000
0000
,
2002
0000
0000
0000
,
0000
0000
0000
0000
,
3003
0000
0000
0000
;

//---------------dance-single - ----------------
#NOTES:
     dance-single:
     :
     Medium:
     6:
     0.199,0.339,0.062,0.226,0.007:
0000
0000
0000
0000
,
0000
0000
0000
0000
,
0000
0000
0000
0000
,
0000
0000
0000
0000
,
0000
0000
0000
0000
,
0000
0000
0000
0000
,
0000
0000
0000
0000
,
0000
0000
0000
0000
,
2000
0000
3000
1000
,
0010
0000
0100
0010
,
0200
0000
0300
0000
,
0200
0000
0000
0300
0000
0010
0000
0000
,
0002
0000
0003
0001
,
0100
0000
0010
0100
,
0020
0000
0030
0000
,
0020
0000
0000
0030
0000
0100
0000
0000
,
0000
0000
1000
0010
1000
0000
0001
0100
,
0010
0000
0100
0010
0100
0000
0001
1000
,
0010
0000
0010
0100
0010
0000
1000
0100
,
0010
0000
0100
0010
0001
0000
0100
0000
,
0000
0000
0001
0100
0001
0000
1000
0010
,
0100
0000
0010
0100
0010
0000
1000
0001
,
0100
0000
0100
0010
0100
0000
0001
0010
,
0100
0000
0010
0100
1000
0000
0010
0000
,
0200
0000
0300
0010
,
0100
0000
0011
1100
,
0002
0000
0000
0003
0000
0000
0000
0000
,
2000
0000
0000
3000
0000
0010
0000
0000
,
0200
0000
0300
0010
,
1000
0000
1010
0101
,
0002
0000
0000
0003
0000
0000
0000
0000
,
2000
0000
0000
3000
0000
0001
0000
0000
,
0020
0000
0030
0100
,
0010
0000
1100
0011
,
2000
0000
0000
3000
0000
0000
0000
0000
,
0002
0000
0000
0003
0000
0100
0000
0000
,
0020
0100
0030
0100
,
0001
0000
0101
1010
,
2000
0000
0010
3000
0000
0000
1000
0000
,
0002
0000
0000
0003
0000
1000
0000
0000
,
0000
0000
1000
0000
0000
1000
0000
0000
1000
0000
0000
0000
0010
0000
0000
0000
,
0000
0000
1000
0000
0000
0010
0000
0000
0001
0000
0000
0000
0010
0000
0000
0000
,
0000
0010
1000
0010
,
0100
0001
0100
0001
,
0000
0001
1000
0100
,
1000
0010
0100
0010
,
0000
0001
0100
0001
,
0100
0010
0100
0010
,
0000
1000
0001
0100
,
1000
0001
0100
0001
,
0000
0100
0010
0001
,
1000
0001
1000
0001
,
0000
0100
0010
0100
,
0010
1000
0001
0100
,
0002
0203
0320
2030
,
3002
1000
2003
0001
,
3002
0000
0000
0000
,
0023
0000
0000
0000
,
0230
0000
0000
0000
,
2300
0000
0000
0000
,
3200
0000
0000
0000
,
0320
0000
0000
0000
,
0032
0000
0000
0000
,
0003
0000
0000
0000
,
2002
0000
0000
0000
,
0000
0000
0000
0000
,
3003
0000
0000
0000
;

//---------------dance-single - ----------------
#NOTES:
     dance-single:
     :
     Hard:
     10:
     0.322,0.429,0.157,0.301,0.144: // measure 1
0000
0000
0000
0000
,  // measure 2
0000
0000
0000
0000
,  // measure 3
0000
0000
0000
0000
,  // measure 4
0000
0000
0000
0000
,  // measure 5
0220
0000
0000
0330
0000
0000
0010
0000
,  // measure 6
0100
0000
0001
0010
,  // measure 7
1200
0000
0000
1300
0000
0000
0000
0000
,  // measure 8
0021
0000
0000
0000
0000
0000
0031
0000
0000
0000
1000
0000
0001
1000
0010
0000
,  // measure 9
1000
0000
0000
0010
1000
0000
0010
0000
1000
0000
0001
0000
0100
0000
0001
0000
,  // measure 10
0010
0000
0000
0010
0001
0000
0010
0000
0001
0000
0100
0000
0010
0000
1000
0000
,  // measure 11
1002
0000
0000
0103
0000
0000
0010
0000
,  // measure 12
0210
0000
0000
0310
0000
0010
0000
0000
,  // measure 13
0001
0000
0000
0100
0001
0000
0100
0000
0001
0000
1000
0000
0010
0000
1000
0000
,  // measure 14
0100
0000
0000
0100
1000
0000
0100
0000
1000
0000
0010
0000
0100
0000
0001
0000
,  // measure 15
2001
0000
0000
3010
0000
0000
0100
0000
,  // measure 16
0120
0000
0000
0000
0000
0000
0130
0000
0000
0000
0100
0000
0010
0100
0001
0000
,  // measure 17
2010
0000
0000
0000
3010
0000
1000
0000
0010
0000
0000
1000
0000
0000
0001
0000
,  // measure 18
0000
0100
0000
0000
0010
0000
0100
0000
0110
0000
0000
0100
0000
0000
0001
0000
,  // measure 19
0000
0000
0000
0000
1000
0000
0010
0000
0100
0000
0000
0010
0000
0000
0100
0000
,  // measure 20
0000
0001
0000
0000
0001
0000
0000
0001
1000
0000
0000
0001
1000
0000
0000
0000
,  // measure 21
0102
0000
0000
0000
0103
0000
0001
0000
0100
0000
0000
0001
0000
0000
1000
0000
,  // measure 22
0000
0010
0000
0000
0100
0000
0010
0000
0110
0000
0000
0010
0000
0000
1000
0000
,  // measure 23
0000
0000
0000
0000
0001
0000
0100
0000
0010
0000
0000
0100
0000
0000
0010
0000
,  // measure 24
0000
1000
0000
0000
1000
0000
0000
1000
0001
0000
0000
1000
0001
0000
0000
0000
,  // measure 25
0002
0000
0000
0000
0000
0000
0103
0001
0000
0100
0000
0010
0100
0000
0010
0000
,  // measure 26
0000
0000
0000
0000
0010
0000
1000
0010
0000
0100
0000
0010
0100
0000
0000
0000
,  // measure 27
1000
0000
0000
0001
1000
0001
0000
0010
0100
0010
0100
0000
0010
0000
0100
0000
,  // measure 28
0000
0001
0000
0000
1000
0000
0010
0000
0100
0000
0001
1000
0001
0000
0000
0000
,  // measure 29
2010
0000
0000
0000
3010
0000
0000
0000
0100
0000
0000
0001
0000
0000
1000
0000
,  // measure 30
0000
0010
0000
0000
0100
0000
0010
0000
0110
0000
0000
0010
0000
0000
1000
0000
,  // measure 31
0000
0000
0000
0000
0001
0000
0100
0000
0010
0000
0000
0100
0000
0000
0010
0000
,  // measure 32
0000
1000
0000
0000
1000
0000
0000
1000
0001
0000
0000
1000
0001
0000
0000
0000
,  // measure 33
2010
0000
0000
0010
3010
0000
0100
0000
,  // measure 34
0120
0000
0000
0000
0130
0000
0100
0020
,  // measure 35
0100
0000
0000
0030
0000
0000
0000
0000
,  // measure 36
0210
0000
0000
0300
0000
0001
0010
0100
,  // measure 37
2010
0000
0010
3000
0000
0000
0010
0000
,  // measure 38
2001
0010
3001
0001
,  // measure 39
0102
0000
1000
0003
0000
0000
0001
0000
,  // measure 40
1000
0000
0001
0000
1000
0001
1000
0000
0010
0000
0100
0000
0010
0100
0010
0100
,  // measure 41
0020
0100
0100
0130
,  // measure 42
2000
0100
0100
3100
,  // measure 43
0002
0010
0010
0013
,  // measure 44
0020
0100
0100
0130
,  // measure 45
0200
0001
0001
0301
,  // measure 46
0002
1000
1000
1003
,  // measure 47
2000
0100
0100
3100
,  // measure 48
0200
0010
0010
0310
,  // measure 49
0200
0010
0010
0310
,  // measure 50
0002
0010
0010
0013
,  // measure 51
2000
0100
0100
3100
,  // measure 52
0200
0010
0010
0310
,  // measure 53
0020
1000
1000
1030
,  // measure 54
2000
0001
0001
3001
,  // measure 55
0002
0010
0010
0013
,  // measure 56
0020
0100
0100
0130
,  // measure 57
2001
0000
0000
0000
,  // measure 58
3002
0000
0000
0000
,  // measure 59
2003
0000
0000
0000
,  // measure 60
3000
0000
0000
0000
,  // measure 61
0220
0000
0000
0000
,  // measure 62
0330
0000
0000
0000
,  // measure 63
2002
0000
0000
0000
,  // measure 64
3003
0000
0000
0000
,  // measure 65
0220
0000
0000
0000
,  // measure 66
0000
0000
0000
0000
,  // measure 67
0330
0000
0000
0000
;
