#TITLE:Good Ones;
#SUBTITLE:;
#ARTIST:Charli XCX;
#TITLETRANSLIT:;
#SUBTITLETRANSLIT:;
#ARTISTTRANSLIT:;
#CREDIT:;
#BANNER:Good Ones.png;
#BACKGROUND:Good Ones-bg.png;
#LYRICSPATH:;
#CDTITLE:;
#MUSIC:Good Ones.mp3;
#OFFSET:0.340;
#SAMPLESTART:103.820;
#SAMPLELENGTH:15.000;
#SELECTABLE:YES;
#BPMS:0.000=129.000;
#STOPS:;
#BGCHANGES:;

//---------------dance-single - ----------------
#NOTES:
     dance-single:
     :
     Easy:
     5:
     0.260,0.311,0.064,0.214,0.000: // measure 1
0000
0000
0000
0000
,  // measure 2
0000
0000
0000
0000
,  // measure 3
0010
0000
0010
0000
,  // measure 4
0100
0000
0100
0000
,  // measure 5
0001
0000
0001
0000
,  // measure 6
1000
0000
2000
3000
,  // measure 7
1000
0000
0100
0000
,  // measure 8
0010
0000
0020
0030
,  // measure 9
0010
0000
0001
0000
,  // measure 10
0001
0000
0100
0000
,  // measure 11
1000
0000
0001
1000
,  // measure 12
0001
0000
0000
0000
,  // measure 13
0000
0000
0100
0010
,  // measure 14
0100
0010
0002
0103
,  // measure 15
0000
0000
1000
0010
,  // measure 16
0001
0010
2000
3001
,  // measure 17
0000
0010
1000
0010
,  // measure 18
0001
0010
0200
0310
,  // measure 19
0000
0100
0010
0100
,  // measure 20
2002
0000
3003
0000
,  // measure 21
0000
0010
1000
0010
,  // measure 22
1000
0001
0100
0001
,  // measure 23
0000
0001
0100
0010
,  // measure 24
1000
0010
0100
0001
,  // measure 25
0000
1000
0010
0100
,  // measure 26
0010
1000
0001
0000
,  // measure 27
1000
0100
0010
0001
,  // measure 28
0002
0000
0003
0000
,  // measure 29
0001
0010
0100
1000
,  // measure 30
2000
0000
3000
0000
,  // measure 31
2001
3000
1000
0010
,  // measure 32
0100
0010
0001
0100
,  // measure 33
0001
0010
0001
1000
,  // measure 34
0010
1000
0100
1000
,  // measure 35
1002
0003
0001
0100
,  // measure 36
0010
1000
0010
0100
,  // measure 37
0001
0100
0010
1000
,  // measure 38
0100
1000
0010
0100
,  // measure 39
0202
0000
0000
0000
,  // measure 40
0000
0303
0020
0130
,  // measure 41
0000
0000
0010
0100
,  // measure 42
0010
0100
2000
3010
,  // measure 43
0000
0000
0001
0100
,  // measure 44
1000
0100
0002
1003
,  // measure 45
0000
0100
0001
0100
,  // measure 46
0000
0110
0000
0100
,  // measure 47
0000
0010
0100
0010
,  // measure 48
0001
0010
0100
0001
,  // measure 49
0000
0100
0001
0100
,  // measure 50
0001
1000
0010
1000
,  // measure 51
0000
1000
0010
0100
,  // measure 52
0001
0100
0010
0000
,  // measure 53
1000
0001
0100
0010
,  // measure 54
0020
0000
0030
0000
,  // measure 55
0001
0010
0100
1000
,  // measure 56
2000
0000
3000
0000
,  // measure 57
1002
0003
0001
0100
,  // measure 58
0010
0100
1000
0010
,  // measure 59
1000
0100
1000
0001
,  // measure 60
0100
0001
0010
0001
,  // measure 61
2001
3000
1000
0010
,  // measure 62
0100
0001
0100
0010
,  // measure 63
1000
0010
0100
0001
,  // measure 64
0010
0001
0100
0101
,  // measure 65
0002
1000
1000
1003
,  // measure 66
2000
0010
0010
3010
,  // measure 67
0020
0100
0100
0130
,  // measure 68
0200
0010
0010
0310
,  // measure 69
2000
0001
0001
3001
,  // measure 70
0002
0100
0100
0103
,  // measure 71
0200
0010
0010
0310
,  // measure 72
0020
0100
0100
0130
,  // measure 73
2002
0000
3003
0000
;

//---------------dance-single - ----------------
#NOTES:
     dance-single:
     :
     Beginner:
     2:
     0.179,0.233,0.064,0.136,0.000:
0000
0000
0000
0000
,
0000
0000
0000
0000
,
0000
0000
0000
0000
,
0000
0000
0000
0000
,
1000
0000
0000
0000
,
0010
0000
0000
0000
,
1000
0000
0000
0000
,
0001
0000
0000
0000
,
0100
0000
0000
0000
,
0001
0000
0000
0000
,
1000
0000
0000
0000
,
1001
0000
0000
0000
,
0000
0010
0010
0010
,
0000
1000
0000
1000
,
0000
0100
0100
0100
,
0000
0001
0000
0001
,
0000
1000
1000
1000
,
0000
0010
0000
0010
,
0000
0001
0001
0001
,
0000
0100
0000
0100
,
0200
0000
0300
0000
,
0020
0000
0030
0000
,
2000
0000
3000
0000
,
0002
0000
0003
0000
,
0200
0000
0300
0000
,
0002
0000
0003
0000
,
2000
0000
3000
0000
,
0020
0000
0030
0000
,
2000
0000
3000
0000
,
0002
0000
0003
0000
,
0000
0010
0100
0010
,
0000
0100
0010
0100
,
0000
0001
1000
0001
,
0000
1000
0001
1000
,
0000
0010
1000
0010
,
0000
0100
0001
0100
,
0000
0010
1000
0010
,
0000
1000
0001
0000
,
2002
0000
0000
0000
,
0000
0000
0000
3003
,
0000
1000
1000
1000
,
0000
0010
0010
0010
,
0000
1000
1000
1000
,
0000
0001
0001
0001
,
0000
0100
0100
0100
,
0000
0010
0010
0010
,
0000
0001
0000
0001
,
0000
0010
0010
0010
,
0000
1000
0000
1000
,
0000
0001
0001
0001
,
0000
0100
0000
0100
,
0000
1000
1000
1000
,
0000
0010
0000
0010
,
0020
0000
0030
0000
,
2002
0000
0000
0000
,
3003
0220
0000
0330
,
0000
0100
0010
0100
,
0000
0010
0100
0010
,
0000
1000
0001
1000
,
0000
0001
1000
0001
,
0000
0100
0001
0100
,
0000
0010
1000
0010
,
0000
0100
0001
0100
,
0000
0001
1000
0001
,
0000
1000
0100
1000
,
0000
0100
1000
0100
,
0000
0110
0000
0110
,
0000
0001
0010
0001
,
0000
1000
0001
1000
,
0000
0100
0010
0100
,
0000
1001
0000
1001
,
0000
0100
0010
0100
,
0220
0000
0330
0000
;

//---------------dance-single - ----------------
#NOTES:
     dance-single:
     :
     Medium:
     7:
     0.329,0.363,0.064,0.071,0.000:
0000
0000
0000
0000
,
0000
0000
0000
0000
,
0010
0000
0100
0000
,
1000
0000
0010
0000
,
0001
0000
1000
0010
0001
0010
1000
0001
,
0000
0100
0010
0100
,
0000
0000
0000
1000
0010
1000
0001
1000
,
0000
0001
1000
0001
,
0000
0000
0000
1000
0010
0100
0010
1000
,
0000
0100
0001
0100
,
0000
0000
0010
1000
0010
0000
0100
0000
,
1001
0000
0000
0000
,
0010
0000
0100
0000
0010
1000
0010
0000
,
0100
0000
0001
0000
1000
0001
1000
0000
,
0010
0000
0100
0000
0010
0100
1000
0000
,
1000
0000
0001
0000
0100
0010
0001
0000
,
0001
0000
1000
0000
0001
0100
0001
0000
,
1000
0000
0010
0000
1000
0010
0100
0000
,
0010
1000
0001
1001
,
0220
0000
0330
0010
,
0000
0100
0000
0001
,
0000
1000
0000
1000
,
0000
0010
0000
0100
,
0000
0001
0000
0001
,
0000
0001
1000
0001
1000
0001
0010
0000
,
0010
1000
0010
1000
0001
0000
0000
0100
,
0010
0100
0010
0100
0010
0000
1000
0000
,
2000
0000
0000
0000
3000
0000
0000
0001
,
1000
0010
1000
0001
1000
0000
0001
0000
,
0002
0000
0003
0000
,
0001
0100
0010
0000
1000
0010
0100
0000
,
0100
0010
0100
0000
0010
1000
0001
0000
,
0100
0010
1000
0000
0001
0100
0010
0000
,
0100
0010
0100
0000
0010
0100
0010
0000
,
0001
0010
0100
0000
0010
0100
1000
0000
,
1000
0100
0010
0000
0100
0010
0001
0000
,
1000
0010
1000
0000
0001
0100
1000
0000
,
0010
0100
0001
0000
0100
0000
0010
0000
,
0200
0000
0000
0000
,
0320
0000
0000
0000
,
0130
0000
0010
0000
0100
0001
0100
0000
,
0010
0000
1000
0000
0001
1000
0001
0000
,
0100
0000
0010
0000
0100
0010
0001
0000
,
0001
0000
1000
0000
0010
0100
1000
0000
,
1000
0000
0001
0000
1000
0010
1000
0000
,
0001
0101
0000
0010
,
0100
0001
1000
0010
,
1001
0000
1000
0000
0001
0000
0001
1000
,
0010
0000
0100
0000
0010
0000
0010
0100
,
0010
0000
1000
0000
0010
0000
0100
0001
,
0010
0000
0010
0000
0100
0000
1000
0001
,
1000
0000
0100
0000
0010
0000
0001
0100
,
0001
0000
0001
0000
1000
0000
0010
0001
,
1000
1000
0010
0010
,
0200
0000
0000
0000
,
0302
0000
0000
0003
,
0001
0010
0100
0000
0001
0100
0010
0000
,
0010
0100
0010
0000
0100
0001
1000
0000
,
0010
0100
0001
0000
1000
0010
0100
0000
,
0010
0100
0010
0000
0100
0010
0100
0000
,
1000
0100
0010
0000
0100
0010
0001
0000
,
0001
0010
0100
0000
0010
0100
1000
0000
,
0001
0100
0001
0000
1000
0010
0001
0000
,
0100
0010
1000
0000
0010
0000
0110
0000
,
1001
0010
1000
0010
,
1000
0001
0100
0001
,
1000
0010
0100
0010
,
1000
0001
0100
0001
,
1001
0001
0010
0100
,
1000
0010
0100
0001
,
0100
1000
0100
0001
,
1000
0001
0010
0001
,
0202
0000
0303
0000
;

//---------------dance-single - ----------------
#NOTES:
     dance-single:
     :
     Hard:
     11:
     0.512,0.648,0.172,0.708,0.000:
0000
0000
0000
0000
,
0000
0000
0000
0000
,
1000
0010
0100
0010
1000
0010
0100
0001
,
0010
0100
0001
0100
,
0001
0000
0000
0001
0100
0010
1000
0010
,
0000
0000
0000
0010
0100
0000
0110
0000
,
0000
0000
0000
1000
0100
0010
0001
1000
,
0000
0000
0000
1000
0001
0000
1001
0000
,
0000
0000
0000
0010
0100
0010
0100
0010
,
1000
0010
0100
0001
0010
0000
0000
0010
,
1000
0100
0001
0100
0001
0000
0100
0000
,
0101
0000
0000
0000
,
1001
0000
0000
1000
0010
0100
0010
0001
,
0000
0001
0100
0001
0100
0000
0010
0000
,
1010
0000
0000
0001
0010
0100
1000
0010
,
0000
1000
0010
1000
0010
0000
0100
0000
,
0110
0000
0000
0010
0001
0100
1000
0010
,
1000
0010
0001
0010
1000
0000
0000
0001
,
0100
1000
0100
0001
1000
0000
1000
0000
,
1001
0000
0000
0000
0000
0100
0001
0010
,
0001
0001
0100
0100
,
1000
0000
1000
0000
0010
1000
0010
0001
,
0010
0010
0100
0100
,
0001
0000
0001
0000
0010
1000
0010
0001
,
1000
1000
0010
0010
,
0100
0010
1000
0100
0010
0000
0000
0100
,
0010
0001
0010
0100
0001
0000
0100
0000
,
0101
0000
0000
0000
0000
0000
0000
0001
,
0010
0100
1000
0010
0100
0000
0001
0000
,
2000
3020
0230
0302
0000
0203
0320
2030
,
0001
3002
0203
0320
0000
0230
0320
0230
,
0000
0320
2030
3002
0000
0203
0302
0203
,
0000
0320
0230
0320
0000
2030
3002
2003
,
0000
3100
0100
0010
0001
0000
0101
0000
,
0110
2000
3020
0230
0000
0320
0230
0320
,
0000
0230
0302
2003
0000
3020
2030
3020
,
0000
0230
0320
0230
0000
0302
2003
3002
,
0000
0013
0010
0100
1000
0000
2020
0000
,
0000
3030
0000
1000
0010
0001
0010
1000
,
0000
0000
0000
0001
0100
0000
0101
0000
,
1001
0000
0000
0001
0100
0010
0100
1000
,
0010
1000
0010
0100
0001
0000
0100
0000
,
0101
0000
0000
1000
0100
0010
0001
0100
,
0010
1000
0001
0100
0010
0000
0000
0010
,
0100
0010
1000
0001
0100
0000
0101
0000
,
0000
0000
1010
0000
0000
0010
1000
0010
,
2000
0001
0010
3001
,
0002
0100
1000
0103
,
0020
1000
0100
1030
,
2000
0001
0100
3001
,
0200
0010
0001
0310
,
0020
1000
1000
1030
,
2000
0001
0100
3001
,
2002
0000
0000
0000
0000
0000
3003
1000
,
0001
1000
0010
0100
0010
0000
0110
0000
,
0002
0203
0320
2030
0000
3020
0230
0302
,
1000
2003
3020
0230
0000
0320
0230
0320
,
0000
0230
0302
2003
0000
3020
2030
3020
,
0000
0230
0320
0230
0000
0302
2003
3002
,
0000
0013
0010
0100
1000
0000
1010
0000
,
0110
0002
0203
0320
0000
0230
0320
0230
,
0000
0320
2030
3002
0000
0203
0302
0203
,
0000
0320
0230
0320
0000
2030
3002
2003
,
0000
3100
0100
0010
0001
0000
0101
0000
,
0001
0100
0001
1000
0010
1000
0010
0100
,
0010
0100
0001
0010
0100
1000
0010
1000
,
0000
1000
0010
1000
0000
0001
0100
0010
,
0000
0100
0010
1000
0010
0000
1001
0000
,
1000
0010
1000
0001
0100
0001
0100
0010
,
0100
0010
1000
0100
0010
0001
0100
0001
,
0000
0001
0100
0001
0000
1000
0010
0100
,
0000
0010
0100
0001
0100
0000
1001
0000
,
0220
0000
0330
0000
;
