#TITLE:Given-Taken;
#SUBTITLE:;
#ARTIST:ENHYPEN;
#TITLETRANSLIT:;
#SUBTITLETRANSLIT:;
#ARTISTTRANSLIT:;
#CREDIT:;
#BANNER:Given-Taken.png;
#BACKGROUND:Given-Taken-bg.png;
#LYRICSPATH:;
#CDTITLE:;
#MUSIC:Given-Taken.mp3;
#OFFSET:-0.220;
#SAMPLESTART:45.200;
#SAMPLELENGTH:15.000;
#SELECTABLE:YES;
#BPMS:0.000=108.000;
#STOPS:;
#BGCHANGES:-0.620=Given-Taken.avi=1.000=0=0=0,
99999=-nosongbg-=1.000=0=0=0 // don't automatically add -songbackground-
;

//---------------dance-single - ----------------
#NOTES:
     dance-single:
     :
     Easy:
     4:
     0.253,0.300,0.124,0.387,0.000:
0000
0000
0000
0000
,
0000
0000
0000
0000
,
0000
0000
0000
0000
,
0000
0000
0000
0000
,
0100
0010
0100
0000
,
0001
1000
0010
0000
,
0100
0001
1000
0000
,
0001
0100
0001
0000
,
0020
0100
0130
0000
,
0002
0010
0013
0000
,
2000
0001
3001
0000
,
2000
0100
3100
0000
,
0200
0010
0310
0000
,
0020
0001
0031
0000
,
0002
1000
1003
0000
,
0001
1000
0010
0000
,
1000
0010
0110
0100
,
0001
0000
0001
1000
,
0001
0000
0010
1000
,
2000
0000
3000
1000
,
2002
3003
0100
0010
,
0202
0303
0010
1000
,
2020
3030
1000
0010
,
0100
0010
1000
0001
,
0202
0303
0001
0100
,
0220
0330
0010
1000
,
2002
3003
1000
0001
,
0100
0010
0100
0010
,
2000
0010
3010
0000
,
0020
0100
0130
0000
,
0200
0001
0301
0000
,
0002
1003
0000
0000
,
0200
1000
0000
1000
,
0000
0010
0000
0310
,
2002
3003
0001
1000
,
0001
0100
0010
0100
,
2002
3003
0010
0100
,
2020
3030
0100
0001
,
0202
0303
0001
0100
,
0010
0100
0001
1000
,
2020
3030
1000
0010
,
0220
0330
0100
0001
,
2002
3003
0001
1000
,
0010
0100
0010
0100
,
0002
0023
0230
2300
,
3000
1000
0000
0010
,
0100
0010
1000
0001
,
1000
0010
0100
0001
,
2000
3200
0320
0032
,
0003
0001
0100
1000
,
0100
0001
0100
0010
,
1000
0010
0100
0001
,
0101
0000
0000
0000
;

//---------------dance-single - ----------------
#NOTES:
     dance-single:
     :
     Beginner:
     2:
     0.158,0.193,0.066,0.124,0.000:
0000
0000
0000
0000
,
0000
0000
0000
0000
,
0000
0000
0000
0000
,
0000
0000
0000
0000
,
1001
0000
0010
0000
,
0100
0000
0000
0000
,
0110
0000
0100
0000
,
0010
0000
0000
0000
,
0002
0000
0003
0000
,
0020
0000
0030
0000
,
2000
0000
3000
0000
,
0200
0000
0300
0000
,
0020
0000
0030
0000
,
0002
0000
0003
0000
,
0002
0000
0003
0000
,
2000
0000
3000
0000
,
1000
0000
1000
0000
,
0010
0000
0100
0000
,
0001
0000
0100
0000
,
0220
0000
0330
0110
,
0000
0010
0010
0010
,
0000
1000
1000
1000
,
0000
0001
0001
0001
,
0000
0100
0100
0100
,
0000
0001
1000
0001
,
0000
1000
0010
1000
,
0000
0100
0010
0100
,
0000
0010
0100
0010
,
0000
0100
0200
0300
,
0000
0010
0020
0030
,
0000
1000
2000
3000
,
0000
1001
0000
0000
,
0000
0100
0000
0100
,
0000
0010
0000
1000
,
0000
0001
1000
0001
,
2002
0000
3003
1001
,
0000
0100
0100
0100
,
0000
0001
0001
0001
,
0000
1000
1000
1000
,
0000
0010
0010
0010
,
0000
1000
0001
1000
,
0000
0001
0100
0001
,
0000
0010
0100
0010
,
0000
0100
0010
0100
,
0000
0001
1000
0001
,
0000
0100
0010
0100
,
0000
0010
1000
0010
,
0000
0100
0001
0100
,
0000
0010
1000
0010
,
0000
1000
1000
1000
,
0000
0001
0001
0001
,
0000
0100
0010
0100
,
0110
0000
0000
0000
;

//---------------dance-single - ----------------
#NOTES:
     dance-single:
     :
     Medium:
     7:
     0.271,0.300,0.206,0.124,0.157:
0000
0000
0000
0000
,
0000
0000
0000
0000
,
0000
0000
0000
0000
,
0000
0000
0000
1000
,
0010
1000
0100
0000
,
0001
0000
0000
0001
0000
0010
0000
0000
0000
0100
0000
0000
,
0010
1000
0100
0000
,
1000
0000
0000
1000
0000
0001
0000
0000
0000
0100
0000
0000
,
0001
0000
0010
0000
0100
0000
1000
0000
0000
0000
0000
0000
,
1000
0000
0010
0000
1000
0000
0010
0000
0000
0000
0000
0000
,
1010
0000
0101
0000
,
1000
0000
0001
0000
1000
0000
0001
0000
0000
0000
0000
0000
,
0100
0010
1000
0010
,
0100
0010
0001
1000
,
1010
0000
0000
0000
0000
0000
0100
0000
0010
0000
0100
0010
,
0100
0000
0000
0000
0001
1000
0001
0000
0010
0000
0000
0000
,
2000
3200
0320
0032
,
1003
0000
0000
0000
0000
0000
0010
0000
1000
0010
0000
0100
,
0000
0000
0000
0000
0000
0000
0100
0000
0001
0100
0000
0020
,
0000
0000
0030
0110
,
1001
1000
0010
0100
,
0101
0010
0100
1000
,
1001
0000
0000
0001
0000
0100
0000
0010
0000
0100
0000
0001
,
0000
0000
0000
0000
0100
0001
1000
0000
0010
0000
1000
0000
,
1001
0010
0100
0010
,
0101
1000
0010
1000
,
1100
0000
0000
1000
0000
0100
0000
0010
0000
0001
0000
1000
,
0000
0010
0010
0100
,
0210
0010
0310
0000
,
1002
1000
1003
0000
,
2010
0010
3010
0000
,
1020
1030
0000
0100
,
0010
1000
0010
0100
,
0001
0100
1000
0100
,
0001
1000
0010
0001
,
2002
0000
3003
0110
,
1001
0001
0100
0010
,
1010
0100
0010
0001
,
1001
0000
0000
1000
0000
0010
0000
0100
0000
0010
0000
1000
,
0000
0000
0000
0000
0010
1000
0001
0000
0100
0000
0001
0000
,
1001
0100
0010
0100
,
1010
0001
0100
0001
,
0011
0000
0000
0001
0000
0010
0000
0100
0000
1000
0000
0001
,
0000
0100
0100
0010
,
2000
0002
0003
3001
,
0001
0100
0010
0100
,
0010
1000
0001
0100
,
1001
1000
0010
0100
,
0002
2000
3000
1003
,
1000
0010
0100
0010
,
0100
0001
1000
0010
,
1001
0001
0100
0010
,
0110
0000
0000
0000
;

//---------------dance-single - ----------------
#NOTES:
     dance-single:
     :
     Hard:
     14:
     0.451,0.471,0.165,0.189,0.754: // measure 1
0000
1000
0010
0100
0010
1000
0010
0100
0010
1000
0000
0000
,  // measure 2
0000
0001
0100
0010
0100
0001
0100
0010
0100
0001
0000
0000
,  // measure 3
0000
0000
0001
1000
0010
1000
0001
1000
0010
1000
0000
0000
,  // measure 4
0000
0000
0220
0000
0330
0000
0000
0000
0000
0001
0100
0001
,  // measure 5
1000
0000
0000
0000
0000
0000
0110
0000
0000
0000
0000
1000
,  // measure 6
0010
0000
0010
1000
0000
0100
0000
0000
0000
0001
0100
0010
,  // measure 7
1000
0000
0000
0000
0000
0000
1010
0000
0000
0000
0000
0100
,  // measure 8
0010
0000
0010
0100
0000
0010
0000
0000
0000
0010
0100
0001
,  // measure 9
1000
0000
1000
0000
1000
0000
1010
0000
0000
0100
0001
0100
,  // measure 10
0010
0000
0010
0000
0010
1000
0001
0000
0000
0100
0010
0100
,  // measure 11
0010
0000
0000
0100
0010
1000
0001
0000
0000
0010
0100
1000
,  // measure 12
0100
0000
0010
0000
0001
0000
1000
0000
0000
0100
0000
0000
,  // measure 13
0101
0000
0000
0001
0100
0001
1000
0000
0000
1000
0010
0100
,  // measure 14
0001
0000
0000
1000
0100
0010
0001
0010
0100
1000
0001
0100
,  // measure 15
0001
0000
0000
0000
0001
0010
0100
0000
1000
0000
0001
1000
,  // measure 16
0002
0000
0000
0000
0103
0010
1000
0000
1001
0000
0000
0000
,  // measure 17
0002
0023
0230
2300
,  // measure 18
3100
0000
0000
0000
0000
1000
0010
0000
0010
1000
0000
1010
,  // measure 19
0000
0000
0000
0000
0000
0001
0100
0000
0100
0001
0000
0202
,  // measure 20
0000
0000
0303
0110
,  // measure 21
1001
0000
0000
0001
0010
0100
1000
0010
1000
0010
0100
0001
,  // measure 22
1000
0000
0000
0100
0001
0100
1000
0100
0001
0100
1000
0100
,  // measure 23
0001
0000
0000
0010
0000
0010
0000
0100
0000
0100
0000
0110
,  // measure 24
0000
0000
0000
0010
0000
0000
1000
0000
1000
0000
0010
0000
,  // measure 25
1010
0000
0000
1000
0001
0100
0010
0100
0001
1000
0001
1000
,  // measure 26
0010
0000
0000
0100
0010
1000
0010
0100
0001
0100
1000
0100
,  // measure 27
0001
0000
0000
0001
0000
0010
0000
0100
0000
1000
0000
1001
,  // measure 28
0000
0000
0000
0000
0010
0100
0010
0000
0010
0000
1000
0000
,  // measure 29
2000
0000
0000
0100
0000
0000
3100
0000
0000
0100
1000
0010
,  // measure 30
0002
0000
0000
0100
0000
0000
0103
0000
0000
0001
1000
0010
,  // measure 31
0200
0000
0000
0001
0000
0000
0301
0000
0001
0100
0000
0100
,  // measure 32
0010
0000
0000
1001
0000
0000
0000
0000
0000
0010
1000
0010
,  // measure 33
1000
1000
0010
0100
,  // measure 34
0001
0010
0100
1000
,  // measure 35
2002
0000
0000
0000
0000
3003
1000
0010
1000
0001
0100
0010
,  // measure 36
0200
0000
0000
0000
0310
0100
0010
0000
0000
0110
0000
0000
,  // measure 37
1001
0000
0000
1000
0100
0010
0001
0100
0001
0100
0010
1000
,  // measure 38
0001
0000
0000
0010
1000
0010
0001
0010
1000
0010
0001
0010
,  // measure 39
1000
0000
0000
0100
0000
0100
0000
0010
0000
0010
0000
0110
,  // measure 40
0000
0000
0000
0100
0000
0000
0001
0000
0001
0000
0100
0000
,  // measure 41
0101
0000
0000
0001
1000
0010
0100
0010
1000
0001
1000
0001
,  // measure 42
0100
0000
0000
0010
0100
0001
0100
0010
1000
0010
0001
0010
,  // measure 43
1000
0000
0000
1000
0000
0100
0000
0010
0000
0001
0000
1001
,  // measure 44
0000
0000
0000
0000
0100
0010
0100
0000
0100
0000
0001
0000
,  // measure 45
0020
0032
2003
3200
,  // measure 46
0300
0000
0000
0000
0000
0010
1000
0001
0100
0001
0100
0010
,  // measure 47
1000
0000
0000
0000
0000
1000
0001
0010
0100
1000
0100
0010
,  // measure 48
0001
0000
0000
0000
0100
0010
0100
0000
0010
0000
0010
0000
,  // measure 49
0200
2300
3002
0023
,  // measure 50
0030
0000
0000
0000
0000
0100
0001
1000
0010
1000
0010
0100
,  // measure 51
0001
0000
0000
0000
0000
0001
1000
0100
0010
0001
0010
0100
,  // measure 52
1000
0000
0000
0000
0010
0100
0010
0000
0100
0000
0100
0000
,  // measure 53
0100
0000
0000
0000
;
