#TITLE:Girl Front;
#SUBTITLE:;
#ARTIST:LOONA / ODD EYE CIRCLE;
#TITLETRANSLIT:;
#SUBTITLETRANSLIT:;
#ARTISTTRANSLIT:;
#CREDIT:;
#BANNER:Girl Front.png;
#BACKGROUND:Girl Front-bg.png;
#LYRICSPATH:;
#CDTITLE:;
#MUSIC:Girl Front.mp3;
#OFFSET:-0.900;
#SAMPLESTART:44.200;
#SAMPLELENGTH:15.000;
#SELECTABLE:YES;
#BPMS:0.000=140.000,184.000=70.000,216.000=140.000;
#STOPS:;
#BGCHANGES:-2.000=Girl Front.avi=1.000=0=0=0,
99999=-nosongbg-=1.000=0=0=0 // don't automatically add -songbackground-
;

//---------------dance-single - ----------------
#NOTES:
     dance-single:
     :
     Hard:
     14:
     0.474,0.634,0.083,0.271,0.239: // measure 1
0000
0000
0000
0000
,  // measure 2
0000
0000
0000
0000
,  // measure 3
0100
0000
0010
0100
0010
0000
0100
0000
0010
0000
0000
1000
0000
0000
0010
0000
,  // measure 4
0000
0000
1000
0000
0001
0000
0100
0001
0100
0000
0000
0001
0000
0000
0100
0000
,  // measure 5
0000
0000
0010
0000
1000
0000
0010
1000
0001
0000
0000
0100
0000
0000
0010
0000
,  // measure 6
0000
0000
1000
0000
0010
0000
1000
0010
1000
0000
0000
0010
0000
0000
0100
0000
,  // measure 7
0010
0000
0100
0010
0100
0000
0010
0000
0100
0000
0000
0001
0000
0000
0100
0000
,  // measure 8
0000
0000
0001
0000
1000
0000
0010
1000
0010
0000
0000
1000
0000
0000
0010
0000
,  // measure 9
0000
0000
0100
0000
0001
0000
0100
0001
1000
0000
0000
0010
0000
0000
0100
0000
,  // measure 10
0010
0000
0000
0100
0000
0000
0001
0000
0010
0000
1000
0000
0100
0000
0010
0000
,  // measure 11
1000
0000
0000
0000
1010
0000
0000
0000
1000
0010
0100
0000
0010
0100
0001
0000
,  // measure 12
0010
0000
0001
0000
0010
0000
0100
0000
0010
0000
0000
1000
0000
0000
0010
0000
,  // measure 13
0000
0000
0000
0000
0100
0010
1000
0010
1000
0000
0010
1000
0000
1000
0001
0000
,  // measure 14
0100
0010
0001
0100
0010
1000
0100
0010
,  // measure 15
0001
0000
0000
0000
0101
0000
0000
0000
0001
0100
0010
0000
1000
0010
0100
0000
,  // measure 16
0010
0000
0000
0000
0000
0000
0000
0000
1000
0000
0000
0010
0000
0000
1000
0000
,  // measure 17
0000
0000
0000
0000
0010
0100
0001
0100
0001
0000
0100
0010
0000
0010
1000
0000
,  // measure 18
0000
1000
0100
0010
0001
0100
0010
1000
,  // measure 19
1001
0000
0110
0000
1001
0000
0010
1000
,  // measure 20
0000
0010
0001
0000
0100
0000
1001
0010
,  // measure 21
0100
0010
1000
0000
1100
0000
0000
0010
,  // measure 22
0000
0100
0010
0001
0010
0100
0001
1000
,  // measure 23
0020
0000
1000
2030
0000
0000
0001
3001
,  // measure 24
0100
0000
0010
0000
1000
0000
0010
0000
1000
0000
0000
0010
0000
0000
1000
0000
,  // measure 25
0100
0000
0000
0000
1000
0000
0000
0000
0100
0000
0000
0010
0000
0000
0101
0000
,  // measure 26
0010
0000
0000
0100
0000
0000
0010
0000
1000
0000
0010
0000
0001
0000
0010
0000
,  // measure 27
1000
0000
1000
0100
0010
0000
0010
0100
,  // measure 28
1000
0000
0010
1000
0001
0100
0010
0001
,  // measure 29
0010
0000
0000
0000
0000
0000
0100
0000
0010
0000
0000
0100
0000
0000
0020
0000
,  // measure 30
0000
0030
0000
0001
0010
0100
0010
0000
,  // measure 31
1000
0000
0000
0000
0010
0000
1000
0000
0010
0000
0000
1000
0000
0000
0010
0000
,  // measure 32
0000
0000
0000
0000
0010
0000
0001
0000
0010
0000
0000
0100
0000
0000
0010
0000
,  // measure 33
0000
0000
0000
0000
1000
0000
0100
0000
0010
0000
0000
0001
0000
0000
0100
0000
,  // measure 34
0000
0000
0100
0010
0001
1000
0100
0000
,  // measure 35
1010
1000
0010
0020
,  // measure 36
0000
0000
0030
0100
0010
0001
1000
0000
,  // measure 37
2000
3020
2030
3020
0230
0302
0203
0302
,  // measure 38
0000
0000
0003
0010
0100
1000
0010
0000
,  // measure 39
0002
0000
0000
0100
0103
0010
1000
0100
,  // measure 40
2000
0000
0000
0001
3001
0010
0100
0010
,  // measure 41
0002
0000
0000
0010
0013
0100
0010
1000
,  // measure 42
0000
0000
1000
0100
0001
0100
1000
0000
,  // measure 43
0001
0100
1000
0010
1000
0010
0001
0000
,  // measure 44
0100
0010
0001
0100
0010
0100
1000
0000
,  // measure 45
0010
0100
0010
1000
0001
1000
0010
0000
,  // measure 46
0001
0010
0100
0010
1000
0100
0010
0000
,  // measure 47
0002
0000
0100
0000
0103
0000
0010
0000
1000
0000
0010
0000
0100
0000
0010
0200
,  // measure 48
0000
0000
0000
0000
0000
0000
0000
0010
0310
1000
0001
0100
0001
1000
0000
1000
,  // measure 49
0020
0100
0130
0001
0100
0010
1000
0001
,  // measure 50
2000
0000
0000
0000
0000
0000
0000
0000
3010
0000
0000
0000
0000
0000
0000
0100
,  // measure 51
0200
0000
0000
0000
0000
0000
0000
0000
0000
0000
0000
0000
0000
0000
0000
0301
0000
0010
0000
0001
0000
1000
0000
0010
0000
0100
0000
0010
0000
1000
0000
0002
,  // measure 52
0000
0000
0000
1000
2003
0000
0000
0000
,  // measure 53
3010
0000
0100
0010
0100
0000
0010
0000
1000
0000
0000
0001
0000
0000
1000
0000
0000
0000
0010
0000
0100
0000
0000
0000
0010
0000
0000
1000
0000
0000
0001
0000
,  // measure 54
0000
0000
0100
0000
0001
0000
0000
0000
1000
0000
0000
0010
0000
0000
2002
0000
0000
0000
0000
0000
3003
0000
0010
0000
1000
0000
0010
0000
1000
0000
0000
0000
,  // measure 55
0001
0000
0001
0010
0100
0000
0100
0010
,  // measure 56
0001
0000
0100
0001
1000
0010
0100
1000
,  // measure 57
0100
0000
0000
0000
0000
0000
0010
0000
0100
0000
0000
0010
0000
0000
0200
0000
,  // measure 58
0000
0300
0000
1000
0100
0010
0100
0000
,  // measure 59
0001
0000
0000
0000
0100
0000
0001
0000
0100
0000
0000
0001
0000
0000
0100
0000
,  // measure 60
0000
0000
0000
0000
0100
0000
1000
0000
0100
0000
0000
0010
0000
0000
0100
0000
,  // measure 61
0000
0000
0000
0000
0001
0000
0010
0000
0100
0000
0000
1000
0000
0000
0010
0000
,  // measure 62
0000
0000
0010
0100
1000
0001
0010
0000
,  // measure 63
0101
0001
0100
0200
,  // measure 64
0000
0000
0300
0010
0100
1000
0001
0000
,  // measure 65
0002
0203
0302
0203
0320
2030
3020
2030
,  // measure 66
0000
0000
3000
0100
0010
0001
0100
0000
,  // measure 67
2000
0000
0000
0010
3010
0100
0001
0010
,  // measure 68
0002
0000
0000
1000
1003
0100
0010
0100
,  // measure 69
2000
0000
0000
0100
3100
0010
0100
0001
,  // measure 70
0000
0000
0001
0010
1000
0010
0001
0000
,  // measure 71
2002
3003
0000
0000
;

//---------------dance-single - ----------------
#NOTES:
     dance-single:
     :
     Medium:
     7:
     0.286,0.341,0.049,0.271,0.087:
0000
0000
0000
0000
,
0000
0000
0000
0000
,
0000
0000
0000
0000
,
0000
0000
0000
0000
,
0000
0000
0000
0000
,
0000
0000
0000
0000
,
0000
0000
0000
0000
,
0000
0000
0000
0000
,
0000
0000
0000
0000
,
0000
0000
0000
0000
,
1001
0000
0000
0000
0010
0000
0000
0000
0100
0000
0000
0010
0000
0000
1000
0000
,
0000
0000
0000
0000
0010
0000
0000
0000
0100
0000
0000
0001
0000
0000
0001
0000
,
0000
0000
0000
0000
1000
0000
0000
0000
0010
0000
0000
1000
0000
0000
0010
0000
,
0000
0000
0001
0000
0010
0000
0001
0000
0100
0000
0000
0001
0000
0000
0010
0000
,
0100
0000
0000
0000
1000
0000
0000
0000
0001
0000
0000
1000
0000
0000
0100
0000
,
0000
0000
0000
0000
1000
0000
0000
0000
0001
0000
0000
0010
0000
0000
0010
0000
,
0000
0000
0000
0000
0100
0000
0000
0000
1000
0000
0000
0100
0000
0000
1000
0000
,
0000
0000
0010
0000
1000
0000
0010
0000
0001
0000
0000
0010
0000
0000
1000
0000
,
0010
0000
0100
0000
1000
0000
0100
0000
0010
0000
0000
1000
0000
0000
0010
0000
,
0000
0000
0000
0000
0100
0000
0000
0000
0001
0000
0000
0010
0000
0000
0100
0000
,
0000
0000
0000
0000
1000
0000
0000
0000
1000
0000
0000
0010
0000
0000
0001
0000
,
0000
0000
0100
0000
0001
0000
1000
0000
0010
0000
0000
0100
0000
0000
0010
0000
,
1000
0000
0000
0000
1000
0000
0000
0000
0010
0000
0000
1000
0000
0000
0010
0000
,
0000
0000
0000
0000
0100
0000
0000
0000
0001
0000
0000
0100
0000
0000
0010
0000
,
0000
0000
0000
0000
0100
0000
0000
0000
0010
0000
0000
1000
0000
0000
0100
0000
,
0001
0000
0000
0001
0000
0000
0010
0000
0100
0000
1000
0000
0010
0000
0100
0000
,
0001
0000
1000
0100
0001
0000
0100
0010
,
1000
0000
0010
0100
0010
0000
1000
0010
,
0001
0000
0000
0000
0000
0000
0010
0000
0010
0000
0000
0100
0000
0000
0001
0000
,
0000
0000
0000
0001
0100
0010
1000
0000
,
0010
0000
0000
0000
1000
0000
0000
0000
1000
0000
0000
0010
0000
0000
1000
0000
,
0000
0000
0000
0000
0010
0000
0000
0000
0010
0000
0000
0100
0000
0000
0010
0000
,
0000
0000
0000
0000
0001
0000
0000
0000
0001
0000
0000
0100
0000
0000
0001
0000
,
0000
0000
0010
0100
1000
0000
0001
0010
,
0101
0000
0000
2000
,
0000
3000
0010
1000
,
0002
0023
0032
0203
,
0000
0300
0010
0001
,
0002
0010
0023
0100
,
0230
1000
2300
0100
,
3200
0010
0320
0001
,
0031
0100
0010
1000
,
1001
0000
0000
0010
1000
0000
0010
0000
,
0000
0001
0100
0000
0100
0000
0001
0000
,
0100
0000
0000
0010
0100
0000
0010
0000
,
0000
1000
0010
0000
1000
0000
0010
0000
,
0020
0000
0230
0000
,
2300
0000
3002
0000
,
2003
0000
3020
0000
,
0230
0000
0302
0000
,
0023
0000
0230
0000
,
2300
0000
3002
0000
,
2000
0000
0000
0000
0000
3003
0000
0000
,
0010
0000
0000
0000
0100
0000
0000
2002
0000
0000
0000
0000
3003
0000
0000
0000
,
1001
0000
0001
0010
1000
0000
0010
0100
,
0001
0000
0100
0010
0100
0000
0001
0100
,
1000
0000
0000
0000
0000
0000
0100
0000
0100
0000
0000
0010
0000
0000
1000
0000
,
0000
0000
0000
1000
0010
0100
0001
0000
,
0100
0000
0000
0000
0001
0000
0000
0000
0001
0000
0000
0100
0000
0000
0001
0000
,
0000
0000
0000
0000
0100
0000
0000
0000
0100
0000
0000
0010
0000
0000
0100
0000
,
0000
0000
0000
0000
1000
0000
0000
0000
1000
0000
0000
0010
0000
0000
1000
0000
,
0000
0000
0100
0010
0001
0000
1000
0100
,
1010
0000
0000
0002
,
0000
0003
0100
0001
,
2000
3200
2300
3020
,
0000
0030
0100
1000
,
2000
0100
3200
0010
,
0320
0001
0032
0010
,
0023
0100
0230
1000
,
1300
0010
0100
0001
,
2002
3003
0000
0000
;

//---------------dance-single - ----------------
#NOTES:
     dance-single:
     :
     Easy:
     4:
     0.220,0.293,0.028,0.243,0.003:
0000
0000
0000
0000
,
0000
0000
0000
0000
,
0000
0000
0000
0000
,
0000
0000
0000
0000
,
0000
0000
0000
0000
,
0000
0000
0000
0000
,
0000
0000
0000
0000
,
0000
0000
0000
0000
,
0000
0000
0000
0000
,
0010
0010
0001
1000
,
0010
1000
0000
1000
,
0001
0010
0000
0100
,
0010
0100
0000
1000
,
0010
0100
0001
0100
,
1000
0010
0000
0100
,
0010
1000
0000
0100
,
0010
0001
0000
1000
,
0010
0100
0001
0100
,
0001
0100
0000
0010
,
0100
0010
0000
1000
,
0010
1000
0000
1000
,
0100
0010
0100
0010
,
0001
0010
0000
1000
,
0010
0001
0000
0100
,
1000
0001
0000
0010
,
1000
0001
0100
0001
,
1001
0010
0000
0100
,
0010
1000
0000
0010
,
0100
0001
0000
1000
,
0010
0100
0000
0010
,
0100
0001
0000
1000
,
0001
1000
0000
0010
,
1000
0001
0000
0100
,
0010
1000
0001
0100
,
0010
0100
0000
0010
,
0100
0001
0000
0100
,
0200
2300
3200
2300
,
0000
3010
0010
0010
,
0200
0000
0320
0000
,
2030
0000
3002
0000
,
0203
0000
0302
0000
,
1003
0010
1000
0010
,
1000
0000
0000
1000
1000
0000
1000
0000
,
0000
0100
0100
0000
0100
0000
0100
0000
,
0100
0000
0000
0001
0001
0000
0001
0000
,
0000
0100
0100
0000
0100
0000
0100
0000
,
0200
0000
0302
0000
,
2003
0000
3020
0000
,
2030
0000
3002
0000
,
0023
0000
0230
0000
,
2300
0000
3000
0000
,
0200
0000
0320
0000
,
0030
0000
1000
0000
,
0001
0000
0000
0000
0000
0000
0000
2002
0000
0000
0000
0000
3003
0000
0000
0000
,
1001
0100
0000
0010
,
0100
0001
0000
0100
,
0010
1000
0000
0001
,
0100
0010
0000
0100
,
0010
1000
0000
0001
,
1000
0001
0000
0100
,
0001
1000
0000
0010
,
0100
0001
1000
0010
,
0100
0010
0000
0100
,
0010
1000
0000
0010
,
0020
0032
0023
0032
,
0000
0103
0100
0100
,
0020
0000
0230
0000
,
0302
0000
2003
0000
,
3020
0000
2030
0000
,
3001
0100
0001
0100
,
2002
3003
0000
0000
;

//---------------dance-single - ----------------
#NOTES:
     dance-single:
     :
     Beginner:
     2:
     0.151,0.195,0.035,0.180,0.003:
0000
0000
0000
0000
,
0000
0000
0000
0000
,
0000
0000
0000
0000
,
0000
0000
0000
0000
,
0000
0000
0000
0000
,
0000
0000
0000
0000
,
0000
0000
0000
0000
,
0000
0000
0000
0000
,
0000
0000
0000
0000
,
0000
0000
0000
0000
,
0000
0010
0000
0100
,
0000
0100
0000
0010
,
0000
1000
0000
0001
,
0000
0100
0000
0001
,
0000
1000
0000
0010
,
0000
0100
0000
0010
,
0000
1000
0000
0001
,
0000
0100
0000
0000
,
1001
0110
1001
0000
,
0000
0010
0000
0001
,
0000
0100
0100
0100
,
0000
0010
0000
1000
,
0000
0001
0001
0001
,
0000
0100
0000
0010
,
0000
1000
1000
1000
,
0000
0010
0000
0100
,
0000
1000
0000
0001
,
0000
0001
1000
0001
,
0000
0100
0000
0010
,
0000
1000
0001
1000
,
0000
0010
0000
1000
,
0000
0010
0000
1000
,
0000
0001
0000
0100
,
0000
0001
0000
0100
,
0200
0000
0300
0100
,
0000
0010
0000
1000
,
2000
3000
2000
3000
,
2000
3000
0000
0010
,
0020
0000
0030
0010
,
0020
0000
0030
0010
,
0020
0000
0030
0010
,
0000
1000
0000
0001
,
0001
0000
1000
0000
,
0010
0000
1000
0000
,
0010
0000
0100
0000
,
0001
0000
0100
0000
,
2000
0000
3000
0000
,
0002
0000
0003
0000
,
0020
0000
0030
0000
,
0200
0000
0300
0000
,
2000
0000
3000
0000
,
0020
0030
0200
0300
,
2002
0000
0000
0000
0000
3003
0000
0000
,
0000
0000
0000
0000
0000
0000
0000
0220
0000
0000
0000
0000
0330
0000
0000
0000
,
0000
0001
0000
1000
,
0000
1000
0001
1000
,
0000
0010
0000
0100
,
0000
0001
1000
0001
,
0000
0100
0000
0001
,
0000
0100
0000
0001
,
0000
1000
0000
0010
,
0000
1000
0000
0010
,
0020
0000
0030
0010
,
0000
0100
0000
0001
,
0002
0003
0002
0003
,
0002
0003
0000
0100
,
0200
0000
0300
0100
,
0200
0000
0300
0100
,
0200
0000
0300
0100
,
0000
0001
0000
1000
,
2000
3000
0000
0000
;
