#TITLE:Gemintang Hatiku;
#SUBTITLE:;
#ARTIST:Tiara Andini;
#TITLETRANSLIT:;
#SUBTITLETRANSLIT:;
#ARTISTTRANSLIT:;
#CREDIT:;
#BANNER:Gemintang Hatiku.png;
#BACKGROUND:Gemintang Hatiku-bg.png;
#LYRICSPATH:;
#CDTITLE:;
#MUSIC:Gemintang Hatiku.mp3;
#OFFSET:1.060;
#SAMPLESTART:48.940;
#SAMPLELENGTH:15.000;
#SELECTABLE:YES;
#BPMS:0.000=120.000;
#STOPS:;
#BGCHANGES:;

//---------------dance-single - ----------------
#NOTES:
     dance-single:
     :
     Easy:
     4:
     0.219,0.292,0.084,0.076,0.000:
0000
0000
0000
0000
,
0000
0000
0000
0000
,
0000
0000
0000
0000
,
0000
0000
0000
0000
,
1000
0100
0010
0001
,
1001
0001
0000
1000
,
0000
0010
0000
0100
,
0000
0001
0000
1000
,
0000
0010
0000
0100
,
0000
0010
0000
0001
,
0000
1000
0000
0010
,
0000
0100
0000
0010
,
0000
1000
0000
0001
,
0000
0001
1000
0010
,
0000
0010
1000
0010
,
0000
0100
0001
0010
,
0000
1000
0010
0001
,
0000
0001
0010
1000
,
0000
0100
0010
1000
,
0000
0001
0010
0100
,
0000
1000
0010
1000
,
0000
1000
0000
0001
,
0000
0100
0000
0010
,
0000
1000
0000
0001
,
0001
0010
0100
1000
,
2001
3002
0103
0001
,
1000
0010
0100
0010
,
0210
0320
1030
0010
,
1000
0010
0100
0001
,
0100
0010
1000
0010
,
0100
0001
0100
0001
,
1000
1010
0010
1000
,
0001
0100
0010
1000
,
1002
2003
3010
1000
,
0001
0100
0010
0100
,
0120
0230
0301
0100
,
0001
0100
0010
1000
,
0010
0100
0001
0100
,
0010
1000
0010
1000
,
0001
0101
0100
0001
,
1000
0010
0100
0001
,
0001
1000
0000
0010
,
0000
0100
0000
0001
,
0000
1000
0000
0010
,
0000
0100
0001
1000
,
0010
1010
0000
1000
,
0000
0010
0001
0100
,
1000
1001
0000
0001
,
0000
0001
0010
0100
,
1000
1010
0000
0010
,
0000
1000
0000
0001
,
0000
0100
0000
0001
,
0000
1000
0010
0010
,
1000
1000
0000
0001
,
0000
0100
0010
1000
,
0001
0100
0000
0010
,
0000
0000
1000
0000
0001
0000
1000
0002
,
0000
0000
0000
0000
,
0003
0000
0000
0000
;

//---------------dance-single - ----------------
#NOTES:
     dance-single:
     :
     Beginner:
     2:
     0.160,0.195,0.017,0.050,0.000:
0000
0000
0000
0000
,
0000
0000
0000
0000
,
0000
0000
0000
0000
,
0000
0000
0000
0000
,
0001
0001
0001
0001
,
0000
0100
0000
0010
,
0000
1000
0000
0100
,
0000
1000
0000
1000
,
0000
0010
0000
0010
,
0000
0100
0000
0100
,
0000
0001
0000
0001
,
0000
0100
0000
0100
,
0000
1000
0000
1000
,
0000
0001
0000
0100
,
0000
0010
0000
1000
,
0000
0100
0000
1000
,
0000
0010
0000
0100
,
0000
0010
0000
0100
,
0000
0001
0000
0001
,
0000
1000
0000
0010
,
0000
0100
0000
0010
,
0000
2000
0000
3000
,
0000
0200
0000
0300
,
0000
0002
0000
0003
,
0001
1000
0001
1000
,
1001
0001
0000
0100
,
0000
0010
0010
1000
,
0000
0010
0000
0100
,
0000
0001
0001
1000
,
0000
0010
0000
0100
,
0000
0010
1000
1000
,
0000
0001
0000
0001
,
0000
0100
0100
0010
,
0000
0010
0000
0100
,
0000
0001
1000
1000
,
0000
0001
0000
0100
,
0000
0010
0001
0100
,
0000
0001
0000
1000
,
0000
0001
1000
0100
,
0000
0010
0000
1000
,
0000
0010
0100
0001
,
0020
0000
0000
0000
,
0030
0010
0010
1000
,
0000
0001
0000
0100
,
0000
0010
0001
1000
,
0000
0010
0000
0100
,
0000
0001
1000
0010
,
0000
0100
0000
0001
,
0000
1000
0010
1000
,
0000
0001
0000
0100
,
0000
0010
0100
0010
,
0000
0001
0000
1000
,
0000
0010
0001
1000
,
0000
0001
0000
0100
,
0000
0001
1000
0100
,
0000
0010
0000
0001
,
1000
1000
1000
1000
,
2002
0000
0000
0000
,
3003
0000
0000
0000
;

//---------------dance-single - ----------------
#NOTES:
     dance-single:
     :
     Hard:
     12:
     0.410,0.463,0.059,0.269,0.042: // measure 1
0000
0000
0000
0000
,  // measure 2
1000
0000
0010
0000
0100
0000
0010
1000
0000
0000
0010
0000
0100
0000
0000
0000
,  // measure 3
0001
0000
0100
0000
0010
0000
1000
0001
0000
0000
0100
0000
0010
0000
0000
0000
,  // measure 4
0010
0000
0100
0000
0010
0000
1000
0010
0000
0000
0100
0000
0001
0000
0000
0000
,  // measure 5
1000
0000
1100
0000
1000
0000
1001
0000
0001
0000
0101
0000
0100
0000
0010
0100
,  // measure 6
0020
0000
1030
0000
0001
0100
0001
0000
,  // measure 7
1000
0010
1000
0000
0001
0100
0001
0000
1000
0010
1000
0000
0010
0000
1000
0010
,  // measure 8
0000
0000
0100
0000
0001
0010
0001
0000
,  // measure 9
1000
0000
0000
0000
0010
0000
0000
0000
0100
0000
0002
0000
0000
0023
0000
0000
,  // measure 10
0230
0000
0000
0300
1000
0000
0000
0000
0010
0000
0000
0000
0100
0000
0000
0000
,  // measure 11
0001
0000
0000
0000
1000
0000
0000
0000
0010
0000
1000
0000
0010
0000
1000
0010
,  // measure 12
1000
0001
0100
0010
1000
0010
1000
0002
,  // measure 13
0000
0000
0000
0000
0103
0001
0100
0000
,  // measure 14
0002
0103
2000
3010
,  // measure 15
0020
0000
0130
0000
0100
0010
0100
0000
,  // measure 16
2000
3010
2000
3100
,  // measure 17
0200
0000
0310
0000
0001
1000
0001
0000
,  // measure 18
2000
3010
0002
0103
,  // measure 19
0200
0000
0310
0000
0010
0100
0010
0000
,  // measure 20
0002
0103
0002
0013
,  // measure 21
0020
0000
0130
0000
1000
0001
1000
0000
,  // measure 22
0000
0010
0000
0100
,  // measure 23
0000
0001
0000
1000
,  // measure 24
0000
0010
0000
0100
,  // measure 25
0101
0010
0110
0100
1010
1000
1001
0000
,  // measure 26
2000
0000
3010
0000
0010
0000
0100
0100
,  // measure 27
0001
0000
0001
0000
0100
0001
0100
0000
,  // measure 28
0020
0000
0130
0000
0010
0000
1000
1000
,  // measure 29
0001
0000
0100
0000
0001
1000
0001
0000
,  // measure 30
0002
0000
1003
0000
0001
0000
0100
0010
,  // measure 31
0100
0000
0010
0000
1000
0001
1000
0000
,  // measure 32
0002
0000
0103
0000
0001
0000
1000
0010
,  // measure 33
1000
0000
0001
0000
0100
0010
0100
0000
,  // measure 34
0002
0000
0103
0000
0100
0000
0010
0010
,  // measure 35
1000
0000
1000
0000
0010
1000
0010
0000
,  // measure 36
0200
0000
0310
0000
0100
0000
0001
0001
,  // measure 37
1000
0000
0010
0000
1000
0001
1000
0000
,  // measure 38
2000
0000
3001
0000
1000
0000
0010
0100
,  // measure 39
0010
0000
0100
0000
0001
1000
0001
0000
,  // measure 40
2000
0000
3010
0000
1000
0000
0001
0100
,  // measure 41
0001
0000
1000
0000
0010
0100
0010
0000
,  // measure 42
1000
0010
0100
0010
0100
0100
0000
0000
,  // measure 43
0001
0100
0001
1000
0001
0001
0000
0000
,  // measure 44
0010
0100
0001
1000
0010
0010
0000
0000
,  // measure 45
1000
0000
1000
0000
0001
1000
0001
1000
,  // measure 46
0010
0000
0100
0000
0010
1000
0010
2000
,  // measure 47
0000
3001
0000
0020
0000
0130
0010
1000
,  // measure 48
0100
0010
0001
1000
0000
0001
1000
0002
,  // measure 49
0000
0103
0000
0001
0010
0100
1000
1000
,  // measure 50
0001
0100
0010
0100
0010
0010
0000
0000
,  // measure 51
1000
0010
1000
0001
1000
1000
0000
0000
,  // measure 52
0100
0010
1000
0001
0100
0100
0000
0000
,  // measure 53
0001
0000
0001
0000
1000
0001
1000
0001
,  // measure 54
0100
0000
0010
0000
0100
0001
0100
0002
,  // measure 55
0000
1003
0000
0200
0000
0310
0100
0001
,  // measure 56
0010
0100
1000
0001
0000
1000
0001
2000
,  // measure 57
0000
3010
0000
1000
0100
0010
0001
0002
,  // measure 58
0000
0000
0000
0000
,  // measure 59
0003
0000
0000
0000
;

//---------------dance-single - ----------------
#NOTES:
     dance-single:
     :
     Medium:
     7:
     0.326,0.390,0.126,0.185,0.000:
0000
0000
0000
0000
,
0000
0000
0000
0000
,
0000
0010
0001
1000
0000
0010
0100
0010
,
0000
1000
0001
0100
0000
0001
1000
0001
,
1001
1010
1001
0101
,
0210
0010
0310
0000
,
1002
1000
1003
0000
,
2001
0001
3001
0000
,
1020
0100
1030
0000
,
0102
0010
0103
0000
,
0120
1000
0130
0000
,
1000
0001
0100
0000
0001
1000
0001
0000
,
1000
0010
1000
0000
0010
0100
0010
0000
,
0001
0100
0001
1000
,
0010
1000
0001
0100
,
0001
1000
0010
1000
,
0010
0100
0010
1000
,
0010
1000
0001
0100
,
0001
1000
0010
0100
,
0010
1000
0001
0100
,
0001
1000
0001
0100
,
0001
1000
0000
0010
,
0000
0100
0000
0001
,
0000
1000
0000
0010
,
2000
3010
0200
0310
0020
0031
0001
0000
,
0002
0103
0010
1000
,
0001
0000
0100
0000
0010
0100
0010
0000
,
2000
3010
1000
0001
,
0100
0000
0001
0000
0010
1000
0010
0000
,
0001
1000
0010
1000
,
0001
0000
0100
0000
0010
1000
1000
0000
,
0001
0100
0001
0100
,
0010
0000
0100
0000
0001
1000
0001
0000
,
2000
3010
0100
0001
,
1000
0000
0010
0000
0100
0010
0100
0000
,
0002
0103
0001
1000
,
0010
0000
1000
0000
0100
0001
0100
0000
,
1000
0001
0100
0001
,
1000
0000
0010
0000
0100
0001
0001
0000
,
1000
0010
1000
0010
,
0100
0000
0010
0000
1000
0001
1000
0000
,
1002
0010
0100
0010
,
1003
0010
0100
0010
,
2010
0001
0100
0001
,
3001
0010
1000
0010
,
0210
0001
0010
0001
,
0310
0010
1000
0001
,
1020
0100
1000
0100
,
1030
0001
0100
0001
,
1000
0010
0100
0010
,
1000
0000
0001
0000
0100
0010
0001
0000
,
1000
0010
0100
0010
,
1000
0000
0001
0000
0100
0001
0001
0000
,
1000
0010
0100
0001
,
1000
0000
0001
0000
0100
0010
0100
0000
,
0001
1000
0010
1000
,
0002
0013
0020
0130
0200
1300
1000
2002
,
0000
0000
0000
0000
,
3003
0000
0000
0000
;
